VERSION	0.00.00	1.04.00
FES_MODE	0
BPM_DEF	220.000	220.000	220.000	 27.500
MET_DEF	4	4
RESOLUTION	384
CLK_DEF	576
COMPATIBLE_CODE	MA2

BPM	0	0	220.000
BPM	16	336	 70.000
BPM	17	96	220.000
BPM	61	144	 27.500
BPM	61	240	 65.000
BPM	65	240	140.000
BPM	71	240	220.000
BPM	85	144	110.000
BPM	85	240	220.000
BPM	117	240	110.000
MET	0	0	4	3
MET	14	96	8	1
MET	17	96	4	3
MET	29	96	4	4
MET	52	96	4	2
MET	52	288	4	4
MET	54	288	8	1
MET	57	144	4	4
MET	61	144	4	1
MET	61	240	4	4
MET	71	240	4	7
MET	85	240	4	4
MET	117	240	4	2
MET	118	48	4	3

NMTTP	2	96	0	B	0	M1
NMTTP	2	192	1	B	0	M1
NMTTP	2	288	2	B	0	M1
NMTTP	3	0	4	B	0	M1
NMTTP	3	96	5	B	0	M1
NMTTP	3	192	6	B	0	M1
NMTTP	3	288	1	E	0	M1
NMTTP	4	0	2	E	0	M1
NMTTP	4	96	3	E	0	M1
NMTTP	4	192	5	E	0	M1
NMTTP	4	288	6	E	0	M1
NMTTP	5	0	7	E	0	M1
NMTTP	5	96	1	A	0	M1
NMTTP	5	192	2	A	0	M1
NMTTP	5	288	3	A	0	M1
NMTTP	6	0	5	A	0	M1
NMTTP	6	96	6	A	0	M1
NMTTP	6	192	7	A	0	M1
NMTTP	6	288	2	D	0	M1
NMTTP	7	0	3	E	0	M1
NMTTP	7	96	4	D	0	M1
NMTTP	7	192	6	D	0	M1
NMTTP	7	288	7	E	0	M1
NMTTP	8	0	0	D	0	M1
NMSTR	8	96	3
NMSCL	8	96	3	96	960	4
NMTTP	9	0	6	E	0	M1
NMTTP	9	0	6	D	0	M1
NMTTP	9	288	0	E	0	M1
NMTTP	9	288	0	D	0	M1
NMTTP	10	192	2	E	0	M1
NMTTP	10	192	2	D	0	M1
CNSCR	11	0	4	0	960	3
NMTTP	11	96	4	E	0	M1
NMTTP	11	96	4	D	0	M1
NMTTP	12	0	2	E	0	M1
NMTTP	12	0	2	D	0	M1
NMTTP	12	288	0	E	0	M1
NMTTP	12	288	0	D	0	M1
NMTTP	13	192	6	E	0	M1
NMTTP	13	192	6	D	0	M1
NMHLD	14	96	4	1008
NMHLD	14	240	3	864
BRHLD	17	96	1	96
NMTAP	17	192	3
NMHLD	17	240	2	96
NMTAP	17	336	4
NMHLD	18	0	3	96
NMTAP	18	96	5
EXTAP	18	144	5
EXTAP	18	192	4
NMTAP	18	240	4
NMHLD	18	288	6	96
NMTAP	19	0	3
NMHLD	19	48	5	96
NMTAP	19	144	3
NMHLD	19	192	4	96
NMTAP	19	288	2
EXTAP	19	336	2
EXTAP	20	0	3
NMTAP	20	48	3
NMTAP	20	96	0
NMTAP	20	144	0
NMTAP	20	192	3
NMTAP	20	240	1
NMTAP	20	288	4
NMTAP	20	336	4
NMTAP	21	0	1
NMTAP	21	48	1
NMTAP	21	96	3
EXTAP	21	144	2
EXTAP	21	192	5
NMTAP	21	240	5
NMTAP	21	288	2
NMTAP	21	336	2
NMTAP	22	0	5
NMTAP	22	48	4
NMTAP	22	96	6
NMTAP	22	144	6
NMTAP	22	192	3
NMTAP	22	240	3
NMTAP	22	288	6
EXTAP	22	336	4
EXTAP	23	0	7
NMTAP	23	48	7
NMSTR	23	96	4
NMSCL	23	96	4	96	72	1
NMSTR	23	240	7
NMSCL	23	240	7	96	120	4
NMSTR	24	0	2
NMSXR	24	0	2	96	672	7
NMSTR	26	96	3
NMSCR	26	96	3	96	72	6
NMSTR	26	240	0
NMSCR	26	240	0	96	120	3
NMSTR	27	0	5
NMSXL	27	0	5	96	672	0
NMTAP	29	96	1
NMTAP	29	96	3
NMTAP	29	144	1
NMTAP	29	144	3
NMTAP	29	240	2
NMTAP	29	288	3
NMTAP	29	336	4
NMTAP	30	48	2
NMTAP	30	48	3
NMTAP	30	144	2
NMTAP	30	144	3
NMTAP	30	240	4
NMTAP	30	240	5
NMTAP	30	336	4
NMTAP	30	336	5
NMTAP	31	96	4
NMTAP	31	96	6
NMTAP	31	144	4
NMTAP	31	144	6
NMTAP	31	240	5
NMTAP	31	288	4
NMTAP	31	336	3
NMTAP	32	48	1
NMTAP	32	48	2
NMTAP	32	144	3
NMTAP	32	144	4
NMTAP	32	240	5
NMTAP	32	240	6
NMTAP	32	336	7
NMTAP	33	0	7
NMTAP	33	48	0
NMTAP	33	96	6
NMHLD	33	144	6	96
NMTAP	33	240	4
NMTAP	33	288	5
NMSTR	33	336	3
NMSI_	33	336	3	96	48	1
NMTAP	34	48	4
NMSTR	34	144	5
NMSI_	34	144	5	96	48	3
NMTAP	34	240	0
NMTAP	34	336	1
NMTAP	34	336	7
NMTAP	35	96	4
NMTAP	35	96	6
NMTAP	35	144	4
NMTAP	35	144	6
NMTAP	35	240	5
NMTAP	35	288	3
NMSTR	35	336	4
NMSCL	35	336	4	96	48	2
NMTAP	36	48	5
NMSTR	36	144	6
NMSCL	36	144	6	96	48	4
NMTAP	36	240	0
NMTAP	36	336	1
NMTAP	36	336	3
NMTAP	37	0	1
NMTAP	37	0	3
NMHLD	37	96	0	96
NMHLD	37	192	2	96
NMHLD	37	288	1	96
NMHLD	37	336	3	96
NMTAP	38	96	2
NMTAP	38	96	4
NMTAP	38	192	4
NMTAP	38	192	6
NMSTR	38	288	2
NMSI_	38	288	2	96	48	5
NMTAP	38	288	3
NMHLD	39	96	7	96
NMHLD	39	192	5	96
NMHLD	39	288	6	96
NMHLD	39	336	4	96
NMTAP	40	96	3
NMTAP	40	96	5
NMTAP	40	192	1
NMTAP	40	192	3
NMSTR	40	288	4
NMSLL	40	288	4	96	96	5
NMTAP	40	288	5
NMTAP	41	96	6
NMTAP	41	144	6
NMHLD	41	192	4	48
NMTAP	41	240	5
NMTAP	41	288	3
NMTAP	41	336	4
NMTAP	42	0	2
NMTAP	42	48	3
NMHLD	42	96	1	48
NMTAP	42	144	2
NMTAP	42	192	0
NMTAP	42	240	0
NMTAP	42	288	1
NMSTR	42	288	7
NMSCL	42	288	7	96	96	4
NMTAP	43	96	1
NMTAP	43	144	1
NMHLD	43	192	3	48
NMTAP	43	240	2
NMTAP	43	288	4
NMHLD	43	336	3	48
NMTAP	44	0	5
NMTAP	44	48	4
NMHLD	44	96	6	48
NMTAP	44	144	5
NMTAP	44	192	7
NMTAP	44	240	7
NMTAP	44	288	0
NMSTR	44	288	6
NMSV_	44	288	6	96	48	5
NMSTR	45	0	3
NMSUL	45	0	3	96	288	1
CNSI_	45	48	5	0	48	3
BRHLD	46	96	0	96
BRHLD	46	96	6	96
NMTAP	46	240	0
NMTAP	46	240	6
NMTAP	46	336	0
NMTAP	46	336	6
NMTAP	47	96	2
NMTAP	47	96	3
NMTAP	47	144	2
NMTAP	47	144	3
NMTAP	47	240	5
NMTAP	47	288	4
NMHLD	47	336	6	96
NMHLD	48	48	4	96
NMHLD	48	144	3	96
NMSTR	48	240	1
NMSI_	48	240	1	96	48	4
NMTAP	48	336	5
NMTAP	49	0	5
NMTAP	49	96	0
NMTAP	49	96	6
NMTAP	49	144	0
NMTAP	49	144	6
NMTAP	49	240	1
NMTAP	49	288	0
NMSTR	49	336	2
NMSI_	49	336	2	96	48	4
NMTAP	50	48	5
NMSTR	50	144	6
NMSI_	50	144	6	96	48	2
NMSTR	50	240	0
NMSI_	50	240	0	96	48	4
NMTAP	50	336	3
NMTAP	51	96	1
NMTAP	51	96	7
NMTAP	51	144	1
NMTAP	51	144	7
NMTAP	51	240	6
NMTAP	51	288	7
NMSTR	51	336	5
NMSI_	51	336	5	96	48	3
NMTAP	52	48	2
NMHLD	52	144	1	1008
NMTAP	52	240	7
NMTAP	52	288	7
NMTAP	52	336	7
NMTAP	53	0	7
NMTAP	53	48	7
NMTAP	53	96	7
NMTAP	53	144	7
NMTAP	53	192	7
NMTAP	53	240	7
NMTAP	53	288	7
NMTAP	53	336	7
NMTAP	54	0	7
NMTAP	54	48	7
NMTAP	54	96	7
NMTAP	54	144	7
NMTAP	54	192	7
NMTAP	54	240	7
NMHLD	54	288	7	96
NMHLD	55	48	2	96
NMHLD	55	48	6	96
NMHLD	55	192	3	48
NMHLD	55	192	5	48
NMHLD	55	288	4	576
NMHLD	55	360	2	528
NMTHO	57	144	0	1536	C	0	M1
NMHLD	61	240	1	32
NMSTR	61	240	3
NMSI_	61	240	3	96	240	5
NMHLD	62	48	2	32
NMHLD	62	240	3	32
NMSTR	62	240	5
NMSI_	62	240	5	96	240	7
NMHLD	63	48	4	32
NMHLD	63	240	5	32
NMSTR	63	240	7
NMSI_	63	240	7	96	240	1
NMHLD	64	48	6	32
NMSTR	64	240	1
NMSI_	64	240	1	96	240	3
NMHLD	64	240	7	32
NMHLD	65	48	0	32
NMHLD	65	240	4	72
NMHLD	65	240	6	72
NMTAP	66	48	2
NMTAP	66	48	3
NMHLD	66	240	6	72
NMSTR	66	312	4
NMSCL	66	312	4	96	72	1
NMTAP	67	48	5
NMHLD	67	240	1	72
NMHLD	67	240	3	72
NMTAP	68	48	4
NMTAP	68	48	5
NMHLD	68	240	1	72
NMSTR	68	312	3
NMSCR	68	312	3	96	72	6
NMTAP	69	48	2
NMHLD	69	240	3	72
NMHLD	69	240	4	72
NMTAP	70	48	2
NMTAP	70	48	5
NMSTR	70	240	0
NMSI_	70	240	0	96	264	4
NMHLD	70	240	7	72
NMTTP	71	240	7	E	0	M1
NMTTP	71	336	6	E	0	M1
NMTTP	72	48	5	E	0	M1
NMTTP	72	144	3	E	0	M1
NMTTP	72	240	2	E	0	M1
NMTTP	72	336	1	E	0	M1
NMTTP	73	48	4	E	0	M1
NMTTP	73	144	0	E	0	M1
NMTTP	73	240	1	E	0	M1
NMTTP	73	336	2	E	0	M1
NMTTP	74	48	4	E	0	M1
NMTTP	74	144	5	E	0	M1
NMTTP	74	240	6	E	0	M1
NMTTP	74	336	0	E	0	M1
NMTAP	75	48	6
NMTAP	75	96	6
NMTAP	75	144	4
NMTAP	75	192	5
NMTAP	75	240	5
NMTAP	75	288	3
NMTAP	75	336	4
NMTAP	76	0	4
NMTAP	76	48	2
NMTAP	76	96	3
NMTAP	76	144	3
NMTAP	76	192	1
NMTAP	76	240	7
NMTAP	76	288	6
NMTAP	76	336	1
NMTAP	77	0	1
NMTAP	77	48	3
NMTAP	77	96	2
NMTAP	77	144	2
NMTAP	77	192	4
NMTAP	77	240	3
NMTAP	77	288	3
NMTAP	77	336	5
NMTAP	78	0	4
NMTAP	78	48	4
NMTAP	78	96	6
NMTAP	78	144	0
NMTAP	78	192	1
NMTAP	78	240	4
NMTAP	78	288	4
NMTAP	78	336	2
NMTAP	79	0	5
NMTAP	79	48	5
NMTAP	79	96	3
NMTAP	79	144	6
NMTAP	79	192	6
NMTAP	79	240	4
NMTAP	79	288	7
NMTAP	79	336	7
NMTAP	80	0	5
NMHLD	80	48	0	48
NMTAP	80	144	3
NMTAP	80	192	3
NMTAP	80	240	5
NMTAP	80	288	2
NMTAP	80	336	2
NMTAP	81	0	4
NMTAP	81	48	1
NMTAP	81	96	1
NMTAP	81	144	3
NMTAP	81	192	0
NMTAP	81	240	0
NMTAP	81	288	2
NMHLD	81	336	7	48
NMTAP	82	48	5
NMTAP	82	96	5
NMTAP	82	144	5
NMTAP	82	192	4
NMTAP	82	240	4
NMTAP	82	288	4
NMTAP	82	336	3
NMTAP	83	0	3
NMTAP	83	48	3
NMTAP	83	96	2
NMTAP	83	144	2
NMTAP	83	192	2
NMHLD	83	240	0	48
NMTAP	83	336	1
NMTAP	84	0	1
NMTAP	84	48	1
NMTAP	84	96	3
NMTAP	84	144	3
NMTAP	84	192	3
NMTAP	84	240	4
NMTAP	84	288	4
NMTAP	84	336	4
NMTAP	85	0	6
NMTAP	85	48	6
NMTAP	85	96	6
NMSTR	85	144	7
NMSI_	85	144	7	96	48	3
BRTAP	85	240	0
NMTAP	85	336	2
NMTAP	86	0	1
NMTAP	86	0	3
NMTAP	86	96	0
NMTAP	86	96	7
NMTAP	86	144	1
NMTAP	86	144	6
NMHLD	86	240	5	96
NMTAP	86	336	4
NMTAP	87	48	1
NMTAP	87	96	1
NMSTR	87	144	0
NMSI_	87	144	0	96	48	4
NMTAP	87	240	7
NMTAP	87	336	5
NMTAP	88	0	4
NMTAP	88	0	6
NMTAP	88	96	0
NMTAP	88	96	7
NMTAP	88	144	1
NMTAP	88	144	6
NMHLD	88	240	2	96
NMTAP	88	336	3
NMTAP	89	48	7
NMTAP	89	96	7
NMTAP	89	144	0
NMTAP	89	144	6
EXHLD	89	240	2	96
EXTAP	89	240	4
NMTAP	89	336	3
EXTAP	90	0	3
NMTAP	90	96	0
NMTAP	90	96	1
EXTAP	90	144	2
EXTAP	90	144	7
EXTAP	90	240	3
EXHLD	90	240	5	96
NMTAP	90	336	4
EXTAP	91	0	4
NMTAP	91	96	6
NMTAP	91	96	7
EXTAP	91	144	0
EXTAP	91	144	5
NMSTR	91	240	2
NMSCL	91	240	2	96	48	7
NMTAP	91	240	4
NMTAP	91	336	6
NMHLD	92	0	6	96
NMTAP	92	96	7
NMTAP	92	144	0
NMTAP	92	144	6
NMSTR	92	240	5
NMSI_	92	240	5	96	48	0
NMSTR	92	336	1
NMSI_	92	336	1	96	48	3
NMTAP	93	48	4
BXTAP	93	144	6
BXTAP	93	144	7
EXTAP	93	240	0
EXTAP	93	240	1
NMTAP	93	288	0
NMTAP	93	288	1
NMTAP	93	336	2
NMTAP	93	336	7
EXTAP	94	48	5
NMTAP	94	96	4
NMTAP	94	96	5
NMTAP	94	192	1
EXTAP	94	240	1
EXTAP	94	240	2
NMTAP	94	336	7
NMTAP	95	0	7
EXTAP	95	48	4
NMTAP	95	96	5
NMTAP	95	144	1
NMTAP	95	192	3
EXTAP	95	240	0
NMTAP	95	288	0
NMTAP	95	336	1
NMTAP	95	336	7
EXTAP	96	48	2
NMTAP	96	96	2
NMTAP	96	96	3
NMTAP	96	192	6
EXTAP	96	240	5
EXTAP	96	240	6
NMTAP	96	336	0
NMTAP	97	0	0
EXTAP	97	48	3
NMTAP	97	96	2
NMTAP	97	144	6
NMTAP	97	192	4
EXTAP	97	240	3
EXHLD	97	240	5	96
NMTAP	97	336	4
EXTAP	98	0	4
NMTAP	98	96	6
NMTAP	98	96	7
EXTAP	98	144	0
EXTAP	98	144	5
EXHLD	98	240	2	96
EXTAP	98	240	4
NMTAP	98	336	3
EXTAP	99	0	3
NMTAP	99	96	0
NMTAP	99	96	1
EXTAP	99	144	2
EXTAP	99	144	7
NMTAP	99	240	3
NMSTR	99	240	5
NMSCR	99	240	5	96	48	0
NMTAP	99	336	1
NMHLD	100	0	1	96
NMTAP	100	96	0
NMTAP	100	144	1
NMTAP	100	144	7
NMSTR	100	240	6
NMSI_	100	240	6	96	48	3
NMSTR	100	336	2
NMSI_	100	336	2	96	48	7
NMTAP	101	48	4
BXTAP	101	144	0
BXTAP	101	144	6
NMTAP	101	240	2
NMTAP	101	288	2
NMSTR	101	336	3
NMSCR	101	336	3	96	96	6
NMHLD	102	0	1	240
NMTAP	102	240	7
NMTAP	102	288	7
NMSTR	102	336	0
NMSCR	102	336	0	96	96	3
NMHLD	103	0	6	240
NMTAP	103	240	4
NMTAP	103	288	4
NMSTR	103	336	5
NMSCR	103	336	5	96	96	0
NMHLD	104	0	3	240
NMTAP	104	240	1
NMTAP	104	288	1
NMSTR	104	336	2
NMSLR	104	336	2	96	144	1
NMTAP	105	0	0
NMTAP	105	240	5
NMTAP	105	288	5
NMSTR	105	336	4
NMSCL	105	336	4	96	96	1
NMHLD	106	0	6	240
NMTAP	106	240	0
NMTAP	106	288	0
NMSTR	106	336	7
NMSCL	106	336	7	96	96	4
NMHLD	107	0	1	240
NMTAP	107	240	3
NMTAP	107	288	3
NMSTR	107	336	2
NMSCL	107	336	2	96	96	7
NMHLD	108	0	4	240
NMTAP	108	240	6
NMTAP	108	288	6
NMSTR	108	336	5
NMSUL	108	336	5	96	144	3
NMTAP	109	0	7
NMHLD	109	240	2	144
NMHLD	110	0	4	144
BRTAP	110	48	3
BRHLD	110	144	5	96
NMHLD	110	240	6	144
NMHLD	111	0	4	144
BRTAP	111	48	5
BRHLD	111	144	3	96
NMHLD	111	240	2	144
NMHLD	112	0	4	144
BRTAP	112	48	3
BRHLD	112	144	5	96
NMTAP	112	240	6
NMHLD	112	288	6	96
NMTAP	113	0	4
NMTAP	113	48	5
NMTAP	113	144	3
NMTAP	113	144	4
NMHLD	113	240	1	144
NMHLD	114	0	3	144
BRTAP	114	48	2
BRHLD	114	144	4	96
NMHLD	114	240	5	144
NMHLD	115	0	3	144
BRTAP	115	48	4
BRHLD	115	144	2	96
NMHLD	115	240	1	144
NMHLD	116	0	3	144
BRTAP	116	48	2
BRHLD	116	144	4	96
NMTAP	116	240	5
NMHLD	116	288	5	96
NMSTR	117	0	4
NMSUL	117	0	4	96	144	3
NMTAP	117	48	4
NMTHO	118	48	0	48	C	0	M1
NMHLD	118	48	2	240
NMTTP	118	192	3	E	0	M1
NMTHO	118	336	0	48	C	0	M1
NMHLD	118	336	3	240
NMTTP	119	96	4	E	0	M1
NMTHO	119	240	0	48	C	0	M1
NMHLD	119	240	4	240
NMTTP	120	0	5	E	0	M1
NMTHO	120	144	0	48	C	0	M1
NMHLD	120	144	5	144
NMSTR	120	288	4
NMSCR	120	288	4	96	192	3

T_REC_TAP	332
T_REC_BRK	7
T_REC_XTP	35
T_REC_BXX	4
T_REC_HLD	80
T_REC_XHO	4
T_REC_BHO	9
T_REC_BXH	0
T_REC_STR	46
T_REC_BST	0
T_REC_XST	0
T_REC_XBS	0
T_REC_TTP	55
T_REC_THO	5
T_REC_SLD	46
T_REC_BSL	0
T_REC_ALL	623
T_NUM_TAP	468
T_NUM_BRK	20
T_NUM_HLD	89
T_NUM_SLD	46
T_NUM_ALL	623
T_JUDGE_TAP	479
T_JUDGE_HLD	347
T_JUDGE_SLD	46
T_JUDGE_ALL	872
TTM_EACHPAIRS	80
TTM_SCR_TAP	234000
TTM_SCR_BRK	52000
TTM_SCR_HLD	89000
TTM_SCR_SLD	69000
TTM_SCR_ALL	444000
TTM_SCR_S	428750
TTM_SCR_SS	442000
TTM_RAT_ACV	10045

