VERSION	0.00.00	1.04.00
FES_MODE	0
BPM_DEF	220.000	220.000	220.000	 27.500
MET_DEF	4	4
RESOLUTION	384
CLK_DEF	576
COMPATIBLE_CODE	MA2

BPM	0	0	220.000
BPM	16	336	 70.000
BPM	17	96	220.000
BPM	61	144	 27.500
BPM	61	240	 65.000
BPM	65	240	140.000
BPM	71	240	220.000
BPM	85	144	110.000
BPM	85	240	220.000
BPM	117	240	110.000
MET	0	0	4	3
MET	14	96	8	1
MET	17	96	4	3
MET	29	96	4	4
MET	52	96	4	2
MET	52	288	4	4
MET	54	288	8	1
MET	57	144	4	4
MET	61	144	4	1
MET	61	240	4	4
MET	71	240	4	7
MET	85	240	4	4
MET	117	240	4	2
MET	118	48	4	3

NMHLD	2	96	2	288
NMHLD	3	0	3	288
NMHLD	3	288	4	288
NMTAP	4	192	5
NMHLD	5	96	5	288
NMHLD	6	0	4	288
NMHLD	6	288	3	288
NMTAP	7	192	2
NMHLD	8	96	1	288
NMHLD	9	0	2	288
NMHLD	9	288	3	288
NMTAP	10	192	4
NMHLD	11	96	6	288
NMHLD	12	0	5	288
NMHLD	12	288	4	288
NMTAP	13	192	3
EXHLD	14	96	2	1008
EXHLD	14	96	5	1008
NMTAP	17	96	1
NMTAP	17	192	1
NMTAP	18	0	2
NMTAP	18	96	2
NMTAP	18	288	3
NMTAP	19	0	3
NMTAP	19	192	4
NMTAP	19	192	5
NMTAP	20	96	6
NMTAP	20	192	6
NMTAP	21	0	5
NMTAP	21	96	5
NMTAP	21	288	4
NMTAP	22	0	4
NMTAP	22	192	2
NMTAP	22	192	3
NMTAP	23	96	2
NMTAP	23	192	2
NMTAP	24	0	1
NMTAP	24	96	1
NMTAP	24	288	0
NMTAP	25	0	0
NMTAP	25	192	6
NMTAP	25	192	7
NMTAP	26	96	5
NMTAP	26	192	5
NMTAP	27	0	6
NMTAP	27	96	6
NMTAP	27	288	7
NMTAP	28	0	7
NMTAP	28	192	0
NMTAP	28	192	1
NMSTR	29	96	1
NMSI_	29	96	1	96	288	4
NMSTR	31	96	6
NMSI_	31	96	6	96	288	3
NMTAP	33	96	1
NMTAP	33	192	1
NMTAP	33	288	2
NMTAP	34	0	2
NMTAP	34	96	3
NMTAP	34	192	3
NMTAP	34	288	4
NMTAP	34	288	5
NMTAP	35	96	6
NMTAP	35	192	6
NMTAP	35	288	5
NMTAP	36	0	5
NMTAP	36	96	4
NMTAP	36	192	4
NMTAP	36	288	2
NMTAP	36	288	3
NMTAP	37	96	1
NMTAP	37	192	1
NMTAP	37	288	0
NMTAP	37	288	1
NMTAP	38	0	0
NMTAP	38	0	1
NMTAP	38	96	2
NMTAP	38	192	2
NMTAP	38	288	2
NMTAP	38	288	3
NMTAP	39	0	2
NMTAP	39	0	3
NMTAP	39	96	4
NMTAP	39	192	4
NMTAP	39	288	4
NMTAP	39	288	5
NMTAP	40	0	4
NMTAP	40	0	5
NMTAP	40	96	6
NMTAP	40	96	7
NMTAP	40	192	6
NMTAP	40	192	7
NMTAP	40	288	6
NMTAP	40	288	7
NMTAP	41	96	6
NMTAP	41	192	6
NMTAP	41	288	6
NMTAP	41	288	7
NMTAP	42	0	6
NMTAP	42	0	7
NMTAP	42	96	5
NMTAP	42	192	5
NMTAP	42	288	4
NMTAP	42	288	5
NMTAP	43	0	4
NMTAP	43	0	5
NMTAP	43	96	3
NMTAP	43	192	3
NMTAP	43	288	2
NMTAP	43	288	3
NMTAP	44	0	2
NMTAP	44	0	3
NMTAP	44	96	0
NMTAP	44	96	1
NMTAP	44	192	0
NMTAP	44	192	1
NMTAP	44	288	0
NMTAP	44	288	1
BRTAP	45	96	0
BRTAP	45	96	7
NMTTP	46	96	1	B	0	L1
NMTTP	46	192	2	B	0	L1
NMTTP	46	288	3	B	0	L1
NMTTP	47	96	6	B	0	L1
NMTTP	47	192	5	B	0	L1
NMTTP	47	288	4	B	0	L1
NMTTP	48	96	1	E	0	L1
NMTTP	48	192	2	E	0	L1
NMTTP	48	288	3	E	0	L1
NMTTP	49	96	7	E	0	L1
NMTTP	49	192	6	E	0	L1
NMTTP	49	288	5	E	0	L1
NMTTP	50	96	0	B	0	L1
NMTTP	50	192	1	B	0	L1
NMTTP	50	288	2	B	0	L1
NMTTP	50	288	3	B	0	L1
NMTTP	51	96	7	B	0	L1
NMTTP	51	192	6	B	0	L1
NMTTP	51	288	4	B	0	L1
NMTTP	51	288	5	B	0	L1
NMTHO	52	96	0	3504	C	1	L1
NMSTR	61	240	1
NMSUR	61	240	1	96	192	4
NMSTR	62	240	6
NMSUL	62	240	6	96	192	3
NMSTR	63	240	2
NMSUL	63	240	2	96	192	7
NMSTR	64	240	5
NMSUR	64	240	5	96	192	0
NMTAP	65	240	1
NMTAP	65	312	1
NMTAP	66	48	0
NMTAP	66	48	2
NMTAP	66	240	2
NMTAP	66	312	2
NMTAP	67	48	1
NMTAP	67	48	3
NMTAP	67	240	5
NMTAP	67	312	5
NMTAP	68	48	4
NMTAP	68	48	6
NMTAP	68	240	6
NMTAP	68	312	6
NMTAP	69	48	5
NMTAP	69	48	7
NMTAP	69	240	0
NMTAP	69	240	7
NMTAP	69	312	0
NMTAP	69	312	7
NMTAP	70	48	1
NMTAP	70	48	6
EXHLD	70	240	0	72
EXHLD	70	240	7	72
NMTAP	71	240	6
NMTAP	71	336	6
NMTAP	72	48	6
NMTAP	72	144	6
NMTAP	72	144	7
NMTAP	72	240	6
NMTAP	72	240	7
NMTAP	72	336	6
NMTAP	72	336	7
NMTAP	73	144	5
NMTAP	73	240	5
NMTAP	73	336	5
NMTAP	74	48	4
NMTAP	74	48	5
NMTAP	74	144	4
NMTAP	74	144	5
NMTAP	74	240	4
NMTAP	74	240	5
NMTAP	75	48	2
NMTAP	75	144	2
NMTAP	75	240	2
NMTAP	75	336	2
NMTAP	75	336	3
NMTAP	76	48	2
NMTAP	76	48	3
NMTAP	76	144	2
NMTAP	76	144	3
NMTAP	76	336	1
NMTAP	77	48	1
NMTAP	77	144	1
NMTAP	77	240	0
NMTAP	77	240	1
NMTAP	77	336	0
NMTAP	77	336	1
NMTAP	78	48	0
NMTAP	78	48	1
NMTAP	78	240	1
NMTAP	78	336	1
NMTAP	79	48	0
NMTAP	79	48	1
NMTAP	79	144	2
NMTAP	79	240	2
NMTAP	79	336	2
NMTAP	79	336	3
NMTAP	80	144	5
NMTAP	80	240	5
NMTAP	80	336	4
NMTAP	80	336	5
NMTAP	81	48	6
NMTAP	81	144	6
NMTAP	81	240	6
NMTAP	81	240	7
NMTAP	82	48	7
NMTAP	82	144	6
NMTAP	82	240	4
NMTAP	82	240	5
NMTAP	82	336	3
NMTAP	83	48	2
NMTAP	83	144	0
NMTAP	83	144	1
NMTAP	83	336	0
NMTAP	84	48	1
NMTAP	84	144	2
NMTAP	84	144	3
NMTAP	84	240	4
NMTAP	84	336	5
NMTAP	85	48	6
NMTAP	85	48	7
EXTAP	85	240	4
EXTAP	85	240	5
NMTAP	85	336	6
NMTAP	86	0	6
NMTAP	86	96	7
NMTAP	86	144	7
NMTAP	86	240	0
NMTAP	86	240	1
NMTAP	86	336	0
NMTAP	86	336	1
NMTAP	87	48	0
NMTAP	87	48	1
NMTAP	87	240	2
NMTAP	87	240	3
NMTAP	87	336	1
NMTAP	88	0	1
NMTAP	88	96	0
NMTAP	88	144	0
NMTAP	88	240	6
NMTAP	88	240	7
NMTAP	88	336	6
NMTAP	88	336	7
NMTAP	89	48	6
NMTAP	89	48	7
NMTAP	89	240	4
NMTAP	89	240	5
NMTAP	89	336	6
NMTAP	90	0	6
NMTAP	90	96	7
NMTAP	90	144	7
NMTAP	90	240	0
NMTAP	90	240	1
NMTAP	90	336	0
NMTAP	90	336	1
NMTAP	91	48	0
NMTAP	91	48	1
NMTAP	91	240	2
NMTAP	91	240	3
NMTAP	91	336	1
NMTAP	92	0	1
NMTAP	92	96	0
NMTAP	92	144	0
NMTAP	92	240	6
NMTAP	92	240	7
NMTAP	92	336	6
NMTAP	92	336	7
EXTAP	93	48	6
EXTAP	93	48	7
NMTAP	93	240	6
NMTAP	93	240	7
NMTAP	93	336	5
NMTAP	94	0	5
NMTAP	94	96	4
NMTAP	94	144	4
NMTAP	94	240	2
NMTAP	94	240	3
NMTAP	94	336	2
NMTAP	94	336	3
NMTAP	95	48	1
NMTAP	95	48	4
NMTAP	95	240	0
NMTAP	95	240	1
NMTAP	95	336	2
NMTAP	96	0	2
NMTAP	96	96	3
NMTAP	96	144	3
NMTAP	96	240	4
NMTAP	96	240	5
NMTAP	96	336	4
NMTAP	96	336	5
NMTAP	97	48	3
NMTAP	97	48	6
NMTAP	97	240	6
NMTAP	97	240	7
NMTAP	97	336	5
NMTAP	98	0	5
NMTAP	98	96	4
NMTAP	98	144	4
NMTAP	98	240	2
NMTAP	98	240	3
NMTAP	98	336	2
NMTAP	98	336	3
NMTAP	99	48	1
NMTAP	99	48	4
NMTAP	99	240	0
NMTAP	99	240	1
NMTAP	99	336	2
NMTAP	100	0	2
NMTAP	100	96	3
NMTAP	100	144	3
NMTAP	100	240	4
NMTAP	100	240	5
NMTAP	100	336	4
NMTAP	100	336	5
EXTAP	101	48	3
EXTAP	101	48	6
EXTAP	101	240	7
EXTAP	101	288	7
NMTAP	102	48	6
NMTAP	102	48	7
NMTAP	102	240	5
NMTAP	102	288	5
NMTAP	103	48	4
NMTAP	103	48	5
NMTAP	103	240	3
NMTAP	103	288	3
NMTAP	104	48	2
NMTAP	104	48	3
NMTAP	104	240	1
NMTAP	104	288	1
NMTAP	105	48	0
NMTAP	105	48	1
EXTAP	105	240	0
EXTAP	105	288	0
NMTAP	106	48	0
NMTAP	106	48	1
NMTAP	106	240	2
NMTAP	106	288	2
NMTAP	107	48	2
NMTAP	107	48	3
NMTAP	107	240	4
NMTAP	107	288	4
NMTAP	108	48	4
NMTAP	108	48	5
NMTAP	108	240	6
NMTAP	108	288	6
NMTAP	109	48	6
NMTAP	109	48	7
NMTAP	109	240	7
NMTAP	109	336	6
NMTAP	110	48	5
NMTAP	110	144	4
NMTAP	110	240	3
NMTAP	110	336	2
NMTAP	111	48	1
NMTAP	111	144	0
NMTAP	111	240	7
NMTAP	111	336	6
NMTAP	112	48	5
NMTAP	112	144	4
NMTAP	112	240	3
NMTAP	112	336	2
NMTAP	113	48	0
NMTAP	113	48	1
NMTAP	113	240	1
NMTAP	113	336	2
NMTAP	114	48	3
NMTAP	114	144	4
NMTAP	114	240	5
NMTAP	114	336	6
NMTAP	115	48	7
NMTAP	115	144	0
NMTAP	115	240	1
NMTAP	115	336	2
NMTAP	116	48	3
NMTAP	116	144	4
NMTAP	116	240	5
NMTAP	116	336	6
NMHLD	117	48	0	192
NMHLD	117	48	7	192
NMTAP	118	48	6
NMTAP	118	48	7
NMTAP	118	96	6
NMTAP	118	96	7
NMTAP	118	192	0
NMTAP	118	192	5
NMTAP	118	336	3
NMTAP	118	336	4
NMTAP	119	0	3
NMTAP	119	0	4
NMTAP	119	96	2
NMTAP	119	96	5
NMTAP	119	240	0
NMTAP	119	240	1
NMTAP	119	288	0
NMTAP	119	288	1
NMTAP	120	0	2
NMTAP	120	0	7
NMTAP	120	144	0
NMTAP	120	144	7
NMTAP	120	192	0
NMTAP	120	192	7
BRTAP	120	288	1
BRTAP	120	288	6

T_REC_TAP	360
T_REC_BRK	4
T_REC_XTP	10
T_REC_BXX	0
T_REC_HLD	14
T_REC_XHO	4
T_REC_BHO	0
T_REC_BXH	0
T_REC_STR	6
T_REC_BST	0
T_REC_XST	0
T_REC_XBS	0
T_REC_TTP	20
T_REC_THO	1
T_REC_SLD	6
T_REC_BSL	0
T_REC_ALL	425
T_NUM_TAP	396
T_NUM_BRK	4
T_NUM_HLD	19
T_NUM_SLD	6
T_NUM_ALL	425
T_JUDGE_TAP	400
T_JUDGE_HLD	199
T_JUDGE_SLD	6
T_JUDGE_ALL	605
TTM_EACHPAIRS	108
TTM_SCR_TAP	198000
TTM_SCR_BRK	10400
TTM_SCR_HLD	19000
TTM_SCR_SLD	9000
TTM_SCR_ALL	236400
TTM_SCR_S	228950
TTM_SCR_SS	236000
TTM_RAT_ACV	10016

