VERSION	0.00.00	1.04.00
FES_MODE	0
BPM_DEF	220.000	220.000	220.000	 27.500
MET_DEF	4	4
RESOLUTION	384
CLK_DEF	576
COMPATIBLE_CODE	MA2

BPM	0	0	220.000
BPM	16	336	 70.000
BPM	17	96	220.000
BPM	61	144	 27.500
BPM	61	240	 65.000
BPM	65	240	140.000
BPM	71	240	220.000
BPM	85	144	110.000
BPM	85	240	220.000
BPM	117	240	110.000
MET	0	0	4	3
MET	14	96	8	1
MET	17	96	4	3
MET	29	96	4	4
MET	52	96	4	2
MET	52	288	4	4
MET	54	288	8	1
MET	57	144	4	4
MET	61	144	4	1
MET	61	240	4	4
MET	71	240	4	7
MET	85	240	4	4
MET	117	240	4	2
MET	118	48	4	3

NMTTP	8	96	0	B	0	L1
NMTTP	8	96	7	B	0	L1
NMTTP	9	288	1	B	0	L1
NMTTP	9	288	6	B	0	L1
NMTTP	11	96	2	B	0	L1
NMTTP	11	96	5	B	0	L1
NMTTP	12	288	3	B	0	L1
NMTTP	12	288	4	B	0	L1
NMTHO	14	96	0	1008	C	0	L1
NMSTR	17	96	0
NMSI_	17	96	0	96	480	3
NMSTR	20	96	4
NMSI_	20	96	4	96	480	7
NMSTR	23	96	0
NMSI_	23	96	0	96	480	4
NMSTR	26	96	7
NMSI_	26	96	7	96	480	3
NMTAP	29	96	0
NMTAP	29	288	0
NMTAP	30	96	0
NMTAP	31	96	1
NMTAP	31	288	1
NMTAP	32	96	1
NMTAP	33	96	2
NMTAP	33	288	2
NMTAP	34	96	2
NMTAP	35	96	3
NMTAP	35	288	3
NMTAP	36	96	3
NMTAP	36	96	4
NMTAP	37	96	4
NMTAP	37	288	4
NMTAP	38	96	4
NMTAP	39	96	5
NMTAP	39	288	5
NMTAP	40	96	5
NMTAP	41	96	6
NMTAP	41	288	6
NMTAP	42	96	6
NMTAP	43	96	7
NMTAP	43	288	7
NMHLD	44	96	0	384
NMHLD	44	96	7	384
NMTAP	46	96	7
NMTAP	46	192	7
NMTAP	46	288	7
NMTAP	47	96	6
NMTAP	47	288	6
NMTAP	48	96	5
NMTAP	48	192	5
NMTAP	48	288	5
NMTAP	49	96	4
NMTAP	49	288	4
NMTAP	50	96	3
NMTAP	50	192	3
NMTAP	50	288	3
NMTAP	51	96	2
NMTAP	51	288	1
NMSTR	52	96	0
NMSI_	52	96	0	96	432	3
NMSTR	52	96	7
NMSI_	52	96	7	96	432	4
NMSTR	54	288	3
NMSI_	54	288	3	96	432	0
NMSTR	54	288	4
NMSI_	54	288	4	96	432	7
NMTHO	57	144	0	1536	C	0	L1
NMHLD	61	240	0	192
NMHLD	61	240	1	192
NMHLD	62	240	2	192
NMHLD	62	240	3	192
NMHLD	63	240	4	192
NMHLD	63	240	5	192
NMHLD	64	240	6	192
NMHLD	64	240	7	192
NMTAP	65	240	6
NMTAP	65	240	7
NMTAP	66	48	6
NMTAP	66	48	7
NMTAP	66	240	6
NMTAP	66	240	7
NMTAP	67	240	0
NMTAP	67	240	1
NMTAP	68	48	0
NMTAP	68	48	1
NMTAP	68	240	0
NMTAP	68	240	1
NMTAP	69	240	0
NMTAP	69	240	7
NMTAP	70	48	0
NMTAP	70	48	7
NMTAP	70	240	0
NMTAP	70	240	7
NMTTP	71	240	0	B	0	L1
NMTTP	71	240	7	B	0	L1
NMTTP	73	144	1	B	0	L1
NMTTP	73	144	6	B	0	L1
NMTTP	75	48	2	B	0	L1
NMTTP	75	48	5	B	0	L1
NMTTP	76	336	3	B	0	L1
NMTTP	76	336	4	B	0	L1
NMTTP	78	240	2	B	0	L1
NMTTP	78	240	5	B	0	L1
NMTTP	80	144	1	B	0	L1
NMTTP	80	144	6	B	0	L1
NMTTP	82	48	0	B	0	L1
NMTTP	82	48	7	B	0	L1
NMHLD	83	336	0	432
NMHLD	83	336	7	432
BRTAP	85	240	0
NMTAP	85	336	0
NMTAP	86	48	0
NMTAP	86	144	0
NMTAP	86	240	1
NMTAP	86	336	1
NMTAP	87	48	0
NMTAP	87	48	1
NMTAP	87	240	2
NMTAP	87	336	2
NMTAP	88	48	2
NMTAP	88	144	2
NMTAP	88	240	3
NMTAP	88	336	3
NMTAP	89	48	3
NMTAP	89	48	4
NMTAP	89	240	4
NMTAP	89	336	4
NMTAP	90	48	4
NMTAP	90	144	4
NMTAP	90	240	5
NMTAP	90	336	5
NMTAP	91	48	4
NMTAP	91	48	5
NMTAP	91	240	6
NMTAP	91	336	6
NMTAP	92	48	6
NMTAP	92	144	6
NMTAP	92	240	7
NMTAP	92	336	7
NMTAP	93	48	0
NMTAP	93	48	7
NMTAP	93	240	7
NMTAP	93	336	7
NMTAP	94	48	7
NMTAP	94	144	7
NMTAP	94	240	6
NMTAP	94	240	7
NMTAP	94	336	6
NMTAP	94	336	7
NMTAP	95	48	6
NMTAP	95	48	7
NMTAP	95	240	5
NMTAP	95	336	5
NMTAP	96	48	5
NMTAP	96	144	5
NMTAP	96	240	3
NMTAP	96	240	4
NMTAP	96	336	3
NMTAP	96	336	4
NMTAP	97	48	3
NMTAP	97	48	4
NMTAP	97	240	3
NMTAP	97	336	3
NMTAP	98	48	3
NMTAP	98	144	3
NMTAP	98	240	2
NMTAP	98	240	3
NMTAP	98	336	2
NMTAP	98	336	3
NMTAP	99	48	2
NMTAP	99	48	3
NMTAP	99	240	1
NMTAP	99	336	1
NMTAP	100	48	1
NMTAP	100	144	1
NMTAP	100	240	0
NMTAP	100	240	7
NMTAP	100	336	0
NMTAP	100	336	7
NMTAP	101	48	0
NMTAP	101	48	7
NMTAP	101	240	0
NMTAP	101	336	0
NMTAP	102	48	1
NMTAP	102	144	1
NMTAP	102	240	2
NMTAP	102	336	2
NMTAP	103	48	3
NMTAP	103	48	4
NMTAP	103	240	4
NMTAP	103	336	4
NMTAP	104	48	5
NMTAP	104	144	5
NMTAP	104	240	6
NMTAP	104	336	6
NMTAP	105	48	0
NMTAP	105	48	7
NMTAP	105	240	7
NMTAP	105	336	7
NMTAP	106	48	6
NMTAP	106	144	6
NMTAP	106	240	5
NMTAP	106	336	5
NMTAP	107	48	4
NMTAP	107	48	5
NMTAP	107	240	3
NMTAP	107	336	3
NMTAP	108	48	2
NMTAP	108	144	2
NMTAP	108	240	1
NMTAP	108	336	1
NMTAP	109	48	0
NMTAP	109	48	1
NMTAP	109	240	0
NMTAP	109	336	0
NMTAP	110	48	1
NMTAP	110	144	1
NMTAP	110	240	2
NMTAP	110	336	2
NMTAP	111	48	3
NMTAP	111	144	3
NMTAP	111	240	4
NMTAP	111	336	4
NMTAP	112	48	5
NMTAP	112	144	5
NMTAP	112	240	6
NMTAP	112	336	6
NMTAP	113	48	7
NMTAP	113	144	7
NMTAP	113	240	6
NMTAP	113	336	6
NMTAP	114	48	5
NMTAP	114	144	5
NMTAP	114	240	4
NMTAP	114	336	4
NMTAP	115	48	3
NMTAP	115	48	4
NMTAP	115	144	3
NMTAP	115	144	4
NMTAP	115	240	2
NMTAP	115	336	2
NMTAP	116	48	1
NMTAP	116	144	1
NMTAP	116	240	0
NMTAP	116	240	7
NMTAP	116	336	0
NMTAP	116	336	7
NMHLD	117	48	0	192
NMHLD	117	48	7	192
NMTTP	118	48	0	B	0	L1
NMTTP	118	48	7	B	0	L1
NMTTP	118	336	1	B	0	L1
NMTTP	118	336	6	B	0	L1
NMTTP	119	240	2	B	0	L1
NMTTP	119	240	5	B	0	L1
NMTHO	120	144	0	288	C	0	L1
NMTTP	120	144	3	B	0	L1
NMTTP	120	144	4	B	0	L1

T_REC_TAP	194
T_REC_BRK	1
T_REC_XTP	0
T_REC_BXX	0
T_REC_HLD	14
T_REC_XHO	0
T_REC_BHO	0
T_REC_BXH	0
T_REC_STR	8
T_REC_BST	0
T_REC_XST	0
T_REC_XBS	0
T_REC_TTP	30
T_REC_THO	3
T_REC_SLD	8
T_REC_BSL	0
T_REC_ALL	258
T_NUM_TAP	232
T_NUM_BRK	1
T_NUM_HLD	17
T_NUM_SLD	8
T_NUM_ALL	258
T_JUDGE_TAP	233
T_JUDGE_HLD	171
T_JUDGE_SLD	8
T_JUDGE_ALL	412
TTM_EACHPAIRS	43
TTM_SCR_TAP	116000
TTM_SCR_BRK	2600
TTM_SCR_HLD	17000
TTM_SCR_SLD	12000
TTM_SCR_ALL	147600
TTM_SCR_S	143100
TTM_SCR_SS	147500
TTM_RAT_ACV	10006

