VERSION	0.00.00	1.04.00
FES_MODE	0
BPM_DEF	210.000	210.000	210.000	210.000
MET_DEF	4	4
RESOLUTION	384
CLK_DEF	384
COMPATIBLE_CODE	MA2

BPM	0	0	210.000
MET	0	0	4	4

NMSTR	1	96	7
BRSCL	1	96	7	96	48	5
CNSV_	1	240	5	0	48	3
EXHLD	2	24	0	0
NMTTP	2	36	0	B	0	M1
EXHLD	2	96	6	0
NMTTP	2	108	6	B	0	M1
EXHLD	2	168	1	0
NMTTP	2	180	1	B	0	M1
EXHLD	2	240	5	0
NMTTP	2	252	5	B	0	M1
EXHLD	2	312	2	0
NMTTP	2	324	2	B	0	M1
NMHLD	3	0	4	96
NMTAP	3	96	3
NMTAP	3	144	4
NMTAP	3	240	4
NMTAP	3	336	4
NMTAP	4	48	4
NMSTR	4	144	4
NMSI_	4	144	4	96	96	0
NMHLD	4	240	4	96
NMHLD	5	0	1	96
NMTAP	5	0	7
NMTAP	5	144	1
NMTAP	5	240	1
NMTAP	5	336	1
NMTAP	6	48	1
NMSTR	6	144	1
NMSI_	6	144	1	96	96	5
NMHLD	6	240	1	96
NMTAP	7	0	4
NMHLD	7	0	6	96
NMTAP	7	144	6
NMTAP	7	240	6
NMTAP	7	336	6
NMTAP	8	48	6
NMSTR	8	144	6
NMSI_	8	144	6	96	96	2
NMHLD	8	240	6	96
NMHLD	9	0	1	96
NMTAP	9	0	3
NMTAP	9	144	1
NMTAP	9	240	3
NMTAP	9	240	4
NMSTR	9	288	5
NMSLL	9	288	5	96	96	7
NMSTR	9	336	2
BRSLR	9	336	2	96	48	0
CNSSL	10	96	0	0	192	4
CNSSR	10	96	7	0	192	3
EXTAP	11	0	0
EXHLD	11	0	6	96
NMTAP	11	96	4
NMHLD	11	144	3	96
NMTAP	11	144	6
NMTAP	11	240	4
NMTAP	11	288	3
NMHLD	11	336	2	96
NMTAP	11	336	5
NMTAP	12	48	3
NMTAP	12	96	2
NMHLD	12	144	1	96
NMTAP	12	144	4
NMTAP	12	240	2
NMTAP	12	288	1
NMTAP	12	288	2
NMTAP	13	0	0
NMTAP	13	0	3
NMTAP	13	96	3
NMTAP	13	144	1
NMHLD	13	144	4	96
NMTAP	13	240	3
NMTAP	13	288	4
NMTAP	13	336	2
NMHLD	13	336	5	96
NMTAP	14	48	4
NMTAP	14	96	5
NMTAP	14	144	3
NMHLD	14	144	6	96
NMTAP	14	240	5
NMTAP	14	288	5
NMTAP	14	288	6
NMTAP	15	0	4
NMTAP	15	0	7
NMTAP	15	96	3
NMTAP	15	144	2
NMSTR	15	144	6
NMSCL	15	144	6	96	48	4
NMTAP	15	240	2
NMTAP	15	288	2
NMTAP	15	336	1
NMSTR	15	336	5
NMSCL	15	336	5	96	48	3
NMTAP	16	48	1
NMTAP	16	96	1
NMTAP	16	144	0
NMSTR	16	144	4
NMSCL	16	144	4	96	48	2
NMTAP	16	240	0
NMTAP	16	288	0
NMTAP	17	0	0
NMTAP	17	0	3
NMTAP	17	96	4
NMSTR	17	144	1
NMSCR	17	144	1	96	48	3
NMTAP	17	144	5
NMTAP	17	240	5
NMTAP	17	288	5
NMTAP	17	336	6
NMTAP	18	0	3
NMTAP	18	24	2
NMTAP	18	48	1
NMTAP	18	72	0
NMTTP	18	96	4	E	0	M1
NMTTP	18	120	4	B	0	M1
NMTTP	18	144	5	B	0	M1
NMTTP	18	168	6	E	0	M1
NMTAP	18	192	0
NMTAP	18	216	1
NMTAP	18	240	2
NMTAP	18	264	3
NMTTP	18	288	0	E	0	M1
NMTTP	18	312	7	B	0	M1
NMTTP	18	336	6	B	0	M1
NMTTP	18	360	6	E	0	M1
EXHLD	19	0	2	96
NMSTR	19	96	3
NMSI_	19	96	3	96	48	5
NMHLD	19	192	1	96
EXTAP	19	192	3
NMSTR	19	288	6
NMSI_	19	288	6	96	48	4
NMHLD	20	0	0	96
EXTAP	20	0	6
NMSTR	20	96	3
NMSI_	20	96	3	96	48	5
NMHLD	20	192	1	96
EXTAP	20	192	3
NMSTR	20	288	6
NMSI_	20	288	6	96	48	0
NMHLD	21	0	3	96
EXTAP	21	0	6
NMSTR	21	96	1
NMSI_	21	96	1	96	48	7
EXTAP	21	192	1
NMHLD	21	192	2	96
NMSTR	21	288	6
NMSI_	21	288	6	96	48	4
NMHLD	22	0	1	96
EXTAP	22	0	6
NMSTR	22	96	3
NMSI_	22	96	3	96	48	5
NMHLD	22	192	0	96
EXTAP	22	192	3
NMHLD	22	288	6	96
EXTAP	23	0	7
NMTAP	23	32	6
NMTAP	23	64	5
NMTAP	23	96	6
NMTAP	23	128	5
NMTAP	23	160	6
NMTAP	23	192	5
NMTAP	23	224	6
NMTAP	23	256	5
NMTAP	23	288	6
NMTAP	23	320	5
NMTAP	23	352	6
NMTAP	24	0	5
NMTAP	24	32	6
NMTAP	24	64	5
NMTAP	24	96	6
NMTAP	24	128	5
NMTAP	24	160	6
NMTAP	24	192	5
NMTAP	24	224	6
NMTAP	24	256	5
NMTAP	24	288	6
NMTAP	24	320	5
NMTAP	24	352	6
BRTAP	25	0	7
EXTAP	25	12	0
EXTAP	25	24	1
EXTAP	25	36	2
EXTAP	25	48	3
NMTAP	25	96	5
NMTAP	25	144	4
NMTAP	25	144	5
NMTAP	25	240	2
NMTAP	25	240	3
NMTAP	25	336	0
NMTAP	25	336	1
NMTAP	26	0	7
NMTAP	26	24	6
NMTAP	26	48	5
NMTAP	26	72	4
NMTAP	26	96	7
NMTAP	26	120	0
NMTAP	26	144	1
NMTAP	26	168	2
NMTAP	26	192	6
NMTAP	26	216	4
NMTAP	26	240	6
NMTAP	26	264	4
NMTAP	26	288	6
NMTAP	26	312	4
NMTAP	26	336	6
NMTAP	26	360	4
BRSTR	27	0	5
NMSCR	27	0	5	96	96	0
NMTAP	27	96	1
NMTAP	27	144	2
NMTAP	27	192	3
NMTAP	27	288	0
NMTAP	27	336	0
NMSTR	27	336	4
NMSI_	27	336	4	96	48	1
NMTAP	28	48	7
NMTAP	28	96	7
NMTAP	28	144	6
NMHLD	28	192	5	96
NMTAP	28	240	7
NMHLD	28	288	1	96
NMTAP	28	336	3
NMSTR	29	0	4
NMSI_	29	0	4	96	48	0
NMTAP	29	96	5
NMSTR	29	144	5
NMSI_	29	144	5	96	48	7
NMTAP	29	240	1
NMTAP	29	288	1
BRTAP	30	0	0
NMTTP	30	0	2	D	0	M1
NMTTP	30	12	2	A	0	M1
NMTTP	30	24	3	D	0	M1
NMTAP	30	96	7
NMTTP	30	144	0	C	0	M1
BRTAP	30	144	7
NMTTP	30	156	4	B	0	M1
NMTTP	30	168	4	A	0	M1
NMTAP	30	240	6
NMTAP	30	288	5
NMTAP	30	288	6
NMSTR	31	0	0
NMSI_	31	0	0	96	48	2
NMTAP	31	48	7
NMTAP	31	96	6
NMSTR	31	144	5
NMSI_	31	144	5	96	48	1
NMTAP	31	240	4
NMTAP	31	288	3
NMTAP	31	336	2
NMTAP	32	48	1
NMTAP	32	48	2
NMTAP	32	144	0
NMTAP	32	192	0
NMSTR	32	192	7
NMSI_	32	192	7	96	48	3
NMTAP	32	288	6
NMTAP	32	288	7
NMSTR	33	0	2
NMSI_	33	0	2	96	48	0
NMTAP	33	48	3
NMTAP	33	96	4
NMSTR	33	144	5
NMSI_	33	144	5	96	48	0
NMTAP	33	240	1
NMHLD	33	288	1	96
EXTAP	34	0	0
NMTAP	34	32	1
NMTAP	34	64	2
NMTAP	34	96	1
NMTAP	34	128	2
NMTAP	34	160	1
NMTAP	34	192	2
NMTAP	34	224	1
NMTAP	34	256	2
NMTAP	34	288	1
NMTAP	34	320	2
NMTAP	34	352	1
BRTAP	35	0	0
EXTAP	35	12	7
EXTAP	35	24	6
EXTAP	35	36	5
EXTAP	35	48	4
NMTAP	35	96	2
NMTAP	35	144	1
NMTAP	35	192	0
NMTAP	35	288	5
NMTAP	35	336	0
NMHLD	35	336	5	144
NMSTR	36	0	1
NMSI_	36	0	1	96	48	3
NMTAP	36	48	0
NMTAP	36	96	1
NMTAP	36	144	6
NMHLD	36	192	7	96
NMHLD	36	288	3	96
NMSTR	37	0	6
NMSI_	37	0	6	96	48	2
NMTAP	37	48	7
NMTAP	37	96	0
NMSTR	37	144	1
NMSI_	37	144	1	96	48	5
NMTAP	37	240	3
NMSTR	37	288	4
NMSCR	37	288	4	96	96	0
NMTAP	38	0	0
NMTAP	38	48	1
NMTAP	38	96	2
NMTAP	38	144	3
NMSTR	38	192	0
NMSI_	38	192	0	96	48	5
NMSTR	38	192	4
NMSI_	38	192	4	96	48	1
EXTAP	39	0	6
NMTAP	39	24	0
NMTAP	39	48	6
NMTAP	39	72	0
NMTAP	39	96	5
NMTAP	39	120	0
NMTAP	39	144	5
NMTAP	39	168	0
NMTAP	39	192	4
NMTAP	39	216	0
NMTAP	39	240	4
NMTAP	39	264	0
NMTAP	39	288	3
NMTAP	39	312	0
NMTAP	39	336	3
NMTAP	39	360	0
NMTAP	40	0	4
NMTAP	40	24	1
NMTAP	40	48	4
NMTAP	40	72	1
NMTAP	40	96	5
NMTAP	40	120	2
NMTAP	40	144	5
NMTAP	40	168	2
NMTAP	40	192	6
NMTAP	40	216	3
NMTAP	40	240	6
NMTAP	40	264	3
NMSTR	40	288	7
NMSI_	40	288	7	96	48	3
NMTAP	40	312	4
NMTAP	40	336	7
NMTAP	40	360	4
EXTAP	41	0	7
EXTAP	41	96	2
NMTAP	41	120	4
NMTAP	41	144	2
NMTAP	41	168	4
NMTAP	41	192	2
NMTAP	41	216	4
NMTAP	41	240	2
NMTAP	41	264	4
NMTAP	41	288	2
NMTAP	41	312	4
NMTAP	41	336	2
NMTAP	41	360	4
BRTAP	42	0	1
NMTAP	42	12	0
NMTAP	42	24	7
NMTAP	42	36	6
NMTAP	42	48	5
NMTAP	42	60	4
NMTAP	42	72	3
NMTAP	42	84	2
NMSTR	42	96	1
BRSXL	42	96	1	96	48	3
NMTAP	42	108	0
NMTAP	42	120	7
NMTAP	42	132	6
NMTAP	42	144	5
NMTAP	42	156	4
NMTAP	42	168	3
NMTAP	42	180	2
EXTAP	42	192	1
CNSI_	42	240	3	0	48	1
CNSCL	42	288	1	0	48	0
EXTAP	43	0	4
EXTAP	43	0	7
NMTAP	43	96	2
NMTAP	43	144	2
NMTTP	43	144	5	E	0	M1
NMTAP	43	240	0
NMTAP	43	288	0
NMTAP	43	336	0
NMTTP	43	336	3	E	0	M1
NMTAP	44	48	6
NMTTP	44	96	4	B	0	M1
NMTAP	44	96	6
NMTAP	44	192	1
NMTTP	44	192	3	B	0	M1
NMTAP	44	288	7
NMTAP	44	336	0
NMTAP	44	336	6
NMTAP	45	48	1
NMTTP	45	48	5	E	0	M1
NMTAP	45	144	6
NMTAP	45	192	6
NMTTP	45	240	3	E	0	M1
NMTAP	45	240	6
NMTAP	45	336	0
BRTAP	46	0	1
NMTTP	46	0	6	E	0	M1
NMTTP	46	12	5	B	0	M1
NMTTP	46	24	4	B	0	M1
NMTAP	46	96	0
NMTTP	46	144	2	E	0	M1
BRTAP	46	144	7
NMTTP	46	156	2	B	0	M1
NMTTP	46	168	3	B	0	M1
NMTAP	46	240	6
NMTAP	46	288	6
NMTAP	47	0	4
NMTAP	47	0	5
NMTAP	47	96	5
NMTTP	47	144	3	E	0	M1
NMTAP	47	144	5
NMTAP	47	240	7
NMTAP	47	288	7
NMTTP	47	336	5	E	0	M1
NMTAP	47	336	7
NMTAP	48	48	1
NMTAP	48	96	1
NMTTP	48	96	3	B	0	M1
NMTTP	48	192	4	B	0	M1
NMTAP	48	192	6
NMTAP	48	288	0
NMTAP	48	336	1
NMTAP	48	336	7
NMTTP	49	48	3	E	0	M1
NMTAP	49	48	6
NMTAP	49	144	1
NMTAP	49	192	1
NMTAP	49	240	1
NMTTP	49	240	5	E	0	M1
NMTAP	49	336	7
NMTAP	50	0	3
NMTAP	50	24	2
NMTAP	50	48	1
NMTAP	50	72	0
NMTTP	50	96	4	E	0	M1
NMTTP	50	120	4	B	0	M1
NMTTP	50	144	5	B	0	M1
NMTTP	50	168	6	E	0	M1
NMTAP	50	192	0
NMTAP	50	216	1
NMTAP	50	240	2
NMTAP	50	264	3
NMTTP	50	288	0	E	0	M1
NMTTP	50	312	7	B	0	M1
NMTTP	50	336	6	B	0	M1
NMTTP	50	360	6	E	0	M1
NMTAP	51	0	1
NMSTR	51	96	0
NMSI_	51	96	0	96	48	4
EXTAP	51	192	0
NMTAP	51	192	7
NMSTR	51	288	7
NMSI_	51	288	7	96	48	3
NMTAP	52	0	6
EXTAP	52	0	7
NMSTR	52	96	6
NMSI_	52	96	6	96	48	2
NMTAP	52	192	5
EXTAP	52	192	6
NMSTR	52	288	5
NMSI_	52	288	5	96	48	1
NMTAP	53	0	4
EXTAP	53	0	5
NMSTR	53	96	4
NMSI_	53	96	4	96	48	0
NMTAP	53	192	3
EXTAP	53	192	4
NMSTR	53	288	3
NMSI_	53	288	3	96	48	7
NMTAP	54	0	2
EXTAP	54	0	3
NMSTR	54	96	2
NMSI_	54	96	2	96	48	6
NMTAP	54	192	1
EXTAP	54	192	2
NMSTR	54	288	1
NMSI_	54	288	1	96	48	5
NMTAP	55	0	0
EXTAP	55	0	1
NMTAP	55	96	7
NMSTR	55	144	7
NMSI_	55	144	7	96	48	1
NMTAP	55	240	2
CNSI_	55	288	1	0	48	6
NMTAP	55	288	3
NMSTR	55	336	4
NMSCL	55	336	4	96	96	1
NMTAP	56	48	0
NMTAP	56	96	0
EXTAP	56	192	0
EXSTR	56	192	7
NMSSR	56	192	7	96	96	3
NMTAP	57	0	1
NMSTR	57	48	1
NMSI_	57	48	1	96	48	5
NMTAP	57	144	0
CNSI_	57	192	5	0	48	3
NMTAP	57	192	7
NMSTR	57	240	6
NMSI_	57	240	6	96	48	2
NMTAP	57	336	7
NMTAP	58	0	0
NMTAP	58	48	0
NMTAP	58	96	3
NMTAP	58	144	3
NMTAP	58	192	2
NMTAP	58	216	4
NMTAP	58	240	2
NMTAP	58	264	4
NMTAP	58	288	2
NMTAP	58	312	4
NMSTR	58	336	2
BRSSL	58	336	2	96	96	6
CNSI_	59	144	6	0	96	0
CNSI_	59	240	0	0	48	5
EXHLD	60	24	7	0
NMTTP	60	30	7	E	0	M1
EXHLD	60	96	1	0
NMTTP	60	102	2	E	0	M1
EXHLD	60	168	6	0
NMTTP	60	174	6	E	0	M1
EXHLD	60	240	2	0
NMTTP	60	246	3	E	0	M1
EXHLD	60	312	4	0
NMTTP	60	320	5	E	0	M1
NMTTP	60	336	5	B	0	M1
NMTTP	60	352	6	B	0	M1
NMTAP	61	0	0
NMTAP	61	24	0
NMTAP	61	48	0
NMTAP	61	72	0
NMTAP	61	96	0
NMTAP	61	120	0
NMTAP	61	144	0
NMTAP	61	168	0
NMTAP	61	192	0
NMTAP	61	216	0
NMTAP	61	240	0
NMTAP	61	264	0
NMTAP	61	288	0
NMTAP	61	312	0
NMTAP	61	336	0
NMTAP	61	360	0
BXTAP	62	0	1
NMTAP	62	12	2
NMTAP	62	24	3
NMTAP	62	36	4
BXTAP	62	48	1
NMTAP	62	60	0
NMTAP	62	72	7
NMTAP	62	84	6
BXTAP	62	96	1
NMTAP	62	108	2
NMTAP	62	120	3
NMTAP	62	132	4
BXTAP	62	144	1
NMTAP	62	156	0
NMTAP	62	168	7
NMTAP	62	180	6
BXSTR	62	192	1
BRSI_	62	192	1	96	48	5
NMTAP	62	204	2
NMTAP	62	216	3
NMTAP	62	228	4
BXTAP	62	240	1
NMTAP	62	252	0
NMTAP	62	264	7
NMTAP	62	276	6
BXTAP	62	288	1
NMTTP	62	300	1	B	0	M1
NMTTP	62	312	0	C	0	M1
NMTTP	62	324	5	B	0	M1
BRHLD	63	0	7	96
NMTAP	63	48	4
NMTAP	63	96	4
NMHLD	63	144	6	96
NMTAP	63	192	3
NMTAP	63	240	3
NMHLD	63	288	5	96
NMTAP	63	336	2
NMTAP	64	0	2
NMSTR	64	48	4
NMSCR	64	48	4	96	144	0
NMTAP	64	96	1
NMTAP	64	144	1
NMTAP	64	192	0
NMTAP	64	240	1
NMTAP	64	288	2
NMTAP	64	336	3
NMTAP	65	0	0
NMTAP	65	0	4
NMTAP	65	48	7
NMTAP	65	96	2
NMSTR	65	96	6
NMSI_	65	96	6	96	48	2
NMTAP	65	144	6
NMSTR	65	192	0
NMSI_	65	192	0	96	48	4
NMTAP	65	240	0
NMTAP	65	288	7
NMTAP	65	336	7
BRTAP	66	0	1
NMTTP	66	0	7	D	0	M1
NMTTP	66	12	6	A	0	M1
NMTTP	66	24	6	D	0	M1
NMTAP	66	96	4
NMTTP	66	144	3	D	0	M1
BRTAP	66	144	4
NMTTP	66	156	2	A	0	M1
NMTTP	66	168	2	D	0	M1
NMTAP	66	240	7
NMTAP	66	288	0
NMTAP	66	336	1
EXHLD	67	0	2	96
NMTAP	67	48	6
NMTAP	67	96	6
NMHLD	67	144	1	96
NMTAP	67	192	5
NMTAP	67	240	5
NMHLD	67	288	0	96
NMTAP	67	336	4
NMTAP	68	0	4
NMSTR	68	48	7
NMSCR	68	48	7	96	144	3
NMTAP	68	96	3
NMTAP	68	144	3
NMTAP	68	192	4
NMTAP	68	240	5
NMTAP	68	288	6
NMTAP	68	336	7
NMTAP	69	0	0
NMTAP	69	0	4
NMTAP	69	48	3
NMSTR	69	96	2
NMSI_	69	96	2	96	48	6
NMTAP	69	96	6
NMTAP	69	144	2
NMSTR	69	192	4
NMSI_	69	192	4	96	48	0
NMTAP	69	240	4
NMHLD	69	288	1	96
EXTAP	70	0	0
NMTAP	70	32	1
NMTAP	70	64	2
NMTAP	70	96	1
NMTAP	70	128	2
NMTAP	70	160	1
NMTAP	70	192	2
NMTAP	70	224	1
NMTAP	70	256	2
NMTAP	70	288	1
NMTAP	70	320	2
NMTAP	70	352	1
BXTAP	71	0	7
NMTAP	71	24	6
NMTAP	71	48	5
NMTAP	71	72	4
NMTAP	71	96	3
NMTAP	71	120	2
NMTAP	71	144	1
NMTAP	71	168	0
NMTTP	71	192	2	B	0	M1
NMTTP	71	192	3	E	0	M1
EXTAP	71	192	7
NMTAP	71	216	6
NMTAP	71	240	5
NMTAP	71	264	4
NMTAP	71	288	3
NMTAP	71	312	2
NMTAP	71	336	1
NMTAP	71	360	0
NMTTP	72	0	0	C	0	M1
EXTAP	72	0	7
NMTAP	72	24	6
NMTAP	72	48	5
NMTAP	72	72	4
NMTAP	72	96	3
NMTAP	72	120	2
NMTAP	72	144	1
NMTAP	72	168	0
NMTTP	72	192	2	B	0	M1
NMTTP	72	192	3	E	0	M1
EXTAP	72	192	7
NMTAP	72	216	6
NMTAP	72	240	5
NMTAP	72	264	4
NMTAP	72	288	3
NMTAP	72	312	2
NMTAP	72	336	1
NMTAP	72	360	0
NMTTP	73	0	0	B	0	M1
EXTAP	73	0	7
NMTTP	73	0	7	B	0	M1
NMTAP	73	24	6
NMTAP	73	48	5
NMTAP	73	72	4
NMTAP	73	96	3
NMTAP	73	120	2
NMTAP	73	144	1
NMTAP	73	168	0
NMTTP	73	192	0	C	0	M1
EXTAP	73	192	7
NMTAP	73	216	6
NMTAP	73	240	5
NMTAP	73	264	4
NMTAP	73	288	3
NMTAP	73	312	2
NMTAP	73	336	1
NMTAP	73	360	0
NMTTP	74	0	2	B	0	M1
NMTTP	74	0	3	E	0	M1
EXTAP	74	0	7
NMTAP	74	24	6
NMTAP	74	48	5
NMTAP	74	72	4
NMTAP	74	96	3
NMTAP	74	120	2
NMTAP	74	144	1
NMTAP	74	168	0
NMTTP	74	192	0	C	0	M1
EXTAP	74	192	7
NMTAP	74	216	6
NMTAP	74	240	5
NMTAP	74	264	4
NMTAP	74	288	3
NMTAP	74	312	2
NMTAP	74	336	1
NMTAP	74	360	0
NMTTP	75	0	4	E	1	M1
BXTAP	75	0	7
NMTAP	75	96	1
NMTAP	75	96	4
NMTAP	75	144	2
NMTAP	75	192	3
NMTAP	75	240	1
NMTAP	75	240	4
NMTAP	75	288	5
NMTAP	75	336	6
BRHLD	76	0	4	192
NMTTP	76	0	7	A	0	M1
NMTTP	76	12	7	D	0	M1
NMTTP	76	24	6	A	0	M1
NMTTP	76	36	6	D	0	M1
NMTTP	76	48	5	A	0	M1
NMTTP	76	60	5	D	0	M1
NMTTP	76	84	4	D	0	M1
NMTTP	76	96	3	A	0	M1
NMTTP	76	108	3	D	0	M1
NMTTP	76	120	2	A	0	M1
NMTTP	76	132	2	D	0	M1
NMTTP	76	144	1	A	0	M1
NMTAP	76	192	7
NMTAP	76	240	7
NMTAP	76	336	5
NMTTP	77	0	2	B	0	M1
NMTTP	77	0	3	B	0	M1
NMTTP	77	0	3	E	0	M1
NMTAP	77	0	5
NMTAP	77	96	1
NMTAP	77	144	1
NMTTP	77	144	4	B	0	M1
NMTTP	77	144	5	B	0	M1
NMTTP	77	144	5	E	0	M1
NMTAP	77	240	7
NMTAP	77	288	7
NMTTP	77	336	0	B	0	M1
NMTTP	77	336	1	B	0	M1
NMTTP	77	336	1	E	0	M1
NMTAP	77	336	7
NMTAP	78	48	2
NMSTR	78	96	2
NMSSL	78	96	2	96	96	6
NMTTP	78	96	4	B	0	M1
NMTTP	78	96	5	B	0	M1
NMTTP	78	96	5	E	0	M1
NMSTR	78	192	7
NMSI_	78	192	7	96	48	3
NMTAP	78	240	7
EXHLD	79	0	2	96
NMTAP	79	48	3
NMTAP	79	96	5
NMHLD	79	144	1	96
NMTAP	79	192	3
NMTAP	79	240	5
NMHLD	79	288	0	96
NMTAP	79	336	3
NMTAP	80	0	5
NMHLD	80	48	7	96
NMTAP	80	96	3
NMTAP	80	144	5
NMSTR	80	192	0
NMSCR	80	192	0	96	96	4
NMTAP	80	240	3
NMSTR	80	288	4
NMSI_	80	288	4	96	48	0
NMTAP	80	336	5
NMSTR	81	0	6
NMSI_	81	0	6	96	48	2
NMTAP	81	48	6
NMSTR	81	96	1
NMSI_	81	96	1	96	48	4
NMTAP	81	144	1
NMSTR	81	192	7
NMSI_	81	192	7	96	48	3
NMTAP	81	240	7
NMTAP	81	288	0
NMTAP	81	336	0
BRTAP	82	0	1
NMTTP	82	0	5	D	0	M1
NMTTP	82	12	5	A	0	M1
NMTTP	82	24	6	D	0	M1
NMTAP	82	96	7
NMTTP	82	144	3	A	0	M1
BRTAP	82	144	7
NMTTP	82	156	3	D	0	M1
NMTTP	82	168	2	A	0	M1
NMTAP	82	240	0
NMTAP	82	288	1
NMTAP	82	288	7
NMTAP	82	336	2
NMTAP	82	336	6
EXHLD	83	0	5	96
NMTAP	83	48	4
NMTAP	83	96	2
NMHLD	83	144	6	96
NMTAP	83	192	4
NMTAP	83	240	2
NMHLD	83	288	7	96
NMTAP	83	336	4
NMTAP	84	0	2
NMHLD	84	48	0	96
NMTAP	84	96	4
NMTAP	84	144	2
NMSTR	84	192	7
NMSCL	84	192	7	96	96	3
NMTAP	84	240	4
NMSTR	84	288	3
NMSI_	84	288	3	96	48	7
NMTAP	84	336	2
NMSTR	85	0	1
NMSI_	85	0	1	96	48	5
NMTAP	85	48	1
NMSTR	85	96	6
NMSI_	85	96	6	96	48	3
NMTAP	85	144	6
NMSTR	85	192	0
NMSI_	85	192	0	96	48	4
NMTAP	85	240	0
NMTAP	85	288	7
NMTAP	85	336	7
NMSTR	86	0	3
NMSCR	86	0	3	96	48	6
NMTAP	86	48	2
NMTAP	86	96	1
NMTAP	86	144	0
NMSTR	86	192	7
NMSCR	86	192	7	96	48	2
NMTAP	86	240	6
NMTAP	86	288	5
NMTAP	86	336	4
NMTAP	87	0	3
NMTAP	87	96	2
NMSTR	87	96	4
NMSI_	87	96	4	96	48	6
NMTAP	87	144	2
NMTAP	87	192	2
EXTAP	87	192	4
NMTAP	87	288	1
NMSTR	87	288	3
NMSI_	87	288	3	96	48	5
NMTAP	87	336	1
NMTAP	88	0	1
EXTAP	88	0	3
NMTAP	88	96	0
NMSTR	88	96	2
NMSI_	88	96	2	96	48	4
NMTAP	88	144	0
NMTAP	88	192	0
EXTAP	88	192	2
NMSTR	88	288	1
NMSI_	88	288	1	96	48	3
NMTAP	88	288	7
NMTAP	88	336	7
EXTAP	89	0	1
NMTAP	89	0	7
NMSTR	89	96	0
NMSI_	89	96	0	96	48	2
NMTAP	89	96	6
NMTAP	89	144	6
EXTAP	89	192	0
NMTAP	89	192	6
NMTAP	89	288	5
NMSTR	89	288	7
NMSI_	89	288	7	96	48	1
NMTAP	89	336	5
NMTAP	90	0	5
EXTAP	90	0	7
NMTAP	90	96	4
NMSTR	90	96	6
NMSI_	90	96	6	96	48	0
NMTAP	90	144	4
NMTAP	90	192	4
EXTAP	90	192	6
NMTAP	90	288	3
NMSTR	90	288	5
NMSCR	90	288	5	96	144	2
NMTAP	90	336	3
NMTAP	91	0	3
EXTAP	91	0	5
NMTAP	91	96	4
NMSTR	91	144	4
NMSI_	91	144	4	96	48	1
NMTAP	91	240	0
NMTAP	91	288	7
NMTAP	91	336	6
NMTTP	92	0	0	A	0	M1
BRHLD	92	0	5	192
NMTTP	92	12	0	D	0	M1
NMTTP	92	24	7	A	0	M1
NMTTP	92	36	7	D	0	M1
NMTTP	92	48	6	A	0	M1
NMTTP	92	60	6	D	0	M1
NMTTP	92	84	5	D	0	M1
NMTTP	92	96	4	A	0	M1
NMTTP	92	108	4	D	0	M1
NMTTP	92	120	3	A	0	M1
NMTTP	92	132	3	D	0	M1
NMTTP	92	144	2	A	0	M1
NMTAP	92	192	0
NMTAP	92	240	0
NMTAP	92	336	2
NMTAP	93	0	2
NMTTP	93	0	6	B	0	M1
NMTTP	93	0	7	B	0	M1
NMTTP	93	0	7	E	0	M1
NMTAP	93	96	5
NMTTP	93	144	2	B	0	M1
NMTTP	93	144	3	B	0	M1
NMTTP	93	144	3	E	0	M1
NMTAP	93	144	5
NMTAP	93	240	1
NMTAP	93	288	1
NMTAP	93	336	1
NMTTP	93	336	4	B	0	M1
NMTTP	93	336	5	B	0	M1
NMTTP	93	336	5	E	0	M1
NMTAP	94	48	7
NMTAP	94	96	0
NMTAP	94	96	6
NMTAP	94	144	1
NMTAP	94	144	5
NMTAP	94	192	2
NMTAP	94	216	3
NMTAP	94	240	2
NMTAP	94	264	3
NMTAP	94	288	2
NMTAP	94	312	3
NMTAP	94	336	2
NMTAP	94	360	3
BXHLD	95	0	1	96
NMTAP	95	96	6
NMSTR	95	144	6
NMSUR	95	144	6	96	96	4
NMTAP	95	240	4
NMHLD	95	288	4	192
CNSCR	95	336	4	0	120	0
NMSTR	96	96	1
NMSCL	96	96	1	96	144	4
NMTAP	96	192	4
NMTAP	96	240	3
NMTAP	96	288	2
NMHLD	97	0	0	96
NMTAP	97	96	2
NMSTR	97	144	2
NMSCR	97	144	2	96	96	6
NMTAP	97	240	1
NMTAP	97	288	1
NMTTP	98	0	1	D	0	M1
BRTAP	98	0	7
NMTTP	98	12	1	A	0	M1
NMTTP	98	24	2	D	0	M1
NMTAP	98	96	6
NMTTP	98	144	4	A	0	M1
BRTAP	98	144	6
NMTTP	98	156	4	D	0	M1
NMTTP	98	168	3	A	0	M1
NMTAP	98	240	1
NMTAP	98	288	0
NMTAP	98	336	7
NMTAP	99	0	2
NMHLD	99	0	6	96
NMTAP	99	96	1
NMSTR	99	144	1
NMSUL	99	144	1	96	96	3
NMTAP	99	240	3
NMHLD	99	288	3	192
CNSCL	99	336	3	0	120	7
NMSTR	100	96	6
NMSCR	100	96	6	96	144	3
NMTAP	100	192	3
NMTAP	100	240	4
NMTAP	100	288	5
NMHLD	101	0	7	96
NMTAP	101	96	4
NMSTR	101	144	4
NMSI_	101	144	4	96	48	0
NMTAP	101	240	6
NMHLD	101	288	6	96
EXTAP	102	0	7
NMTAP	102	32	6
NMTAP	102	64	5
NMTAP	102	96	6
NMTAP	102	128	5
NMTAP	102	160	6
NMTAP	102	192	5
NMTAP	102	224	6
NMTAP	102	256	5
NMTAP	102	288	6
NMTAP	102	320	5
NMTAP	102	352	6
BRTAP	103	0	7
EXTAP	103	12	0
EXTAP	103	24	1
EXTAP	103	36	2
EXHLD	103	48	3	96
NMTAP	103	96	6
NMTAP	103	144	6
NMSTR	103	240	5
NMSCR	103	240	5	96	144	3
NMHLD	103	288	7	96
NMTAP	104	96	0
NMTAP	104	192	4
NMTAP	104	240	5
NMTAP	104	288	6
NMTAP	104	336	7
NMHLD	105	0	1	144
NMTAP	105	96	2
NMHLD	105	144	6	144
NMSTR	105	240	5
NMSUL	105	240	5	96	144	4
NMHLD	105	288	0	96
NMHLD	106	96	1	96
NMTAP	106	192	3
NMSTR	106	288	1
NMSI_	106	288	1	96	48	5
NMSTR	106	288	2
NMSI_	106	288	2	96	48	7
EXTAP	107	0	1
EXTAP	107	0	2
NMTAP	107	96	6
NMTAP	107	144	4
NMTAP	107	144	6
NMTAP	107	240	2
NMTAP	107	288	2
NMTAP	107	288	4
NMTTP	108	0	0	A	0	M1
BRHLD	108	0	5	192
NMTTP	108	12	0	D	0	M1
NMTTP	108	24	7	A	0	M1
NMTTP	108	36	7	D	0	M1
NMTTP	108	48	6	A	0	M1
NMTTP	108	60	6	D	0	M1
NMTTP	108	84	5	D	0	M1
NMTTP	108	96	4	A	0	M1
NMTTP	108	108	4	D	0	M1
NMTTP	108	120	3	A	0	M1
NMTTP	108	132	3	D	0	M1
NMTAP	108	192	0
NMTAP	108	240	1
NMTAP	108	288	7
NMTAP	108	336	6
NMTTP	109	0	1	B	0	M1
NMTAP	109	0	5
NMTAP	109	96	0
NMTAP	109	144	0
NMTTP	109	144	6	B	0	M1
NMTAP	109	240	7
NMTAP	109	288	7
NMTTP	109	336	3	E	0	M1
NMTAP	109	336	7
NMTAP	110	48	0
NMTAP	110	96	0
NMTTP	110	96	5	E	0	M1
NMTTP	110	192	4	E	0	M1
NMTAP	110	192	7
NMTAP	110	288	6
NMTAP	110	336	5
EXTAP	111	0	2
EXHLD	111	0	4	96
NMTAP	111	48	1
NMTAP	111	96	1
NMTAP	111	144	0
NMHLD	111	144	5	96
NMSTR	111	192	1
NMSCR	111	192	1	96	48	3
NMHLD	111	288	6	96
NMTAP	112	48	4
NMHLD	112	48	7	96
NMTAP	112	96	3
NMTAP	112	144	3
NMHLD	112	192	0	96
NMTAP	112	192	2
NMSTR	112	240	3
NMSCR	112	240	3	96	48	5
NMHLD	112	336	1	96
NMHLD	113	96	2	96
NMTAP	113	96	6
NMTAP	113	144	5
NMTAP	113	192	5
NMHLD	113	240	3	96
NMTAP	113	240	4
NMSTR	113	288	5
NMSCR	113	288	5	96	48	7
NMHLD	114	0	4	96
NMTAP	114	144	1
NMHLD	114	144	5	96
NMTAP	114	192	0
NMTAP	114	240	0
NMHLD	114	288	6	96
NMTAP	114	288	7
NMSTR	114	336	0
NMSCR	114	336	0	96	48	2
NMHLD	115	48	7	96
NMHLD	115	192	0	96
NMTAP	115	192	4
NMTAP	115	240	3
NMTAP	115	288	3
NMHLD	115	336	1	96
NMTAP	115	336	2
NMSTR	116	0	3
NMSCR	116	0	3	96	48	5
NMHLD	116	96	2	96
NMHLD	116	240	3	96
NMTAP	116	240	7
NMTAP	116	288	6
NMTAP	116	336	6
NMHLD	117	0	4	96
NMTAP	117	0	5
NMSTR	117	48	6
NMSCR	117	48	6	96	48	0
NMHLD	117	144	5	96
NMTAP	117	288	2
NMHLD	117	288	6	96
NMTAP	117	336	1
NMTAP	118	0	1
NMTAP	118	48	0
NMHLD	118	48	7	96
NMSTR	118	96	1
NMSXL	118	96	1	96	48	3
NMTAP	118	192	0
NMTAP	118	288	2
NMTAP	118	288	7
NMHLD	119	0	6	0
NMTTP	119	12	6	B	0	M1
NMTAP	119	48	3
NMTAP	119	96	3
NMHLD	119	144	1	0
NMTTP	119	156	1	B	0	M1
NMTAP	119	192	3
NMTAP	119	240	3
NMHLD	119	288	7	0
NMTTP	119	300	7	B	0	M1
NMTAP	119	336	3
NMTAP	120	0	3
NMHLD	120	48	0	0
NMTTP	120	60	0	B	0	M1
NMTAP	120	96	3
NMTAP	120	144	3
NMTAP	120	192	7
NMTAP	120	240	5
NMTAP	120	288	3
NMTAP	120	336	1
NMHLD	121	0	2	0
NMTTP	121	12	2	B	0	M1
NMTAP	121	48	0
NMTAP	121	96	0
NMHLD	121	144	5	0
NMTTP	121	156	5	B	0	M1
NMTAP	121	192	0
NMTAP	121	240	0
NMHLD	121	288	3	0
NMTTP	121	300	3	B	0	M1
NMTAP	121	336	0
NMTAP	122	0	0
NMHLD	122	48	4	0
NMTTP	122	60	4	B	0	M1
NMTAP	122	96	0
NMTAP	122	144	0
NMSTR	122	192	1
NMSI_	122	192	1	96	48	6
NMSTR	122	192	7
NMSI_	122	192	7	96	48	4
NMTAP	122	216	2
NMTAP	122	216	6
NMTAP	122	240	3
NMTAP	122	240	5
EXTAP	123	0	5
NMTAP	123	24	7
NMTAP	123	48	5
NMTAP	123	72	7
NMTAP	123	96	5
EXTAP	123	144	2
NMTAP	123	168	4
NMTAP	123	192	2
NMTAP	123	216	4
NMTAP	123	240	2
EXTAP	123	288	0
NMTAP	123	312	3
NMTAP	123	336	0
NMTAP	123	360	3
NMTAP	124	0	0
EXTAP	124	48	2
NMTAP	124	72	7
NMTAP	124	96	2
NMTAP	124	120	7
NMTAP	124	144	2
EXTAP	124	192	0
EXTAP	124	192	1
NMTAP	124	216	7
NMTAP	124	240	6
NMTAP	124	264	5
EXTAP	124	288	4
EXTAP	124	288	7
NMTAP	124	312	0
NMTAP	124	336	1
NMTAP	124	360	2
BXTAP	125	0	6
NMTAP	125	24	4
NMTAP	125	48	6
NMTAP	125	72	4
NMTAP	125	96	6
NMTAP	125	120	4
NMTAP	125	144	7
NMTAP	125	168	4
NMTAP	125	192	7
NMTAP	125	216	4
NMTAP	125	240	7
NMTAP	125	264	4
NMTAP	125	288	0
NMTAP	125	312	4
NMTAP	125	336	0
NMTAP	125	360	4
NMTAP	126	0	0
NMTAP	126	24	4
NMTAP	126	48	1
NMTAP	126	72	4
NMTAP	126	96	1
NMTAP	126	120	4
NMTAP	126	144	1
NMTAP	126	168	4
BRTAP	126	192	2
NMTAP	126	204	1
NMTAP	126	216	0
NMTAP	126	228	7
NMTAP	126	240	6
NMTAP	126	252	5
NMTAP	126	264	4
NMTAP	126	276	3
NMSTR	126	288	2
BRSI_	126	288	2	96	48	6
BXHLD	127	0	0	1536
BXSTR	127	0	2
NMSSL	127	0	2	96	864	6
NMTTP	127	24	0	C	1	M1
CNSCR	129	192	6	0	96	0
CNSSR	129	288	0	0	96	4

T_REC_TAP	723
T_REC_BRK	15
T_REC_XTP	64
T_REC_BXX	9
T_REC_HLD	76
T_REC_XHO	17
T_REC_BHO	4
T_REC_BXH	2
T_REC_STR	95
T_REC_BST	1
T_REC_XST	1
T_REC_XBS	2
T_REC_TTP	155
T_REC_THO	0
T_REC_SLD	93
T_REC_BSL	6
T_REC_ALL	1263
T_NUM_TAP	1038
T_NUM_BRK	39
T_NUM_HLD	93
T_NUM_SLD	93
T_NUM_ALL	1263
T_JUDGE_TAP	1065
T_JUDGE_HLD	223
T_JUDGE_SLD	99
T_JUDGE_ALL	1387
TTM_EACHPAIRS	102
TTM_SCR_TAP	519000
TTM_SCR_BRK	101400
TTM_SCR_HLD	93000
TTM_SCR_SLD	139500
TTM_SCR_ALL	852900
TTM_SCR_S	823550
TTM_SCR_SS	849000
TTM_RAT_ACV	10045

