VERSION	0.00.00	1.04.00
FES_MODE	0
BPM_DEF	210.000	210.000	210.000	210.000
MET_DEF	4	4
RESOLUTION	384
CLK_DEF	384
COMPATIBLE_CODE	MA2

BPM	0	0	210.000
MET	0	0	4	4

NMSTR	1	96	1
NMSCR	1	96	1	96	96	3
NMSTR	1	96	6
NMSCL	1	96	6	96	96	4
NMTAP	2	0	4
NMTAP	2	0	6
NMTAP	2	77	4
NMTAP	2	77	6
NMTAP	2	154	1
NMTAP	2	154	3
NMTAP	2	231	1
NMTAP	2	231	3
NMTAP	2	308	4
NMTAP	2	308	6
NMHLD	3	0	4	96
NMHLD	3	0	6	768
NMTAP	3	144	4
NMTAP	3	240	4
NMTAP	3	336	3
NMTAP	4	48	3
NMTAP	4	144	4
NMTAP	4	240	4
NMHLD	5	0	2	768
NMTAP	5	144	4
NMTAP	5	240	4
NMTAP	5	336	5
NMTAP	6	48	5
NMTAP	6	144	4
NMTAP	6	240	4
NMHLD	7	0	5	768
NMTAP	7	144	3
NMTAP	7	240	3
NMTAP	7	336	2
NMTAP	8	48	2
NMTAP	8	144	3
NMTAP	8	240	3
NMHLD	9	0	1	336
NMTAP	9	144	3
NMTAP	9	240	3
NMSTR	9	336	3
NMSUR	9	336	3	96	192	4
NMTAP	11	0	4
NMTAP	11	0	6
NMTAP	11	96	3
NMTAP	11	144	3
NMTAP	11	192	4
NMTAP	11	240	4
NMTAP	11	288	2
NMTAP	12	0	1
NMTAP	12	96	1
NMTAP	12	96	3
NMTAP	12	192	2
NMTAP	12	288	2
NMTAP	12	288	3
NMTAP	13	0	1
NMTAP	13	0	3
NMTAP	13	96	4
NMTAP	13	144	4
NMTAP	13	192	3
NMTAP	13	240	3
NMTAP	13	288	5
NMTAP	14	0	6
NMTAP	14	96	4
NMTAP	14	96	6
NMHLD	14	192	3	96
NMHLD	14	192	7	96
NMTAP	15	0	4
NMTAP	15	0	6
NMTAP	15	96	3
NMTAP	15	144	3
NMTAP	15	192	4
NMTAP	15	240	4
NMTAP	15	288	2
NMTAP	16	0	1
NMTAP	16	96	1
NMTAP	16	96	3
NMTAP	16	192	2
NMTAP	16	288	2
NMTAP	16	288	3
NMTAP	17	0	1
NMTAP	17	0	3
NMTAP	17	96	4
NMTAP	17	144	4
NMTAP	17	192	3
NMTAP	17	240	3
NMTAP	17	288	5
NMTAP	18	0	4
NMHLD	18	0	6	96
NMTAP	18	96	3
NMHLD	18	192	1	96
NMTAP	18	192	3
NMTAP	18	288	4
NMTAP	19	0	2
NMTAP	19	0	4
NMTAP	19	96	4
NMTAP	19	96	5
NMHLD	19	192	6	192
NMTAP	19	288	4
NMHLD	20	0	4	192
NMTAP	20	96	3
NMHLD	20	192	3	192
NMTAP	20	288	1
NMHLD	21	0	1	192
NMTAP	21	96	3
NMHLD	21	192	3	192
NMTAP	21	288	4
NMHLD	22	0	4	192
NMTAP	22	96	6
NMTAP	22	192	6
NMTAP	23	0	3
NMTAP	23	0	5
NMHLD	23	64	3	64
NMHLD	23	64	5	64
NMTAP	23	192	2
NMTAP	23	192	4
NMHLD	23	256	2	64
NMHLD	23	256	4	64
NMTAP	24	0	3
NMTAP	24	0	5
NMHLD	24	64	3	64
NMHLD	24	64	5	64
NMTAP	24	192	2
NMTAP	24	192	4
NMHLD	24	256	2	64
NMHLD	24	256	4	64
NMSTR	25	0	6
NMSI_	25	0	6	96	48	2
NMSTR	25	192	1
NMSI_	25	192	1	96	48	5
NMHLD	26	0	6	96
NMTAP	26	96	4
NMTAP	26	192	4
NMTAP	26	192	5
NMTAP	26	288	4
NMTAP	26	288	5
NMTAP	27	0	4
NMHLD	27	0	6	192
NMTAP	27	96	4
NMTAP	27	192	4
NMTAP	27	288	4
NMHLD	27	288	7	192
NMTAP	28	0	4
NMTAP	28	96	4
NMTAP	28	192	4
NMTAP	28	192	5
NMTAP	28	288	4
NMTAP	28	288	7
NMTAP	29	0	4
NMHLD	29	0	6	96
NMTAP	29	96	4
NMHLD	29	144	5	96
NMTAP	29	192	4
NMTAP	29	288	4
NMTAP	29	288	5
NMTAP	30	0	4
EXTAP	30	0	5
NMTAP	30	96	4
EXTAP	30	144	6
NMTAP	30	192	4
EXTAP	30	240	6
NMTAP	30	288	4
EXTAP	30	336	5
NMTAP	31	0	4
NMHLD	31	0	5	96
NMTAP	31	96	4
NMHLD	31	144	6	96
NMTAP	31	192	4
NMTAP	31	288	4
NMHLD	31	288	5	192
NMTAP	32	0	4
NMTAP	32	96	4
NMTAP	32	192	4
NMTAP	32	192	5
NMTAP	32	288	4
NMTAP	32	288	6
NMTAP	33	0	4
NMHLD	33	0	7	96
NMTAP	33	96	4
NMHLD	33	144	6	96
NMTAP	33	192	4
NMTAP	33	288	4
NMTAP	33	288	5
NMTAP	34	0	3
NMTAP	34	0	5
NMHLD	34	64	3	64
NMHLD	34	64	5	64
NMTAP	34	192	2
NMTAP	34	192	4
NMHLD	34	256	2	64
NMHLD	34	256	4	64
NMHLD	35	0	1	192
NMTAP	35	0	3
NMTAP	35	96	3
NMTAP	35	192	3
NMHLD	35	288	0	192
NMTAP	35	288	3
NMTAP	36	0	3
NMTAP	36	96	3
NMTAP	36	192	2
NMTAP	36	192	3
NMTAP	36	288	0
NMTAP	36	288	3
NMHLD	37	0	0	96
NMTAP	37	0	3
NMTAP	37	96	3
NMHLD	37	144	1	96
NMTAP	37	192	3
NMHLD	37	288	2	192
NMTAP	37	288	3
NMTAP	38	0	3
NMTAP	38	96	3
NMTAP	38	192	2
NMTAP	38	192	3
NMTAP	38	288	1
NMTAP	38	288	5
NMTAP	39	0	0
NMTAP	39	24	7
NMTAP	39	48	0
NMTAP	39	72	7
NMTAP	39	96	0
NMTAP	39	120	7
NMTAP	39	144	0
NMTAP	39	168	7
NMTAP	39	192	0
NMTAP	39	216	7
NMTAP	39	240	0
NMTAP	39	264	7
NMTAP	39	288	0
NMTAP	39	312	7
NMTAP	39	336	0
NMTAP	39	360	7
NMTAP	40	0	0
NMTAP	40	24	7
NMTAP	40	48	0
NMTAP	40	72	7
NMTAP	40	96	0
NMTAP	40	120	7
NMTAP	40	144	0
NMTAP	40	168	7
NMTAP	40	192	0
NMTAP	40	216	7
NMTAP	40	240	0
NMTAP	40	264	7
NMSTR	40	288	0
BRSCR	40	288	0	96	288	7
NMTAP	40	312	7
NMTAP	40	336	0
NMTAP	40	360	7
BRHLD	42	0	0	192
BRHLD	42	0	1	192
NMTAP	42	288	2
NMTAP	42	288	7
NMTAP	43	0	3
NMHLD	43	0	6	96
NMTAP	43	96	4
NMTAP	43	144	4
NMTAP	43	240	2
NMTAP	43	288	2
NMTAP	43	336	1
NMTAP	43	336	3
NMTAP	44	48	0
NMTAP	44	48	1
NMTAP	44	96	0
NMTAP	44	96	1
NMHLD	44	192	6	48
NMHLD	44	192	7	48
NMHLD	44	288	4	48
NMHLD	44	288	5	48
NMSTR	45	0	6
NMSI_	45	0	6	96	48	4
NMSTR	45	0	7
NMSI_	45	0	7	96	48	3
NMSTR	45	192	0
NMSI_	45	192	0	96	48	4
NMSTR	45	192	1
NMSI_	45	192	1	96	48	3
NMTAP	46	0	6
NMTAP	46	0	7
NMTAP	46	96	4
NMTAP	46	96	5
NMTAP	46	144	4
NMTAP	46	144	5
NMTAP	46	240	3
NMTAP	46	240	4
NMTAP	46	336	2
NMTAP	46	336	3
NMHLD	47	0	1	96
NMTAP	47	0	4
NMTAP	47	96	3
NMTAP	47	144	3
NMTAP	47	240	5
NMTAP	47	288	5
NMTAP	47	336	4
NMTAP	47	336	6
NMTAP	48	48	6
NMTAP	48	48	7
NMTAP	48	96	6
NMTAP	48	96	7
NMHLD	48	192	0	48
NMHLD	48	192	1	48
NMHLD	48	288	2	48
NMHLD	48	288	3	48
NMSTR	49	0	0
NMSI_	49	0	0	96	48	4
NMSTR	49	0	1
NMSI_	49	0	1	96	48	3
NMSTR	49	192	6
NMSI_	49	192	6	96	48	4
NMSTR	49	192	7
NMSI_	49	192	7	96	48	3
NMTAP	50	0	2
NMTAP	50	48	2
NMTAP	50	96	4
NMTAP	50	144	4
NMTAP	50	192	3
NMTAP	50	240	3
NMTAP	50	288	5
NMTAP	50	336	5
NMTAP	51	0	4
NMTTP	51	192	1	B	0	M1
NMTTP	51	192	1	E	0	M1
NMTTP	51	192	2	B	0	M1
NMTTP	51	192	3	E	0	M1
NMTTP	52	0	3	B	0	M1
NMTTP	52	0	4	B	0	M1
NMTTP	52	0	5	E	0	M1
NMTTP	52	0	5	A	0	M1
NMTTP	52	192	0	B	0	M1
NMTTP	52	192	0	E	0	M1
NMTTP	52	192	1	B	0	M1
NMTTP	52	192	7	A	0	M1
NMTTP	53	0	3	A	0	M1
NMTTP	53	0	4	B	0	M1
NMTTP	53	0	4	E	0	M1
NMTTP	53	0	5	B	0	M1
NMTTP	53	192	0	B	0	M1
NMTTP	53	192	1	E	0	M1
NMTTP	53	192	1	A	0	M1
NMTTP	53	192	7	B	0	M1
NMTTP	54	0	2	B	0	M1
NMTTP	54	0	3	B	0	M1
NMTTP	54	0	4	E	0	M1
NMTTP	54	0	4	A	0	M1
NMTTP	54	192	4	B	0	M1
NMTTP	54	192	5	B	0	M1
NMTTP	54	192	6	E	0	M1
NMTTP	54	192	6	A	0	M1
NMHLD	55	0	2	96
NMTAP	55	96	3
NMTAP	55	144	3
NMTAP	55	240	1
NMTAP	55	240	4
NMTAP	55	336	3
NMTAP	55	336	5
NMTAP	56	48	1
NMTAP	56	48	6
NMTAP	56	144	0
NMTAP	56	144	7
NMSTR	56	192	0
NMSUL	56	192	0	96	192	3
NMSTR	56	192	7
NMSUR	56	192	7	96	192	4
CNSCL	57	96	3	0	96	1
CNSCR	57	96	4	0	96	6
NMHLD	58	0	2	96
NMHLD	58	0	5	96
NMTAP	58	144	2
NMTAP	58	144	5
NMTAP	58	192	3
NMTAP	58	216	4
NMTAP	58	240	3
NMTAP	58	264	4
NMTAP	58	288	3
NMTAP	58	312	4
NMTAP	58	336	3
NMSTR	59	96	0
NMSCR	59	96	0	96	96	3
NMSTR	59	96	7
NMSCL	59	96	7	96	96	4
NMTAP	60	0	1
NMTAP	60	0	3
NMTAP	60	77	1
NMTAP	60	77	3
NMTAP	60	154	4
NMTAP	60	154	6
NMTAP	60	231	4
NMTAP	60	231	6
NMHLD	60	308	1	76
NMSTR	60	308	3
NMSSR	60	308	3	96	268	7
CNSSL	61	288	7	0	288	3
NMTAP	63	0	2
NMTAP	63	48	3
NMTAP	63	96	1
NMTAP	63	144	5
NMTAP	63	192	4
NMTAP	63	240	6
NMTAP	63	288	2
NMTAP	63	336	3
NMTAP	64	0	1
NMTAP	64	48	5
NMTAP	64	96	4
NMTAP	64	144	6
NMTAP	64	192	0
NMTAP	64	240	0
NMTAP	64	288	7
NMTAP	64	336	7
NMTAP	65	0	1
NMTAP	65	48	0
NMTAP	65	96	2
NMTAP	65	144	6
NMTAP	65	192	7
NMTAP	65	240	5
NMTAP	65	288	1
NMTAP	65	336	0
BRHLD	66	0	2	96
BRHLD	66	0	7	96
BRTAP	66	144	2
BRTAP	66	144	7
BRTAP	66	240	1
BRTAP	66	240	4
BRTAP	66	336	3
BRTAP	66	336	6
NMTAP	67	0	5
NMTAP	67	48	4
NMTAP	67	96	6
NMTAP	67	144	2
NMTAP	67	192	3
NMTAP	67	240	1
NMTAP	67	288	5
NMTAP	67	336	4
NMTAP	68	0	6
NMTAP	68	48	2
NMTAP	68	96	3
NMTAP	68	144	1
NMTAP	68	192	7
NMTAP	68	240	7
NMTAP	68	288	0
NMTAP	68	336	0
NMTAP	69	0	6
NMTAP	69	48	7
NMTAP	69	96	5
NMTAP	69	144	1
NMTAP	69	192	0
NMTAP	69	240	2
NMTAP	69	288	6
NMTAP	69	336	7
NMTAP	70	0	0
NMTAP	70	0	5
NMTAP	70	64	0
NMTAP	70	64	5
NMTAP	70	128	0
NMTAP	70	128	5
NMTAP	70	192	1
NMTAP	70	192	4
NMTAP	70	256	1
NMTAP	70	256	4
NMTAP	70	320	1
NMTAP	70	320	4
NMTAP	71	0	2
NMTAP	71	24	3
NMTAP	71	48	2
NMTAP	71	72	3
NMTAP	71	96	2
NMTAP	71	120	3
NMTAP	71	144	2
NMTAP	71	168	3
BXTAP	71	192	2
NMTAP	71	216	3
NMTAP	71	240	2
NMTAP	71	264	3
NMTAP	71	288	2
NMTAP	71	312	3
NMTAP	71	336	2
NMTAP	71	360	3
BXTAP	72	0	2
NMTAP	72	24	3
NMTAP	72	48	2
NMTAP	72	72	3
NMTAP	72	96	2
NMTAP	72	120	3
NMTAP	72	144	2
NMTAP	72	168	3
BXTAP	72	192	2
NMTAP	72	216	3
NMTAP	72	240	2
NMTAP	72	264	3
NMTAP	72	288	2
NMTAP	72	312	3
NMTAP	72	336	2
NMTAP	72	360	3
BXTAP	73	0	1
NMTAP	73	24	3
NMTAP	73	48	1
NMTAP	73	72	3
NMTAP	73	96	1
NMTAP	73	120	3
NMTAP	73	144	1
NMTAP	73	168	3
BXTAP	73	192	1
NMTAP	73	216	3
NMTAP	73	240	1
NMTAP	73	264	3
NMTAP	73	288	1
NMTAP	73	312	3
NMTAP	73	336	1
NMTAP	73	360	3
BXTAP	74	0	0
NMTAP	74	24	3
NMTAP	74	48	0
NMTAP	74	72	3
NMTAP	74	96	0
NMTAP	74	120	3
NMTAP	74	144	0
NMTAP	74	168	3
BXTAP	74	192	0
NMTAP	74	216	3
NMTAP	74	240	0
NMTAP	74	264	3
NMSTR	74	288	0
BRSXL	74	288	0	96	288	4
NMHLD	75	0	5	384
NMTAP	76	0	4
NMTAP	76	96	6
NMTAP	76	144	6
NMTAP	76	192	4
NMTAP	76	240	4
NMTAP	76	336	3
NMTAP	76	336	5
NMTAP	77	0	3
NMTAP	77	0	5
NMTAP	77	96	2
NMTAP	77	96	4
NMTAP	77	144	2
NMTAP	77	144	4
NMTAP	77	240	1
NMTAP	77	240	5
NMTAP	77	336	0
NMSTR	78	0	0
NMSI_	78	0	0	96	48	4
NMSTR	78	96	6
NMSI_	78	96	6	96	48	2
NMSTR	78	192	1
NMSI_	78	192	1	96	48	4
NMTAP	78	288	5
NMTAP	79	0	5
NMTAP	79	48	4
NMTAP	79	96	6
NMTAP	79	144	2
NMTAP	79	192	3
NMTAP	79	240	1
NMTAP	79	288	5
NMTAP	79	336	4
NMTAP	80	0	6
NMTAP	80	48	2
NMTAP	80	96	3
NMTAP	80	144	1
NMTAP	80	192	7
NMTAP	80	240	7
NMTAP	80	288	0
NMTAP	80	336	0
NMTAP	81	0	6
NMTAP	81	48	7
NMTAP	81	96	5
NMTAP	81	144	1
NMTAP	81	192	0
NMTAP	81	240	2
NMTAP	81	288	6
NMTAP	81	336	7
BRHLD	82	0	0	96
BRHLD	82	0	5	96
BRTAP	82	144	0
BRTAP	82	144	5
BRTAP	82	240	3
BRTAP	82	240	6
BRTAP	82	336	1
BRTAP	82	336	4
NMTAP	83	0	2
NMTAP	83	48	3
NMTAP	83	96	1
NMTAP	83	144	5
NMTAP	83	192	4
NMTAP	83	240	6
NMTAP	83	288	2
NMTAP	83	336	3
NMTAP	84	0	1
NMTAP	84	48	5
NMTAP	84	96	4
NMTAP	84	144	6
NMTAP	84	192	0
NMTAP	84	240	0
NMTAP	84	288	7
NMTAP	84	336	7
NMTAP	85	0	1
NMTAP	85	48	0
NMTAP	85	96	2
NMTAP	85	144	6
NMTAP	85	192	7
NMTAP	85	240	5
NMTAP	85	288	1
NMTAP	85	336	0
NMSTR	86	0	2
NMSI_	86	0	2	96	48	5
NMHLD	86	192	6	96
NMTAP	86	288	4
NMTAP	87	0	3
NMTAP	87	0	7
NMTTP	87	192	5	B	0	M1
NMTTP	87	192	5	E	0	M1
NMTTP	87	192	6	B	0	M1
NMTTP	87	192	7	E	0	M1
NMTTP	88	0	2	A	0	M1
NMTTP	88	0	3	B	0	M1
NMTTP	88	0	3	E	0	M1
NMTTP	88	0	4	B	0	M1
NMTTP	88	192	0	E	0	M1
NMTTP	88	192	0	A	0	M1
NMTTP	88	192	6	B	0	M1
NMTTP	88	192	7	B	0	M1
NMTTP	89	0	2	B	0	M1
NMTTP	89	0	3	B	0	M1
NMTTP	89	0	4	E	0	M1
NMTTP	89	0	4	A	0	M1
NMTTP	89	192	0	B	0	M1
NMTTP	89	192	6	A	0	M1
NMTTP	89	192	7	B	0	M1
NMTTP	89	192	7	E	0	M1
NMTTP	90	0	3	A	0	M1
NMTTP	90	0	4	B	0	M1
NMTTP	90	0	4	E	0	M1
NMTTP	90	0	5	B	0	M1
NMTTP	90	192	1	A	0	M1
NMTTP	90	192	2	B	0	M1
NMTTP	90	192	2	E	0	M1
NMTTP	90	192	3	B	0	M1
NMTAP	91	0	6
NMTAP	91	48	4
NMTAP	91	96	5
NMTAP	91	144	1
NMTAP	91	192	3
NMTAP	91	240	2
NMTAP	91	288	7
NMTAP	91	336	3
NMTAP	92	0	5
NMTAP	92	48	0
NMTAP	92	96	4
NMTAP	92	144	2
NMTAP	92	192	7
NMSTR	92	240	3
NMSUR	92	240	3	96	240	4
NMTTP	92	336	0	C	1	M1
CNSCR	93	192	4	0	288	2
NMTAP	94	288	3
NMTAP	94	288	5
NMTAP	95	0	4
NMHLD	95	0	6	96
NMTAP	95	96	3
NMHLD	95	144	5	96
NMTAP	95	192	4
NMTAP	95	288	3
NMHLD	95	288	6	192
NMTAP	96	0	4
NMTAP	96	96	3
NMTAP	96	192	4
NMHLD	96	192	7	96
NMTAP	96	288	3
NMTAP	97	0	4
NMHLD	97	0	6	96
NMTAP	97	96	3
NMHLD	97	144	5	96
NMTAP	97	192	4
NMTAP	97	288	3
NMHLD	97	288	6	192
NMTAP	98	0	4
NMTAP	98	96	3
NMTAP	98	192	4
NMTAP	98	192	6
NMTAP	98	288	3
NMTAP	98	288	7
NMHLD	99	0	0	96
NMTAP	99	0	4
NMTAP	99	96	3
NMHLD	99	144	7	96
NMTAP	99	192	4
NMTAP	99	288	3
NMHLD	99	288	6	192
NMTAP	100	0	4
NMTAP	100	96	3
NMTAP	100	192	4
NMTAP	100	192	5
NMTAP	100	288	3
NMTAP	100	288	6
NMTAP	101	0	4
NMHLD	101	0	7	96
NMTAP	101	96	3
NMHLD	101	144	5	96
NMTAP	101	192	4
NMTAP	101	288	3
NMHLD	101	288	6	192
NMTAP	102	0	4
NMTAP	102	96	3
NMTAP	102	192	2
NMTAP	102	192	4
NMTAP	102	288	2
NMTAP	102	288	4
NMHLD	103	0	1	96
NMTAP	103	0	3
NMTAP	103	96	4
NMHLD	103	144	2	96
NMTAP	103	192	3
NMHLD	103	288	1	192
NMTAP	103	288	4
NMTAP	104	0	3
NMTAP	104	96	4
NMHLD	104	192	0	96
NMTAP	104	192	3
NMTAP	104	288	4
NMHLD	105	0	1	96
NMTAP	105	0	3
NMTAP	105	96	4
NMHLD	105	144	2	96
NMTAP	105	192	3
NMHLD	105	288	1	192
NMTAP	105	288	4
NMTAP	106	0	3
NMTAP	106	96	4
NMTAP	106	192	1
NMTAP	106	192	3
NMTAP	106	288	0
NMTAP	106	288	4
NMTAP	107	0	3
NMHLD	107	0	7	96
NMTAP	107	96	4
NMHLD	107	144	0	96
NMTAP	107	192	3
NMHLD	107	288	1	192
NMTAP	107	288	4
NMTAP	108	0	3
NMTAP	108	96	4
NMTAP	108	192	2
NMTAP	108	192	3
NMTAP	108	288	1
NMTAP	108	288	4
NMHLD	109	0	0	96
NMTAP	109	0	3
NMTAP	109	96	4
NMHLD	109	144	2	96
NMTAP	109	192	3
NMHLD	109	288	1	192
NMTAP	109	288	4
NMTAP	110	0	3
NMTAP	110	96	4
NMTAP	110	192	3
NMTAP	110	192	5
NMTAP	110	288	4
NMTAP	110	288	6
BRTAP	111	0	3
BRTAP	111	0	7
NMHLD	111	96	6	96
NMHLD	111	144	4	96
NMHLD	111	240	7	96
NMHLD	111	288	3	96
NMHLD	112	0	6	96
NMHLD	112	48	4	96
NMHLD	112	144	7	96
NMHLD	112	192	5	96
NMHLD	112	288	6	96
NMHLD	112	336	4	96
NMHLD	113	48	7	96
NMHLD	113	96	3	96
NMHLD	113	192	6	96
NMHLD	113	240	4	96
NMHLD	113	336	7	96
NMHLD	114	0	5	96
NMHLD	114	96	6	96
NMHLD	114	144	4	96
NMHLD	114	240	7	96
NMHLD	114	288	5	96
NMHLD	115	0	0	96
NMHLD	115	48	4	96
NMHLD	115	144	7	96
NMHLD	115	192	5	96
NMHLD	115	288	6	96
NMHLD	115	336	4	96
NMHLD	116	48	7	96
NMHLD	116	96	5	96
NMHLD	116	192	0	96
NMHLD	116	240	4	96
NMHLD	116	336	7	96
NMHLD	117	0	5	96
NMHLD	117	96	6	96
NMHLD	117	144	4	96
NMHLD	117	240	5	96
NMHLD	117	288	3	96
NMHLD	118	0	6	96
NMHLD	118	48	2	96
NMTAP	118	144	5
NMTAP	118	192	3
NMTAP	118	288	4
NMTAP	118	288	6
NMTAP	119	0	3
NMTAP	119	0	7
NMHLD	119	96	2	96
NMHLD	119	144	0	96
NMHLD	119	240	3	96
NMHLD	119	288	7	96
NMHLD	120	0	2	96
NMHLD	120	48	0	96
NMHLD	120	144	3	96
NMHLD	120	192	1	96
NMHLD	120	288	2	96
NMHLD	120	336	0	96
NMHLD	121	48	3	96
NMHLD	121	96	7	96
NMHLD	121	192	2	96
NMHLD	121	240	0	96
NMHLD	121	336	3	96
NMHLD	122	0	1	96
NMHLD	122	96	2	96
NMHLD	122	144	0	96
NMHLD	122	240	3	96
NMHLD	122	288	1	96
NMHLD	123	0	4	96
NMHLD	123	48	0	96
NMHLD	123	144	3	96
NMHLD	123	192	1	96
NMHLD	123	288	2	96
NMHLD	123	336	0	96
NMHLD	124	48	3	96
NMHLD	124	96	1	96
NMHLD	124	192	4	96
NMHLD	124	240	0	96
NMHLD	124	336	3	96
NMHLD	125	0	1	96
NMHLD	125	96	2	96
NMHLD	125	144	0	96
NMHLD	125	240	1	96
NMHLD	125	288	7	96
NMHLD	126	0	2	96
NMHLD	126	48	6	96
NMTAP	126	144	3
NMTAP	126	192	5
NMTAP	126	288	3
NMSTR	126	288	5
NMSUL	126	288	5	96	768	4
NMTTP	127	0	0	C	1	M1
CNSCL	129	0	4	0	768	6

T_REC_TAP	541
T_REC_BRK	14
T_REC_XTP	4
T_REC_BXX	7
T_REC_HLD	160
T_REC_XHO	0
T_REC_BHO	6
T_REC_BXH	0
T_REC_STR	26
T_REC_BST	0
T_REC_XST	0
T_REC_XBS	0
T_REC_TTP	58
T_REC_THO	0
T_REC_SLD	24
T_REC_BSL	2
T_REC_ALL	842
T_NUM_TAP	629
T_NUM_BRK	29
T_NUM_HLD	160
T_NUM_SLD	24
T_NUM_ALL	842
T_JUDGE_TAP	650
T_JUDGE_HLD	421
T_JUDGE_SLD	26
T_JUDGE_ALL	1097
TTM_EACHPAIRS	147
TTM_SCR_TAP	314500
TTM_SCR_BRK	75400
TTM_SCR_HLD	160000
TTM_SCR_SLD	36000
TTM_SCR_ALL	585900
TTM_SCR_S	565550
TTM_SCR_SS	583000
TTM_RAT_ACV	10049

