VERSION	0.00.00	1.04.00
FES_MODE	0
BPM_DEF	210.000	210.000	210.000	210.000
MET_DEF	4	4
RESOLUTION	384
CLK_DEF	384
COMPATIBLE_CODE	MA2

BPM	0	0	210.000
MET	0	0	4	4

NMSTR	3	0	1
NMSSR	3	0	1	96	480	5
NMSTR	5	0	6
NMSSL	5	0	6	96	480	2
NMSTR	7	0	1
NMSSR	7	0	1	96	480	5
NMSTR	9	0	6
NMSSL	9	0	6	96	480	2
NMTAP	11	96	1
NMTAP	11	288	1
NMTAP	12	96	2
NMTAP	12	288	2
NMTAP	13	96	3
NMTAP	13	288	3
NMTAP	14	96	4
NMTAP	14	96	5
NMTAP	15	96	6
NMTAP	15	288	6
NMTAP	16	96	5
NMTAP	16	288	5
NMTAP	17	96	4
NMTAP	17	288	4
NMTAP	18	96	2
NMTAP	18	96	3
NMHLD	19	0	2	192
NMHLD	19	192	3	192
NMHLD	20	0	4	192
NMTAP	20	192	5
NMHLD	21	0	5	192
NMHLD	21	192	4	192
NMHLD	22	0	3	192
NMTAP	22	192	2
NMHLD	23	0	1	192
NMHLD	23	192	2	192
NMHLD	24	0	3	192
NMTAP	24	192	4
NMHLD	25	0	6	192
NMHLD	25	192	5	192
NMHLD	26	0	4	192
EXTAP	26	192	3
NMTAP	27	0	2
NMTAP	27	96	2
NMTAP	27	192	2
NMTAP	28	0	1
NMTAP	28	96	1
NMTAP	28	192	1
NMTAP	29	0	0
NMTAP	29	96	0
NMTAP	29	192	0
NMTAP	30	0	6
NMTAP	30	0	7
NMTAP	30	96	6
NMTAP	30	96	7
NMTAP	30	192	6
NMTAP	30	192	7
NMTAP	31	0	5
NMTAP	31	96	5
NMTAP	31	192	5
NMTAP	32	0	6
NMTAP	32	96	6
NMTAP	32	192	6
NMTAP	33	0	7
NMTAP	33	96	7
NMTAP	33	192	7
NMTAP	34	0	0
NMTAP	34	0	1
NMTAP	34	96	0
NMTAP	34	96	1
NMTAP	34	192	0
NMTAP	34	192	1
NMTAP	35	0	2
NMTAP	35	96	2
NMTAP	35	192	2
NMTAP	35	192	3
NMTAP	36	0	1
NMTAP	36	96	1
NMTAP	36	192	0
NMTAP	36	192	1
NMTAP	37	0	7
NMTAP	37	96	7
NMTAP	37	192	6
NMTAP	37	192	7
NMTAP	38	0	4
NMTAP	38	0	5
NMTAP	38	96	4
NMTAP	38	96	5
NMTAP	38	192	4
NMTAP	38	192	5
NMTAP	39	0	5
NMTAP	39	96	5
NMTAP	39	192	4
NMTAP	39	192	5
NMTAP	40	0	6
NMTAP	40	96	6
NMTAP	40	192	6
NMTAP	40	192	7
NMTAP	41	0	0
NMTAP	41	96	0
NMTAP	41	192	0
NMTAP	41	192	1
NMTAP	42	0	2
NMTAP	42	96	2
BRTAP	42	192	3
BRTAP	42	192	4
NMTTP	43	0	1	B	0	L1
NMTTP	43	192	2	B	0	L1
NMTTP	44	0	3	B	0	L1
NMTTP	44	192	4	B	0	L1
NMTTP	45	0	5	B	0	L1
NMTTP	45	192	6	B	0	L1
NMTTP	46	0	0	C	0	L1
NMTTP	47	0	6	B	0	L1
NMTTP	47	192	5	B	0	L1
NMTTP	48	0	4	B	0	L1
NMTTP	48	192	3	B	0	L1
NMTTP	49	0	2	B	0	L1
NMTTP	49	192	1	B	0	L1
NMTTP	50	0	0	C	0	L1
NMHLD	51	0	1	192
NMHLD	51	192	0	192
NMHLD	52	0	7	192
NMTAP	52	192	6
NMHLD	53	0	6	192
NMHLD	53	192	7	192
NMHLD	54	0	0	192
NMTAP	54	192	1
NMHLD	55	0	1	192
NMHLD	55	192	2	192
NMHLD	56	0	3	192
NMTAP	56	192	4
NMHLD	57	0	6	192
NMHLD	57	192	5	192
NMHLD	58	0	4	192
NMTAP	58	192	3
EXHLD	59	0	3	1152
EXHLD	59	0	4	1152
NMTAP	63	0	2
NMTAP	63	96	2
NMTAP	63	192	1
NMTAP	63	288	1
NMTAP	64	0	0
NMTAP	64	96	0
NMTAP	64	192	6
NMTAP	64	192	7
NMTAP	65	0	5
NMTAP	65	96	5
NMTAP	65	192	6
NMTAP	65	288	6
NMTAP	66	0	7
NMTAP	66	96	7
NMTAP	66	192	0
NMTAP	66	192	1
NMTAP	67	0	1
NMTAP	67	96	1
NMTAP	67	192	2
NMTAP	67	288	2
NMTAP	68	0	3
NMTAP	68	96	3
NMTAP	68	192	4
NMTAP	68	192	5
NMTAP	69	0	6
NMTAP	69	96	6
NMTAP	69	192	5
NMTAP	69	288	5
NMTAP	70	0	4
NMTAP	70	96	4
NMTAP	70	192	2
NMTAP	70	192	3
NMSTR	71	0	1
NMSCR	71	0	1	96	288	4
NMSTR	73	0	5
NMSCR	73	0	5	96	288	0
NMTAP	75	0	1
NMTAP	75	96	1
NMTAP	75	192	0
NMTAP	75	192	1
NMTAP	76	0	2
NMTAP	76	96	2
NMTAP	76	192	2
NMTAP	76	192	3
NMTAP	77	0	5
NMTAP	77	96	5
NMTAP	77	192	4
NMTAP	77	192	5
NMTAP	78	0	6
NMTAP	78	96	6
EXTAP	78	192	6
EXTAP	78	192	7
NMTAP	79	0	5
NMTAP	79	96	5
NMTAP	79	192	6
NMTAP	79	192	7
NMTAP	79	288	6
NMTAP	79	288	7
NMTAP	80	0	0
NMTAP	80	96	0
NMTAP	80	192	0
NMTAP	80	192	1
NMTAP	81	0	2
NMTAP	81	96	2
NMTAP	81	192	0
NMTAP	81	192	1
NMTAP	81	288	0
NMTAP	81	288	1
NMTAP	82	0	7
NMTAP	82	96	7
NMTAP	82	192	6
NMTAP	82	192	7
NMTAP	83	0	6
NMTAP	83	96	6
NMTAP	83	192	4
NMTAP	83	192	5
NMTAP	83	288	4
NMTAP	83	288	5
NMTAP	84	0	3
NMTAP	84	96	3
NMTAP	84	192	2
NMTAP	84	192	3
NMTAP	85	0	1
NMTAP	85	96	1
NMTAP	85	192	2
NMTAP	85	192	3
NMTAP	85	288	2
NMTAP	85	288	3
NMTAP	86	0	4
NMTAP	86	96	4
NMTAP	86	192	4
NMTAP	86	192	5
NMSTR	87	0	6
NMSCL	87	0	6	96	288	3
NMSTR	89	0	2
NMSCL	89	0	2	96	288	7
NMTAP	91	0	6
NMTAP	91	96	6
NMTAP	91	192	6
NMTAP	91	192	7
NMTAP	92	0	5
NMTAP	92	96	5
NMTAP	92	192	4
NMTAP	92	192	5
NMTAP	93	0	2
NMTAP	93	96	2
NMTAP	93	192	2
NMTAP	93	192	3
NMTAP	94	0	1
NMTAP	94	96	1
BRTAP	94	192	0
BRTAP	94	192	1
NMTAP	95	0	2
NMTAP	95	96	2
NMTAP	95	192	2
NMTAP	95	288	2
NMTAP	95	288	3
NMTAP	96	0	1
NMTAP	96	96	1
NMTAP	96	192	1
NMTAP	96	288	0
NMTAP	96	288	1
NMTAP	97	0	7
NMTAP	97	96	7
NMTAP	97	192	7
NMTAP	97	288	6
NMTAP	97	288	7
NMTAP	98	0	4
NMTAP	98	0	5
NMTAP	98	96	4
NMTAP	98	96	5
NMTAP	98	192	4
NMTAP	98	192	5
NMTAP	99	0	5
NMTAP	99	96	5
NMTAP	99	192	5
NMTAP	99	288	4
NMTAP	99	288	5
NMTAP	100	0	6
NMTAP	100	96	6
NMTAP	100	192	6
NMTAP	100	288	6
NMTAP	100	288	7
NMTAP	101	0	0
NMTAP	101	96	0
NMTAP	101	192	0
NMTAP	101	288	0
NMTAP	101	288	1
NMTAP	102	0	2
NMTAP	102	0	3
NMTAP	102	96	2
NMTAP	102	96	3
NMTAP	102	192	2
NMTAP	102	192	3
NMTAP	103	0	3
NMTAP	103	96	2
NMTAP	103	192	1
NMTAP	103	288	0
NMTAP	104	0	7
NMTAP	104	96	6
NMTAP	104	192	5
NMTAP	104	288	4
NMTAP	105	0	3
NMTAP	105	96	2
NMTAP	105	192	1
NMTAP	105	288	0
NMTAP	106	0	7
NMTAP	106	96	6
NMTAP	106	192	4
NMTAP	106	192	5
NMTAP	107	0	4
NMTAP	107	96	5
NMTAP	107	192	6
NMTAP	107	288	7
NMTAP	108	0	0
NMTAP	108	96	1
NMTAP	108	192	2
NMTAP	108	288	3
NMTAP	109	0	4
NMTAP	109	96	5
NMTAP	109	192	6
NMTAP	109	288	7
NMTAP	110	0	0
NMTAP	110	96	1
NMTAP	110	192	2
NMTAP	110	192	3
NMTAP	111	0	2
NMTAP	111	48	2
NMTAP	111	96	2
NMTAP	111	192	1
NMTAP	111	240	1
NMTAP	111	288	1
NMTAP	112	0	0
NMTAP	112	48	0
NMTAP	112	96	0
NMTAP	112	192	6
NMTAP	112	192	7
NMTAP	113	0	5
NMTAP	113	48	5
NMTAP	113	96	5
NMTAP	113	192	6
NMTAP	113	240	6
NMTAP	113	288	6
NMTAP	114	0	7
NMTAP	114	48	7
NMTAP	114	96	7
NMTAP	114	192	0
NMTAP	114	192	1
NMTAP	115	0	1
NMTAP	115	48	1
NMTAP	115	96	1
NMTAP	115	192	2
NMTAP	115	240	2
NMTAP	115	288	2
NMTAP	116	0	3
NMTAP	116	48	3
NMTAP	116	96	3
NMTAP	116	192	4
NMTAP	116	192	5
NMTAP	117	0	6
NMTAP	117	48	6
NMTAP	117	96	6
NMTAP	117	192	5
NMTAP	117	240	5
NMTAP	117	288	5
NMTAP	118	0	4
NMTAP	118	48	4
NMTAP	118	96	4
NMTAP	118	192	2
NMTAP	118	192	3
NMTAP	119	0	4
NMTAP	119	48	4
NMTAP	119	96	4
NMTAP	119	192	5
NMTAP	119	240	5
NMTAP	119	288	5
NMTAP	120	0	6
NMTAP	120	48	6
NMTAP	120	96	6
NMTAP	120	192	7
NMTAP	120	240	7
NMTAP	120	288	7
NMTAP	121	0	0
NMTAP	121	48	0
NMTAP	121	96	0
NMTAP	121	192	1
NMTAP	121	240	1
NMTAP	121	288	1
NMTAP	122	0	2
NMTAP	122	48	2
NMTAP	122	96	2
NMTAP	122	192	3
NMTAP	122	192	4
NMTAP	123	0	3
NMTAP	123	48	3
NMTAP	123	96	3
NMTAP	123	192	2
NMTAP	123	240	2
NMTAP	123	288	2
NMTAP	124	0	1
NMTAP	124	48	1
NMTAP	124	96	1
NMTAP	124	192	0
NMTAP	124	240	0
NMTAP	124	288	0
NMTAP	125	0	7
NMTAP	125	48	7
NMTAP	125	96	7
NMTAP	125	192	6
NMTAP	125	240	6
NMTAP	125	288	6
NMTAP	126	0	5
NMTAP	126	48	5
NMTAP	126	96	5
NMTAP	126	192	3
NMTAP	126	192	4
NMTAP	126	288	3
NMTAP	126	288	4
BRTAP	127	0	2
BRTAP	127	0	5

T_REC_TAP	351
T_REC_BRK	6
T_REC_XTP	3
T_REC_BXX	0
T_REC_HLD	24
T_REC_XHO	2
T_REC_BHO	0
T_REC_BXH	0
T_REC_STR	8
T_REC_BST	0
T_REC_XST	0
T_REC_XBS	0
T_REC_TTP	14
T_REC_THO	0
T_REC_SLD	8
T_REC_BSL	0
T_REC_ALL	416
T_NUM_TAP	376
T_NUM_BRK	6
T_NUM_HLD	26
T_NUM_SLD	8
T_NUM_ALL	416
T_JUDGE_TAP	382
T_JUDGE_HLD	144
T_JUDGE_SLD	8
T_JUDGE_ALL	534
TTM_EACHPAIRS	65
TTM_SCR_TAP	188000
TTM_SCR_BRK	15600
TTM_SCR_HLD	26000
TTM_SCR_SLD	12000
TTM_SCR_ALL	241600
TTM_SCR_S	233800
TTM_SCR_SS	241000
TTM_RAT_ACV	10024

