VERSION	0.00.00	1.04.00
FES_MODE	0
BPM_DEF	172.000	172.000	180.000	160.000
MET_DEF	4	4
RESOLUTION	384
CLK_DEF	384
COMPATIBLE_CODE	MA2

BPM	0	0	172.000
BPM	42	0	180.000
BPM	49	96	160.000
BPM	51	96	172.000
BPM	85	192	180.000
MET	0	0	4	4
MET	41	0	4	4
MET	42	0	4	3
MET	47	96	4	4
MET	59	96	4	1
MET	60	0	4	4

NMTAP	2	0	3
NMTAP	2	48	3
NMTAP	2	96	4
NMTAP	2	144	2
NMTAP	2	192	5
NMTAP	2	240	1
NMTAP	2	336	0
NMTAP	2	336	6
NMTAP	3	48	1
NMTAP	3	72	2
NMSTR	3	96	3
NMSXR	3	96	3	96	144	0
NMTAP	3	144	5
NMTAP	3	192	5
NMTAP	3	240	6
NMTAP	3	288	6
NMHLD	3	336	7	96
NMTAP	4	96	0
NMTAP	4	96	6
NMTAP	4	144	0
NMTAP	4	144	6
NMTAP	4	240	2
NMTAP	4	240	4
NMTAP	4	288	2
NMTAP	4	288	4
NMTAP	5	0	4
NMTAP	5	0	6
NMTAP	5	48	4
NMTAP	5	48	6
NMTAP	5	144	1
NMTAP	5	144	3
BRTAP	5	192	1
BRTAP	5	192	3
BRTAP	5	256	4
BRTAP	5	256	6
BRTAP	5	320	0
BRTAP	5	320	7
NMTAP	6	0	1
NMTAP	6	48	1
NMTAP	6	96	3
NMTAP	6	144	3
NMTAP	6	192	2
NMHLD	6	240	2	288
NMTAP	6	336	3
NMTAP	7	0	3
NMTAP	7	48	3
NMTAP	7	96	4
NMSTR	7	144	4
NMSXL	7	144	4	96	48	6
NMHLD	8	0	5	240
NMTAP	8	48	4
NMTAP	8	96	4
NMTAP	8	144	3
NMTAP	8	192	3
NMTAP	8	240	3
NMTAP	8	336	3
NMTAP	8	336	5
NMSTR	9	0	3
NMSI_	9	0	3	96	72	7
NMHLD	9	0	5	288
CNSLR	9	168	7	0	120	4
NMTAP	10	0	6
NMTAP	10	0	7
NMTAP	10	48	6
NMTAP	10	48	7
NMTAP	10	96	6
NMTAP	10	96	7
NMTAP	10	192	0
NMTAP	10	192	1
NMTAP	10	240	0
NMTAP	10	240	1
NMTAP	10	288	0
NMTAP	10	288	1
NMTAP	11	0	2
NMTAP	11	24	3
NMTAP	11	48	2
NMTAP	11	72	3
NMSTR	11	96	2
NMSXR	11	96	2	96	96	3
NMHLD	12	0	1	240
NMTAP	12	48	3
NMTAP	12	96	3
NMTAP	12	144	2
NMTAP	12	192	2
NMTAP	12	240	2
NMTAP	12	336	0
NMTAP	12	336	1
NMSTR	13	0	0
NMSCL	13	0	0	96	96	3
NMTAP	13	0	1
NMSTR	13	96	3
BRSCL	13	96	3	96	96	6
NMTTP	13	192	0	C	1	M1
NMTAP	14	0	2
NMTAP	14	0	4
NMHLD	14	48	2	48
NMHLD	14	48	4	48
NMTAP	14	192	2
NMTAP	14	192	4
NMHLD	14	240	2	48
NMHLD	14	240	4	48
NMTAP	15	0	3
NMTAP	15	0	5
NMHLD	15	48	3	48
NMHLD	15	48	5	48
NMTAP	15	192	3
NMTAP	15	192	5
NMHLD	15	240	3	48
NMHLD	15	240	5	48
NMTAP	16	0	4
NMTAP	16	0	6
NMHLD	16	48	4	48
NMHLD	16	48	6	48
NMTAP	16	192	4
NMTAP	16	192	6
NMHLD	16	240	4	48
NMHLD	16	240	6	48
NMTTP	17	0	6	A	0	M1
NMTTP	17	0	7	E	1	M1
NMTTP	17	0	7	A	0	M1
NMTTP	17	96	4	A	0	M1
NMTTP	17	96	5	E	1	M1
NMTTP	17	96	5	A	0	M1
NMTTP	17	192	2	A	0	M1
NMTTP	17	192	3	E	1	M1
NMTTP	17	192	3	A	0	M1
NMTTP	17	288	0	A	0	M1
NMTTP	17	288	1	E	1	M1
NMTTP	17	288	1	A	0	M1
NMTAP	18	0	2
NMTAP	18	0	4
NMHLD	18	48	2	48
NMHLD	18	48	4	48
NMTAP	18	192	2
NMTAP	18	192	4
NMHLD	18	240	2	48
NMHLD	18	240	4	48
NMTAP	19	0	1
NMTAP	19	0	3
NMHLD	19	48	1	48
NMHLD	19	48	3	48
NMTAP	19	192	1
NMSTR	19	192	3
BRSI_	19	192	3	96	48	5
NMTAP	19	240	1
NMTAP	19	240	3
NMTAP	20	0	0
NMTAP	20	0	6
NMTAP	20	48	0
NMTAP	20	96	1
NMTAP	20	144	1
NMTAP	20	192	0
NMTAP	20	192	2
NMTAP	20	240	2
NMTAP	20	288	3
NMTAP	20	336	3
NMTAP	21	0	2
NMTAP	21	0	4
NMTAP	21	48	4
NMTAP	21	96	5
NMTAP	21	144	5
NMTAP	21	192	4
NMTAP	21	192	6
NMTAP	21	240	6
NMTAP	21	288	7
NMTAP	21	336	7
NMSTR	22	0	0
NMSCR	22	0	0	96	96	3
NMTAP	22	0	6
NMSTR	22	96	3
NMSCR	22	96	3	96	96	6
NMSTR	22	192	6
NMSCR	22	192	6	96	96	1
NMSTR	22	288	1
NMSCR	22	288	1	96	96	4
NMSTR	23	0	4
NMSLR	23	0	4	96	96	0
CNSLR	23	192	0	0	96	4
NMTTP	23	288	0	E	0	M1
NMHLD	24	0	1	48
NMTAP	24	48	3
NMTAP	24	72	2
NMHLD	24	96	6	48
NMTAP	24	144	4
NMSTR	24	168	5
NMSI_	24	168	5	96	72	2
NMTAP	24	192	2
NMSTR	24	240	2
NMSLR	24	240	2	96	96	6
NMTAP	24	288	1
NMSTR	24	336	0
NMSI_	24	336	0	96	48	4
NMTAP	25	48	0
CNSI_	25	96	4	0	48	1
NMTAP	25	96	7
NMSTR	25	144	0
NMSF_	25	144	0	96	48	4
BRTAP	25	240	0
EXTAP	25	336	2
EXTAP	25	336	5
NMSTR	26	0	6
NMSI_	26	0	6	96	48	2
NMTAP	26	48	6
NMSTR	26	96	7
NMSI_	26	96	7	96	48	3
NMTAP	26	144	7
NMSTR	26	192	0
NMSI_	26	192	0	96	48	4
NMTAP	26	240	0
NMSTR	26	288	1
NMSI_	26	288	1	96	48	5
NMTAP	26	336	1
NMSTR	27	0	6
NMSUL	27	0	6	96	96	4
NMTAP	27	48	6
BRTAP	27	96	1
EXTAP	27	240	2
EXTAP	27	264	3
EXTAP	27	288	2
EXTAP	27	312	3
EXTAP	27	336	2
EXSTR	28	0	0
NMSV_	28	0	0	96	48	3
EXTAP	28	0	4
NMSTR	28	96	0
NMSCL	28	96	0	96	48	5
NMTAP	28	96	6
NMSTR	28	192	0
NMSLR	28	192	0	96	72	4
NMTAP	28	192	2
NMTAP	28	288	6
NMTAP	28	336	5
CNSV_	28	360	4	0	72	1
NMTAP	29	48	6
NMTAP	29	96	7
NMSTR	29	144	0
NMSCR	29	144	0	96	48	3
NMSLL	29	144	0	96	48	4
NMTAP	29	240	0
NMTAP	29	336	5
NMTAP	30	0	5
NMHLD	30	48	4	96
NMTAP	30	48	6
NMTAP	30	144	0
NMTAP	30	192	0
NMTAP	30	240	1
NMTAP	30	240	7
NMTAP	30	288	2
NMTAP	30	288	6
NMHLD	30	336	3	48
NMHLD	30	336	5	48
NMSTR	31	48	4
NMSV_	31	48	4	96	48	1
NMSV_	31	48	4	96	48	7
NMSTR	31	96	1
NMSLR	31	96	1	96	96	0
NMSTR	31	96	7
NMSLL	31	96	7	96	96	0
NMHLD	32	0	6	48
NMTAP	32	48	4
NMTAP	32	72	5
NMHLD	32	96	1	48
NMTAP	32	144	3
NMSTR	32	168	2
NMSI_	32	168	2	96	72	5
NMTAP	32	192	5
NMSTR	32	240	5
NMSLL	32	240	5	96	96	1
NMTAP	32	288	6
NMSTR	32	336	7
NMSI_	32	336	7	96	48	3
NMTAP	33	48	7
NMTAP	33	96	0
CNSI_	33	96	3	0	48	6
NMSTR	33	144	7
NMSF_	33	144	7	96	48	3
BRTAP	33	240	7
EXTAP	33	336	2
EXTAP	33	336	5
NMSTR	34	0	1
NMSI_	34	0	1	96	48	5
NMTAP	34	48	1
NMSTR	34	96	0
NMSI_	34	96	0	96	48	4
NMTAP	34	144	0
NMSTR	34	192	7
NMSI_	34	192	7	96	48	3
NMTAP	34	240	7
NMSTR	34	288	6
NMSI_	34	288	6	96	48	2
NMTAP	34	336	6
NMSTR	35	0	1
NMSUR	35	0	1	96	96	3
NMTAP	35	48	1
BRTAP	35	96	6
EXTAP	35	240	5
EXTAP	35	264	4
EXTAP	35	288	5
EXTAP	35	312	4
EXTAP	35	336	5
EXTAP	36	0	3
EXSTR	36	0	7
NMSI_	36	0	7	96	48	4
NMTAP	36	96	1
NMSTR	36	96	7
NMSV_	36	96	7	96	48	2
NMTAP	36	192	5
NMSTR	36	192	7
NMSLL	36	192	7	96	72	3
NMTAP	36	288	1
NMTAP	36	336	2
CNSV_	36	360	3	0	48	6
NMTAP	37	48	1
NMTAP	37	96	0
NMSTR	37	144	7
BRSCL	37	144	7	96	48	4
BRSUR	37	144	7	96	48	3
NMTAP	37	240	7
NMTAP	38	0	4
NMTAP	38	0	5
NMTAP	38	48	7
NMTAP	38	96	2
NMTAP	38	96	3
NMTAP	38	144	0
NMTAP	38	192	3
NMTAP	38	192	5
NMTAP	38	240	7
NMTAP	38	288	2
NMTAP	38	288	4
NMSTR	38	336	0
NMSI_	38	336	0	96	48	4
NMTAP	39	0	7
NMTAP	39	48	0
NMTAP	39	48	6
NMSTR	39	96	7
NMSI_	39	96	7	96	48	3
NMTAP	39	144	0
NMSTR	39	192	1
NMSF_	39	192	1	96	48	5
NMTAP	39	192	7
NMTAP	39	288	1
EXTAP	40	0	0
EXTAP	40	0	1
NMTAP	40	48	2
NMTAP	40	48	7
NMTAP	40	96	3
NMTAP	40	96	6
EXTAP	40	144	0
EXTAP	40	144	7
NMTAP	40	192	1
NMTAP	40	192	6
NMTAP	40	240	2
NMTAP	40	240	5
EXTAP	40	288	6
EXTAP	40	288	7
NMTAP	40	336	0
NMTAP	40	336	5
NMTAP	41	0	1
NMTAP	41	0	4
NMTAP	41	48	2
NMSTR	41	96	3
NMSLL	41	96	3	96	96	5
NMSTR	41	96	7
NMSLL	41	96	7	96	96	1
NMTAP	41	192	3
NMTAP	41	192	7
BRHLD	42	0	2	192
BRTAP	42	0	6
NMTAP	42	96	0
NMTAP	42	144	0
NMTAP	42	192	0
BRTAP	42	288	1
BRHLD	42	288	3	192
NMTAP	43	0	4
NMTAP	43	48	4
NMTAP	43	96	4
BRTAP	43	192	3
BRHLD	43	192	5	192
NMTAP	43	288	6
NMTAP	43	336	6
NMTAP	44	0	6
BRTAP	44	96	5
BRHLD	44	96	7	192
NMTAP	44	192	0
NMTAP	44	240	0
NMTAP	44	288	0
BRTAP	45	0	0
BRHLD	45	0	6	192
NMTAP	45	96	4
NMTAP	45	144	4
NMTAP	45	192	4
NMTAP	45	240	4
BRHLD	45	288	4	192
BRTAP	45	288	6
NMTAP	46	0	3
NMTAP	46	48	3
NMTAP	46	96	3
NMTAP	46	144	3
BRHLD	46	192	3	192
BRTAP	46	192	4
NMTAP	46	288	1
NMTAP	46	336	1
NMTAP	47	0	1
NMTAP	47	48	1
NMTAP	47	96	0
NMTAP	47	96	6
NMTAP	47	160	1
NMTAP	47	160	7
NMTAP	47	224	0
NMTAP	47	224	2
NMTAP	47	288	1
NMTAP	47	288	3
NMTAP	47	352	2
NMTAP	47	352	4
NMTAP	48	32	3
NMTAP	48	32	5
NMTAP	48	96	4
NMTAP	48	96	6
NMTAP	48	160	4
NMTAP	48	160	7
NMTAP	48	224	3
NMTAP	48	224	6
NMTAP	48	288	2
NMTAP	48	288	5
NMTAP	48	352	1
NMTAP	48	352	4
NMSTR	49	32	0
NMSCR	49	32	0	96	160	7
NMTAP	49	32	3
CNSI_	49	288	7	0	48	1
CNSLR	49	336	1	0	96	5
CNSI_	50	48	5	0	48	7
CNSUR	50	96	7	0	288	0
NMHLD	51	96	2	96
NMHLD	51	96	3	96
NMHLD	51	288	4	96
NMHLD	51	288	6	96
NMSTR	52	96	7
NMSI_	52	96	7	96	48	4
EXSTR	52	192	0
NMSXL	52	192	0	96	96	0
NMHLD	53	96	1	96
NMHLD	53	96	2	96
NMHLD	53	288	4	96
NMHLD	53	288	5	96
NMTAP	54	96	2
NMHLD	54	96	3	96
NMSTR	54	192	4
NMSUL	54	192	4	96	96	3
NMTAP	55	96	1
NMHLD	55	96	3	96
NMTTP	55	192	0	E	0	M1
NMTTP	55	192	7	A	0	M1
NMHLD	55	288	4	96
NMTAP	55	288	6
NMTTP	56	0	0	E	0	M1
NMTTP	56	0	0	A	0	M1
NMTAP	56	96	2
NMHLD	56	96	3	96
NMTTP	56	192	6	B	0	M1
NMTTP	56	192	6	A	0	M1
NMHLD	56	288	4	96
NMTAP	56	288	5
BRHLD	57	0	1	432
BRTAP	57	96	2
BXTAP	57	240	6
BRSTR	58	48	0
BRSCL	58	48	0	96	240	2
NMTTP	59	96	2	A	0	M1
NMTTP	59	104	3	D	0	M1
NMTTP	59	112	3	A	0	M1
NMTTP	59	120	4	D	0	M1
NMTTP	59	128	4	A	0	M1
NMTTP	59	136	5	D	0	M1
NMTTP	59	144	5	A	0	M1
NMTTP	59	152	6	D	0	M1
NMTTP	59	160	6	A	0	M1
NMTTP	59	168	7	D	0	M1
NMTTP	59	176	7	A	0	M1
NMTTP	59	184	0	D	0	M1
NMTTP	59	192	0	A	0	M1
BRTAP	59	288	7
NMTAP	60	0	0
NMTAP	60	0	6
NMTAP	60	48	2
NMTAP	60	72	3
NMTAP	60	96	1
NMTAP	60	144	5
NMTAP	60	168	4
NMSTR	60	192	6
NMSV_	60	192	6	96	48	3
NMSTR	60	240	3
NMSLR	60	240	3	96	48	0
NMTAP	60	288	2
NMSTR	60	336	1
NMSI_	60	336	1	96	48	5
NMTAP	61	48	1
NMTAP	61	96	0
NMSTR	61	144	1
NMSUR	61	144	1	96	48	5
NMSTR	61	144	7
NMSUL	61	144	7	96	48	3
NMTAP	61	240	1
NMTAP	61	240	7
EXTAP	61	336	4
EXTAP	61	336	6
NMSTR	62	0	7
NMSI_	62	0	7	96	48	3
NMTAP	62	48	7
NMSTR	62	96	6
NMSI_	62	96	6	96	48	2
NMTAP	62	144	6
NMSTR	62	192	5
NMSI_	62	192	5	96	48	1
NMTAP	62	240	5
NMSTR	62	288	4
NMSI_	62	288	4	96	48	0
NMTAP	62	336	4
NMSTR	63	0	3
NMSUR	63	0	3	96	96	5
NMTAP	63	48	3
NMTAP	63	96	1
EXHLD	63	240	0	0
EXHLD	63	264	6	0
EXHLD	63	288	0	0
EXHLD	63	312	6	0
EXHLD	63	336	0	0
EXSTR	64	0	1
NMSI_	64	0	1	96	48	3
EXTAP	64	0	3
NMTAP	64	48	4
NMSTR	64	96	1
NMSCL	64	96	1	96	48	7
NMTAP	64	96	5
NMTAP	64	144	6
NMSTR	64	192	1
NMSI_	64	192	1	96	48	3
NMTAP	64	192	5
NMTAP	64	240	4
NMSTR	64	288	1
NMSI_	64	288	1	96	48	5
NMTAP	64	288	5
NMTAP	64	336	6
NMTAP	65	48	0
CNSI_	65	48	5	0	48	3
NMTAP	65	96	7
EXSTR	65	144	2
NMSV_	65	144	2	96	48	7
NMSTR	65	144	6
NMSCL	65	144	6	96	48	3
NMTAP	65	240	2
NMTAP	65	240	6
EXTAP	65	336	3
EXTAP	66	0	3
NMSTR	66	48	2
NMSI_	66	48	2	96	48	0
NMTAP	66	48	4
NMTAP	66	144	4
CNSV_	66	192	0	0	48	3
NMTAP	66	192	4
CNSCL	66	240	3	0	96	7
NMTAP	66	240	5
NMTAP	66	288	5
NMHLD	66	336	6	48
NMSTR	67	48	0
BRSLR	67	48	0	96	72	4
NMSTR	67	48	4
NMSLR	67	48	4	96	72	0
NMSTR	67	144	0
NMSV_	67	144	0	96	48	5
NMSTR	67	144	4
BRSV_	67	144	4	96	48	1
EXTAP	68	0	1
EXTAP	68	0	7
NMTAP	68	48	5
NMTAP	68	72	4
NMTAP	68	96	6
NMTAP	68	144	2
NMTAP	68	168	3
NMSTR	68	192	1
NMSV_	68	192	1	96	48	4
NMSTR	68	240	4
NMSLL	68	240	4	96	48	7
NMTAP	68	288	5
NMSTR	68	336	6
NMSI_	68	336	6	96	48	2
NMTAP	69	48	6
NMTAP	69	96	7
NMSTR	69	144	0
NMSUR	69	144	0	96	48	4
NMSTR	69	144	6
NMSUL	69	144	6	96	48	2
NMTAP	69	240	0
NMTAP	69	240	6
EXTAP	69	336	1
EXTAP	69	336	3
NMSTR	70	0	0
NMSI_	70	0	0	96	48	4
NMTAP	70	48	0
NMSTR	70	96	1
NMSI_	70	96	1	96	48	5
NMTAP	70	144	1
NMSTR	70	192	2
NMSI_	70	192	2	96	48	6
NMTAP	70	240	2
NMSTR	70	288	3
NMSI_	70	288	3	96	48	7
NMTAP	70	336	3
NMSTR	71	0	4
NMSUL	71	0	4	96	96	2
NMTAP	71	48	4
NMTAP	71	96	6
EXHLD	71	240	7	0
EXHLD	71	264	1	0
EXHLD	71	288	7	0
EXHLD	71	312	1	0
EXHLD	71	336	7	0
EXTAP	72	0	4
EXSTR	72	0	6
NMSI_	72	0	6	96	48	4
NMTAP	72	48	3
NMTAP	72	96	2
NMSTR	72	96	6
NMSCR	72	96	6	96	48	0
NMTAP	72	144	1
NMTAP	72	192	2
NMSTR	72	192	6
NMSI_	72	192	6	96	48	4
NMTAP	72	240	3
NMTAP	72	288	2
NMSTR	72	288	6
NMSI_	72	288	6	96	48	2
NMTAP	72	336	1
CNSI_	73	48	2	0	48	4
NMTAP	73	48	7
NMTAP	73	96	0
NMSTR	73	144	1
NMSI_	73	144	1	96	48	4
EXSTR	73	144	5
NMSV_	73	144	5	96	48	0
BRTAP	73	240	1
BRTAP	73	240	5
NMTAP	74	0	6
NMTAP	74	0	7
NMTAP	74	48	5
NMTAP	74	96	3
NMTAP	74	96	4
NMTAP	74	144	2
NMTAP	74	192	0
NMTAP	74	192	1
NMTAP	74	240	2
NMTAP	74	288	3
NMTAP	74	288	4
NMTAP	74	336	5
NMTAP	75	0	6
NMTAP	75	0	7
NMTAP	75	48	4
NMTAP	75	48	5
NMTAP	75	96	2
NMTAP	75	96	3
NMTAP	75	144	0
NMTAP	75	144	1
BRSTR	75	192	6
NMSCL	75	192	6	96	24	5
BRSTR	75	192	7
NMSCR	75	192	7	96	24	0
BRTAP	75	288	6
BRTAP	75	288	7
CNSI_	75	312	0	0	24	2
CNSI_	75	312	5	0	24	3
EXTAP	76	0	1
EXTAP	76	0	4
NMTAP	76	48	2
NMTAP	76	72	3
NMTAP	76	96	2
NMTAP	76	144	1
NMTAP	76	144	5
NMTAP	76	192	2
NMTAP	76	216	3
NMTAP	76	240	2
NMTAP	76	288	1
NMTAP	76	288	6
NMTAP	76	336	2
NMTAP	76	360	3
NMTAP	77	0	2
NMTAP	77	48	1
NMTAP	77	48	7
NMTAP	77	96	2
NMTAP	77	120	3
NMTAP	77	144	2
NMTAP	77	192	0
NMSTR	77	192	1
BRSI_	77	192	1	96	48	5
BRTAP	77	288	1
NMTAP	77	288	5
NMTAP	78	0	3
NMTAP	78	0	6
NMTAP	78	48	5
NMTAP	78	72	4
NMTAP	78	96	5
NMTAP	78	144	2
NMTAP	78	144	6
NMTAP	78	192	5
NMTAP	78	216	4
NMTAP	78	240	5
NMTAP	78	288	1
NMTAP	78	288	6
NMTAP	78	336	5
NMTAP	78	360	4
NMTAP	79	0	5
NMTAP	79	48	0
NMTAP	79	48	6
NMTAP	79	96	5
NMTAP	79	120	4
NMTAP	79	144	5
NMSTR	79	192	6
NMSI_	79	192	6	96	48	2
NMTAP	79	192	7
NMTAP	79	288	2
BRTAP	79	288	6
NMTAP	80	0	1
NMTAP	80	0	3
NMTAP	80	48	0
NMTAP	80	72	7
NMTAP	80	96	0
NMTAP	80	144	4
NMTAP	80	144	6
NMTAP	80	192	7
NMTAP	80	216	0
NMTAP	80	240	7
NMTAP	80	288	1
NMTAP	80	288	3
NMTAP	80	336	0
NMTAP	80	336	7
NMTAP	81	0	0
NMTAP	81	0	7
NMTAP	81	48	4
NMTAP	81	48	6
NMTAP	81	96	0
NMTAP	81	96	7
NMSTR	81	144	0
BRSI_	81	144	0	96	48	4
NMSTR	81	144	7
NMSI_	81	144	7	96	48	3
NMTAP	81	192	1
NMTAP	81	192	6
NMTTP	81	240	0	A	0	M1
NMTTP	81	240	0	D	1	M1
NMTTP	81	240	7	A	0	M1
EXHLD	82	0	2	192
EXHLD	82	0	4	192
NMTAP	82	240	2
NMTAP	82	240	4
NMHLD	82	336	3	144
NMHLD	82	336	5	144
NMHLD	83	144	2	144
NMHLD	83	144	6	144
EXHLD	83	336	1	96
EXHLD	83	336	7	96
NMTAP	84	96	1
NMTAP	84	96	7
NMHLD	84	144	0	48
NMTAP	84	240	0
NMHLD	84	288	1	48
NMHLD	84	288	4	48
NMTAP	85	0	1
NMTAP	85	0	4
NMHLD	85	48	3	48
NMHLD	85	48	6	48
NMTAP	85	144	3
NMTAP	85	144	6
NMHLD	85	192	4	32
NMHLD	85	192	5	32
NMHLD	85	256	5	32
NMHLD	85	256	6	32
NMHLD	85	320	6	32
NMHLD	85	320	7	32
NMHLD	86	0	0	32
NMHLD	86	0	7	32
NMHLD	86	64	0	32
NMHLD	86	64	1	32
NMHLD	86	128	1	32
NMHLD	86	128	2	32
NMHLD	86	192	2	32
NMHLD	86	192	3	32
NMHLD	86	256	4	32
NMHLD	86	256	6	32
NMHLD	86	320	0	32
NMHLD	86	320	7	32
NMHLD	87	0	1	32
NMHLD	87	0	3	32
NMHLD	87	64	5	32
NMHLD	87	64	7	32
NMHLD	87	128	0	32
NMHLD	87	128	4	32
NMTTP	87	288	0	C	1	M1
NMTTP	87	288	2	B	0	M1
NMTTP	87	288	2	A	0	M1
NMTTP	87	288	6	B	0	M1
NMTTP	87	288	6	A	0	M1

T_REC_TAP	393
T_REC_BRK	25
T_REC_XTP	34
T_REC_BXX	1
T_REC_HLD	77
T_REC_XHO	14
T_REC_BHO	8
T_REC_BXH	0
T_REC_STR	84
T_REC_BST	3
T_REC_XST	7
T_REC_XBS	0
T_REC_TTP	41
T_REC_THO	0
T_REC_SLD	88
T_REC_BSL	9
T_REC_ALL	784
T_NUM_TAP	559
T_NUM_BRK	46
T_NUM_HLD	91
T_NUM_SLD	88
T_NUM_ALL	784
T_JUDGE_TAP	588
T_JUDGE_HLD	177
T_JUDGE_SLD	97
T_JUDGE_ALL	862
TTM_EACHPAIRS	180
TTM_SCR_TAP	279500
TTM_SCR_BRK	119600
TTM_SCR_HLD	91000
TTM_SCR_SLD	132000
TTM_SCR_ALL	622100
TTM_SCR_S	599000
TTM_SCR_SS	617500
TTM_RAT_ACV	10074

