VERSION	0.00.00	1.04.00
FES_MODE	0
BPM_DEF	172.000	172.000	180.000	160.000
MET_DEF	4	4
RESOLUTION	384
CLK_DEF	384
COMPATIBLE_CODE	MA2

BPM	0	0	172.000
BPM	42	0	180.000
BPM	49	96	160.000
BPM	51	96	172.000
BPM	85	192	180.000
MET	0	0	4	4
MET	41	0	4	4
MET	42	0	4	3
MET	47	96	4	4
MET	59	96	4	1
MET	60	0	4	4

EXTAP	2	0	1
EXTAP	2	0	4
EXTAP	2	240	4
EXTAP	2	240	5
EXTAP	2	336	2
EXTAP	2	336	7
EXTAP	3	144	0
EXTAP	3	144	4
EXHLD	3	336	1	192
EXHLD	4	144	3	144
EXHLD	4	288	4	144
EXTAP	5	48	5
BXTAP	5	192	1
BXTAP	5	192	6
NMTAP	6	0	2
NMTAP	6	96	2
NMTAP	6	96	3
NMTAP	6	192	5
NMTAP	6	288	4
NMTAP	6	288	5
NMTAP	7	0	3
NMSTR	7	96	3
NMSI_	7	96	3	96	96	0
NMTAP	7	96	4
NMTAP	8	0	1
NMTAP	8	0	4
NMTAP	8	96	1
NMTAP	8	96	4
NMTAP	8	192	2
NMTAP	8	192	5
NMTAP	8	288	2
NMTAP	8	288	5
EXTAP	9	0	3
EXTAP	9	0	6
EXTAP	9	96	3
EXTAP	9	96	6
EXTAP	9	192	3
EXTAP	9	192	6
NMTAP	10	0	1
NMTAP	10	96	1
NMTAP	10	96	3
NMTAP	10	192	6
NMTAP	10	288	4
NMTAP	10	288	6
NMTAP	11	0	3
NMHLD	11	96	3	192
NMTAP	11	96	4
EXTAP	11	192	2
EXTAP	11	240	2
EXTAP	11	288	2
NMTAP	12	0	4
NMTAP	12	0	6
NMTAP	12	96	4
NMTAP	12	96	6
NMTAP	12	192	1
NMTAP	12	192	3
NMTAP	12	288	1
NMTAP	12	288	3
EXTAP	13	0	0
EXTAP	13	0	7
EXTAP	13	48	0
EXTAP	13	48	7
EXTAP	13	96	0
EXTAP	13	96	7
BRTAP	13	192	1
BRTAP	13	192	6
NMHLD	14	0	5	192
NMHLD	14	192	4	192
NMHLD	15	0	3	192
NMHLD	15	192	2	192
NMHLD	16	0	3	192
NMTAP	16	192	4
NMTAP	17	0	4
NMHLD	17	0	6	288
NMTAP	17	96	4
NMTAP	17	192	7
NMTAP	17	288	7
NMHLD	18	0	4	48
NMHLD	18	0	5	48
NMHLD	18	192	3	48
NMHLD	18	192	4	48
NMHLD	19	0	2	48
NMHLD	19	0	3	48
NMHLD	19	192	3	48
NMHLD	19	192	4	48
NMSTR	20	0	4
NMSUR	20	0	4	96	192	1
NMHLD	20	0	5	288
NMHLD	21	0	2	288
NMSTR	21	0	3
NMSUL	21	0	3	96	192	6
NMSTR	22	0	4
NMSCR	22	0	4	96	384	3
NMHLD	22	0	5	672
BRTAP	23	288	0
NMTAP	24	0	4
NMTAP	24	0	6
NMTAP	24	96	3
NMTAP	24	96	4
NMTAP	24	192	1
NMTAP	24	192	3
NMTAP	24	288	0
NMTAP	24	288	6
NMTAP	25	0	4
NMTAP	25	0	5
NMTAP	25	96	2
NMTAP	25	96	3
NMTAP	25	192	1
NMTAP	25	192	4
NMHLD	26	0	6	96
NMTAP	26	48	4
NMTAP	26	96	4
NMHLD	26	192	1	96
NMTAP	26	240	3
NMTAP	26	288	3
NMSTR	27	0	2
NMSI_	27	0	2	96	96	7
NMSTR	27	0	4
NMSI_	27	0	4	96	96	7
NMTAP	27	288	0
NMTAP	27	288	6
NMTAP	28	0	1
NMTAP	28	0	3
NMTAP	28	96	3
NMTAP	28	96	4
NMTAP	28	192	4
NMTAP	28	192	6
NMTAP	28	288	1
NMTAP	28	288	7
NMTAP	29	0	2
NMTAP	29	0	3
NMTAP	29	96	4
NMTAP	29	96	5
NMTAP	29	192	3
NMTAP	29	192	6
NMTAP	30	0	0
NMTAP	30	0	7
NMTAP	30	96	4
NMTAP	30	96	5
NMHLD	30	192	2	144
NMTAP	30	192	3
NMTAP	30	288	0
EXTAP	30	336	0
EXTAP	31	48	4
EXTAP	31	48	6
EXTAP	31	144	2
EXTAP	31	144	3
BRTAP	31	240	0
BRTAP	31	240	6
NMTAP	32	0	4
NMTAP	32	0	6
NMTAP	32	96	0
NMTAP	32	96	7
NMTAP	32	192	1
NMTAP	32	192	3
NMTAP	32	288	3
NMTAP	32	288	4
NMTAP	33	0	4
NMTAP	33	0	6
NMTAP	33	96	6
NMTAP	33	96	7
NMTAP	33	192	0
NMTAP	33	192	5
NMHLD	34	0	1	96
NMTAP	34	48	3
NMTAP	34	96	3
NMHLD	34	192	6	96
NMTAP	34	240	4
NMTAP	34	288	4
NMSTR	35	0	3
NMSI_	35	0	3	96	96	0
NMSTR	35	0	5
NMSI_	35	0	5	96	96	0
NMTAP	35	288	1
NMTAP	35	288	7
NMTAP	36	0	1
NMTAP	36	0	3
NMTAP	36	96	0
NMTAP	36	96	7
NMTAP	36	192	4
NMTAP	36	192	6
NMTAP	36	288	3
NMTAP	36	288	4
NMTAP	37	0	1
NMTAP	37	0	3
NMTAP	37	96	0
NMTAP	37	96	1
NMTAP	37	192	2
NMTAP	37	192	7
NMHLD	38	0	6	96
NMTAP	38	0	7
NMHLD	38	96	4	96
NMHLD	38	192	3	96
EXSTR	38	288	1
NMSCL	38	288	1	96	192	4
NMTAP	39	288	3
NMTAP	39	288	7
NMHLD	40	0	2	288
NMTAP	40	0	5
NMTAP	40	96	3
NMTAP	40	144	3
NMTAP	40	240	1
NMTAP	40	288	1
EXTAP	41	0	0
EXTAP	41	0	7
EXTAP	41	96	3
EXTAP	41	96	4
BRTAP	41	192	1
BRTAP	41	192	6
NMHLD	42	0	4	192
NMHLD	42	0	6	192
NMHLD	42	288	3	192
NMHLD	42	288	4	192
NMHLD	43	192	1	192
NMHLD	43	192	3	192
NMHLD	44	96	3	192
NMHLD	44	96	4	192
NMHLD	45	0	6	288
NMTAP	45	96	4
NMTAP	45	192	4
NMHLD	45	288	1	288
NMTAP	46	0	3
NMTAP	46	96	3
NMHLD	46	192	5	192
NMTAP	46	288	4
NMTAP	47	0	4
NMTAP	47	96	6
NMTAP	47	96	7
NMTAP	47	160	6
NMTAP	47	160	7
NMTAP	47	224	6
NMTAP	47	224	7
NMTAP	47	288	5
NMTAP	47	352	5
NMTAP	48	32	5
NMTAP	48	96	3
NMTAP	48	96	4
NMTAP	48	160	3
NMTAP	48	160	4
NMTAP	48	224	3
NMTAP	48	224	4
NMTAP	48	288	2
NMTAP	48	352	2
NMTAP	49	32	2
NMSTR	49	96	1
NMSCL	49	96	1	96	192	4
CNSUL	50	0	4	0	240	2
NMTAP	51	96	2
NMHLD	51	192	2	1344
NMTTP	52	0	6	E	0	M1
NMTTP	52	0	6	D	0	M1
NMTTP	52	192	7	E	0	M1
NMTTP	52	192	7	D	0	M1
NMTTP	53	0	0	E	0	M1
NMTTP	53	0	0	D	0	M1
NMTTP	53	192	1	E	0	M1
NMTTP	53	192	1	D	0	M1
NMTTP	54	0	2	E	0	M1
NMTTP	54	0	2	D	0	M1
NMTTP	54	192	3	E	0	M1
NMTTP	54	192	3	D	0	M1
NMTTP	55	0	4	E	0	M1
NMTTP	55	0	4	D	0	M1
NMTTP	55	192	3	A	0	M1
NMTTP	55	192	3	D	0	M1
NMTTP	55	192	4	A	0	M1
NMTTP	55	192	5	D	0	M1
NMTTP	56	0	3	B	0	M1
NMTTP	56	0	3	E	0	M1
NMTTP	56	0	4	B	0	M1
NMTTP	56	0	5	E	0	M1
NMTHO	56	192	0	192	C	1	M1
NMTTP	56	192	2	B	0	M1
NMTTP	56	192	5	B	0	M1
EXSTR	58	48	2
BRSXR	58	48	2	96	336	7
EXSTR	58	48	4
BRSXL	58	48	4	96	336	7
BRTAP	59	288	0
NMTAP	60	0	6
NMTAP	60	0	7
NMTAP	60	96	3
NMTAP	60	96	5
NMTAP	60	192	1
NMTAP	60	192	3
NMTAP	60	288	0
NMTAP	60	288	7
NMTAP	61	0	4
NMTAP	61	0	6
NMTAP	61	96	4
NMTAP	61	96	6
NMTAP	61	192	2
NMTAP	61	192	7
NMHLD	62	0	6	96
NMTAP	62	48	7
NMTAP	62	96	7
NMHLD	62	192	1	96
NMTAP	62	240	0
NMTAP	62	288	0
NMSTR	63	0	2
NMSI_	63	0	2	96	96	7
NMSTR	63	0	3
NMSI_	63	0	3	96	96	7
NMTAP	63	288	0
NMTAP	63	288	6
NMTAP	64	0	0
NMTAP	64	0	1
NMTAP	64	96	2
NMTAP	64	96	4
NMTAP	64	192	4
NMTAP	64	192	6
NMTAP	64	288	0
NMTAP	64	288	7
NMTAP	65	0	1
NMTAP	65	0	3
NMTAP	65	96	1
NMTAP	65	96	3
NMTAP	65	192	0
NMTAP	65	192	5
NMTAP	66	0	0
NMTAP	66	0	7
NMTAP	66	96	4
NMTAP	66	96	6
NMHLD	66	192	3	144
NMTAP	66	192	4
NMTAP	66	288	0
EXTAP	66	336	0
EXTAP	67	48	2
EXTAP	67	48	3
EXTAP	67	144	4
EXTAP	67	144	6
BRTAP	67	240	0
BRTAP	67	240	7
NMTAP	68	0	2
NMTAP	68	0	3
NMTAP	68	96	0
NMTAP	68	96	1
NMTAP	68	192	4
NMTAP	68	192	5
NMTAP	68	288	6
NMTAP	68	288	7
NMTAP	69	0	0
NMTAP	69	0	1
NMTAP	69	96	0
NMTAP	69	96	1
NMTAP	69	192	3
NMTAP	69	192	7
NMHLD	70	0	1	96
NMTAP	70	48	0
NMTAP	70	96	0
NMHLD	70	192	6	96
NMTAP	70	240	7
NMTAP	70	288	7
NMSTR	71	0	4
NMSI_	71	0	4	96	96	0
NMSTR	71	0	5
NMSI_	71	0	5	96	96	0
NMTAP	71	288	1
NMTAP	71	288	7
NMTAP	72	0	4
NMTAP	72	0	5
NMTAP	72	96	6
NMTAP	72	96	7
NMTAP	72	192	2
NMTAP	72	192	3
NMTAP	72	288	0
NMTAP	72	288	1
NMTAP	73	0	6
NMTAP	73	0	7
NMTAP	73	96	6
NMTAP	73	96	7
NMTAP	73	192	0
NMTAP	73	192	4
NMTAP	74	0	0
NMHLD	74	0	1	96
NMHLD	74	96	3	96
NMHLD	74	192	4	96
NMTAP	74	288	6
EXSTR	75	0	0
BRSI_	75	0	0	96	96	4
EXSTR	75	0	7
BRSI_	75	0	7	96	96	3
EXTAP	75	288	2
EXTAP	75	288	5
NMHLD	76	0	0	96
NMHLD	76	0	6	96
NMHLD	76	144	1	96
NMHLD	76	144	3	96
NMHLD	76	288	4	96
NMHLD	76	288	5	96
NMHLD	77	48	2	96
NMHLD	77	48	3	96
EXTAP	77	192	0
EXTAP	77	192	1
EXTAP	77	288	0
EXTAP	77	288	1
NMHLD	78	0	0	96
NMHLD	78	0	6	96
NMHLD	78	144	1	96
NMHLD	78	144	3	96
NMHLD	78	288	4	96
NMHLD	78	288	5	96
NMHLD	79	48	2	96
NMHLD	79	48	3	96
EXTAP	79	192	0
EXTAP	79	192	1
EXTAP	79	288	0
EXTAP	79	288	1
NMTAP	80	0	0
NMTAP	80	0	6
NMTAP	80	96	2
NMTAP	80	144	2
NMTAP	80	144	3
NMTAP	80	240	6
NMTAP	80	288	5
NMTAP	80	288	6
NMTAP	81	0	0
NMTAP	81	0	2
NMTAP	81	96	3
NMTAP	81	96	5
BRTAP	81	192	0
BRTAP	81	192	6
EXHLD	82	0	1	240
EXSTR	82	0	3
NMSI_	82	0	3	96	96	7
EXSTR	82	336	4
NMSI_	82	336	4	96	96	0
EXHLD	82	336	6	192
EXTAP	83	336	4
EXHLD	83	336	5	96
NMTAP	84	48	1
NMTAP	84	96	1
EXHLD	84	144	0	96
EXHLD	84	144	1	96
EXHLD	84	288	6	96
EXHLD	84	288	7	96
EXHLD	85	48	3	96
EXHLD	85	48	4	96
NMTAP	85	192	1
NMTAP	85	256	1
NMTAP	85	320	1
NMTAP	86	0	0
NMTAP	86	0	7
NMTAP	86	64	0
NMTAP	86	64	7
NMTAP	86	128	0
NMTAP	86	128	7
NMTAP	86	192	6
NMTAP	86	256	6
NMTAP	86	320	6
NMTAP	87	0	4
NMTAP	87	0	5
NMTAP	87	64	4
NMTAP	87	64	5
NMTAP	87	128	4
NMTAP	87	128	5
BRTAP	87	288	2
BRTAP	87	288	7

T_REC_TAP	252
T_REC_BRK	14
T_REC_XTP	49
T_REC_BXX	2
T_REC_HLD	63
T_REC_XHO	12
T_REC_BHO	0
T_REC_BXH	0
T_REC_STR	13
T_REC_BST	0
T_REC_XST	7
T_REC_XBS	0
T_REC_TTP	24
T_REC_THO	1
T_REC_SLD	16
T_REC_BSL	4
T_REC_ALL	457
T_NUM_TAP	345
T_NUM_BRK	20
T_NUM_HLD	76
T_NUM_SLD	16
T_NUM_ALL	457
T_JUDGE_TAP	361
T_JUDGE_HLD	249
T_JUDGE_SLD	20
T_JUDGE_ALL	630
TTM_EACHPAIRS	161
TTM_SCR_TAP	172500
TTM_SCR_BRK	52000
TTM_SCR_HLD	76000
TTM_SCR_SLD	24000
TTM_SCR_ALL	324500
TTM_SCR_S	312850
TTM_SCR_SS	322500
TTM_RAT_ACV	10062

