VERSION	0.00.00	1.04.00
FES_MODE	0
BPM_DEF	203.000	203.000	203.000	203.000
MET_DEF	4	4
RESOLUTION	384
CLK_DEF	384
COMPATIBLE_CODE	MA2

BPM	0	0	203.000
MET	0	0	4	4

NMTAP	1	0	2
NMTAP	1	0	4
NMTAP	1	48	2
NMTAP	1	48	4
NMTAP	1	336	3
NMTAP	1	336	6
NMTAP	2	48	1
NMTAP	2	48	4
NMTAP	3	0	3
NMTAP	3	0	5
NMTAP	3	48	3
NMTAP	3	48	5
NMTAP	4	0	2
NMTAP	4	0	6
NMSTR	4	96	0
NMSCR	4	96	0	96	96	3
NMSTR	4	96	4
BRSCR	4	96	4	96	96	7
NMTAP	4	144	0
NMTAP	4	144	4
NMTAP	4	192	0
NMTAP	4	192	4
NMSTR	5	0	2
NMSI_	5	0	2	96	48	0
BRTAP	5	96	6
NMTAP	5	192	4
NMSTR	5	192	5
NMSI_	5	192	5	96	48	7
BRTAP	5	288	1
NMSTR	6	0	2
NMSI_	6	0	2	96	48	0
NMTAP	6	0	3
BRTAP	6	96	6
NMTAP	6	192	4
NMSTR	6	192	5
NMSI_	6	192	5	96	48	7
BRTAP	6	288	1
BRTAP	7	0	0
EXTAP	7	16	1
EXTAP	7	32	2
EXTAP	7	48	3
BRTAP	7	96	1
EXTAP	7	112	2
EXTAP	7	128	3
EXTAP	7	144	4
BRTAP	7	192	2
EXTAP	7	208	3
EXTAP	7	224	4
EXTAP	7	240	5
BRTAP	7	288	3
EXTAP	7	304	4
EXTAP	7	320	5
EXTAP	7	336	6
NMSTR	8	96	0
NMSI_	8	96	0	96	48	3
NMSTR	8	96	7
NMSI_	8	96	7	96	48	4
NMTAP	8	192	0
NMTAP	8	192	7
NMTTP	8	288	4	E	1	M1
NMTTP	8	300	3	E	0	M1
NMTTP	8	300	5	E	0	M1
NMTTP	8	312	2	E	0	M1
NMTTP	8	312	6	E	0	M1
NMTTP	8	324	1	E	0	M1
NMTTP	8	324	7	E	0	M1
EXTAP	9	0	1
EXTAP	9	0	6
NMTAP	9	96	2
NMTAP	9	120	3
NMTAP	9	144	2
NMTAP	9	192	4
NMTAP	9	216	3
NMTAP	9	240	4
NMTAP	9	288	2
NMTAP	9	312	3
NMTAP	9	336	2
NMTAP	10	0	5
NMTAP	10	24	4
NMTAP	10	48	5
NMTAP	10	96	3
NMTAP	10	120	4
NMTAP	10	144	3
NMTAP	10	192	5
NMTAP	10	216	4
NMTAP	10	240	5
NMTAP	10	288	3
NMTAP	10	312	4
NMTAP	10	336	3
NMTAP	11	0	5
NMTAP	11	24	4
NMTAP	11	48	5
NMTAP	11	96	2
NMTAP	11	120	3
NMTAP	11	144	2
NMTAP	11	192	5
NMTAP	11	216	4
NMTAP	11	240	5
NMTAP	11	288	2
NMTAP	11	312	3
NMTAP	11	336	2
NMTAP	12	0	4
NMTAP	12	0	6
NMTAP	12	96	1
NMTAP	12	96	3
NMTAP	12	192	5
NMTAP	12	216	4
NMTAP	12	240	5
BRTAP	12	288	2
BRTAP	12	288	6
NMSTR	13	0	0
NMSI_	13	0	0	96	48	4
NMSTR	13	0	1
NMSI_	13	0	1	96	48	4
NMTAP	13	48	0
NMTAP	13	48	1
NMTAP	13	96	0
NMTAP	13	96	1
EXTAP	13	192	5
EXTAP	13	216	4
EXTAP	13	240	5
NMTAP	13	288	3
NMTAP	13	312	4
NMTAP	13	336	3
NMTAP	14	0	5
NMTAP	14	24	4
NMTAP	14	48	5
NMTAP	14	96	2
NMTAP	14	120	3
NMTAP	14	144	2
NMTAP	14	192	4
NMTAP	14	216	3
NMTAP	14	240	4
NMTAP	14	288	2
NMTAP	14	288	3
NMTAP	15	0	5
NMTAP	15	24	4
NMTAP	15	72	6
NMTAP	15	96	7
NMTAP	15	144	1
NMTAP	15	168	0
NMTAP	15	216	2
NMTAP	15	240	3
NMTAP	15	264	2
NMSTR	15	288	3
NMSSR	15	288	3	96	192	7
NMHLD	16	0	0	48
NMHLD	16	96	1	48
NMSTR	16	192	2
BRSI_	16	192	2	96	48	6
CNSCL	16	192	7	0	96	4
NMTAP	16	288	2
BXTAP	17	0	5
BXTAP	17	0	7
NMTAP	17	96	0
NMHLD	17	96	4	48
NMTAP	17	144	0
NMTAP	17	192	1
NMHLD	17	192	4	48
NMTAP	17	240	1
NMTAP	17	288	2
NMHLD	17	288	4	48
NMTAP	17	336	2
NMSTR	18	0	3
NMSI_	18	0	3	96	48	7
NMHLD	18	0	4	48
NMTAP	18	96	3
NMHLD	18	96	5	48
NMTAP	18	192	0
NMHLD	18	192	6	48
NMTAP	18	240	0
NMTAP	18	288	1
NMHLD	18	288	7	48
NMTAP	18	336	1
NMTAP	19	0	0
NMHLD	19	0	2	48
NMTAP	19	48	0
NMHLD	19	96	1	48
NMTAP	19	96	7
NMTAP	19	144	7
NMHLD	19	192	0	48
NMTAP	19	192	6
NMTAP	19	240	6
NMSTR	19	288	6
NMSI_	19	288	6	96	48	2
NMSTR	19	288	7
NMSI_	19	288	7	96	48	1
NMSTR	20	0	6
NMSI_	20	0	6	96	48	4
NMSTR	20	0	7
NMSI_	20	0	7	96	48	3
NMSTR	20	96	6
NMSI_	20	96	6	96	48	2
NMSTR	20	96	7
NMSI_	20	96	7	96	48	1
NMTAP	20	192	6
NMTAP	20	192	7
BRTAP	21	0	3
BRTAP	21	0	6
NMHLD	21	96	2	48
NMTAP	21	96	7
NMTAP	21	144	7
NMHLD	21	192	2	48
NMTAP	21	192	6
NMTAP	21	240	6
NMHLD	21	288	3	48
NMTAP	21	288	5
NMTAP	21	336	5
NMHLD	22	0	3	48
NMSTR	22	0	4
NMSI_	22	0	4	96	48	0
NMHLD	22	96	2	48
NMTAP	22	96	4
NMHLD	22	192	1	48
NMSTR	22	192	7
NMSI_	22	192	7	96	48	3
NMHLD	22	288	0	48
NMTAP	22	288	7
NMTAP	23	0	1
NMTAP	23	0	4
NMTAP	23	48	1
NMTAP	23	48	4
NMTAP	23	96	2
NMTAP	23	96	5
NMTAP	23	144	2
NMTAP	23	144	5
NMTAP	23	192	3
NMTAP	23	216	6
NMTAP	23	240	3
NMTAP	23	264	6
NMTAP	23	288	3
NMTAP	23	312	6
NMTAP	23	336	3
NMTAP	23	360	6
NMHLD	24	0	4	384
NMTTP	24	96	5	E	0	M1
NMTTP	24	120	6	E	0	M1
NMTTP	24	144	7	E	0	M1
NMTTP	24	168	0	E	0	M1
NMTTP	24	192	1	E	0	M1
NMTTP	24	216	2	E	0	M1
NMTTP	24	240	3	E	0	M1
NMTTP	24	264	4	E	0	M1
NMTTP	24	288	5	D	0	M1
NMTTP	24	312	6	E	0	M1
NMTTP	24	336	7	D	0	M1
NMTTP	24	360	0	E	0	M1
NMTTP	25	0	1	D	1	M1
NMTAP	25	144	3
NMTAP	25	144	5
NMTAP	25	192	3
NMSTR	25	192	5
NMSLR	25	192	5	96	96	3
NMTAP	25	288	1
EXSTR	26	0	2
NMSCL	26	0	2	96	192	6
NMTAP	26	192	5
NMTAP	26	264	4
CNSV_	26	288	6	0	96	1
NMTAP	26	336	3
EXSTR	27	0	3
NMSCR	27	0	3	96	192	7
NMTAP	27	192	0
NMTAP	27	264	1
CNSV_	27	288	7	0	96	4
NMTAP	27	336	2
EXSTR	28	0	2
NMSCL	28	0	2	96	192	6
NMTAP	28	192	5
NMTAP	28	264	4
CNSV_	28	288	6	0	96	1
NMTAP	28	336	3
EXSTR	29	0	3
NMSCL	29	0	3	96	96	7
NMSCR	29	0	3	96	96	7
NMTAP	29	288	6
NMTAP	29	312	0
NMTAP	29	336	6
EXSTR	30	0	1
NMSCR	30	0	1	96	192	5
NMTTP	30	0	3	B	0	M1
NMTTP	30	0	4	B	0	M1
NMTTP	30	0	4	E	1	M1
NMTAP	30	192	6
NMTAP	30	264	7
CNSV_	30	288	5	0	96	2
NMTAP	30	336	0
EXSTR	31	0	0
NMSCL	31	0	0	96	192	4
NMTAP	31	192	3
NMTAP	31	264	2
CNSV_	31	288	4	0	96	7
NMTAP	31	336	1
EXSTR	32	0	1
NMSCR	32	0	1	96	192	5
NMTAP	32	192	6
NMTAP	32	264	7
CNSV_	32	288	5	0	96	2
NMTAP	32	336	0
EXSTR	33	0	0
NMSCL	33	0	0	96	96	4
NMSCR	33	0	0	96	96	4
NMTAP	33	240	3
NMTAP	33	264	5
NMTAP	33	288	3
NMTAP	33	336	2
NMSTR	34	0	0
NMSLR	34	0	0	96	96	7
NMHLD	34	0	1	288
CNSI_	34	192	7	0	96	3
EXTAP	35	0	2
EXTAP	35	0	4
NMHLD	35	48	2	96
NMTAP	35	48	4
NMHLD	35	144	1	96
NMTAP	35	240	0
NMHLD	35	288	0	96
NMTTP	36	0	4	B	0	M1
NMTTP	36	24	5	B	0	M1
NMTTP	36	48	6	B	0	M1
NMTTP	36	72	7	B	0	M1
NMTTP	36	96	3	E	0	M1
NMTTP	36	120	2	E	0	M1
NMTTP	36	144	1	E	0	M1
NMTTP	36	168	0	E	0	M1
NMTTP	36	192	4	A	0	M1
NMTTP	36	216	5	A	0	M1
NMTTP	36	240	6	A	0	M1
NMTTP	36	264	7	A	0	M1
EXSTR	36	288	3
NMSI_	36	288	3	96	48	0
NMSTR	37	0	7
NMSI_	37	0	7	96	48	4
NMSTR	37	96	1
NMSI_	37	96	1	96	48	6
NMTAP	37	192	6
EXTAP	37	288	0
EXTAP	37	288	5
NMHLD	38	0	2	96
NMTTP	38	0	4	B	0	M1
NMTTP	38	24	5	B	0	M1
NMTTP	38	48	6	B	0	M1
NMTTP	38	72	7	B	0	M1
NMTTP	38	96	0	B	0	M1
NMTTP	38	192	3	A	0	M1
NMHLD	38	192	5	96
NMTTP	38	216	2	A	0	M1
NMTTP	38	240	1	A	0	M1
NMTTP	38	264	0	A	0	M1
NMTTP	38	288	7	A	0	M1
NMTAP	39	0	2
NMTAP	39	24	4
NMTAP	39	48	2
NMTAP	39	72	4
NMSTR	39	96	3
NMSI_	39	96	3	96	48	0
NMSTR	39	192	7
NMSI_	39	192	7	96	48	4
NMTAP	39	288	1
NMHLD	40	0	0	48
NMHLD	40	0	5	48
NMHLD	40	72	1	48
NMHLD	40	72	6	48
NMTAP	40	144	2
NMTAP	40	144	7
NMSTR	40	192	1
NMSI_	40	192	1	96	48	5
NMTAP	40	216	0
NMTAP	40	240	2
NMTAP	40	264	0
NMTAP	40	288	1
NMHLD	41	0	3	48
NMHLD	41	0	6	48
NMHLD	41	72	2	48
NMHLD	41	72	5	48
NMTAP	41	144	1
NMTAP	41	144	4
NMTAP	41	192	2
NMTAP	41	216	3
NMTAP	41	240	1
NMTAP	41	264	4
NMSTR	41	288	2
NMSCL	41	288	2	96	768	5
NMTAP	41	312	3
NMTAP	41	336	1
NMTAP	41	360	4
NMTAP	42	0	2
NMTHO	42	144	0	1392	C	1	M1
CNSCR	44	0	5	0	576	2
EXTAP	46	0	2
NMTAP	46	192	1
NMTAP	46	216	0
NMTAP	46	240	1
NMTAP	46	288	6
NMTAP	46	312	7
NMTAP	46	336	6
NMTTP	47	0	0	C	1	M1
EXTAP	47	0	5
NMTAP	47	192	6
NMTAP	47	216	7
NMTAP	47	240	6
NMTAP	47	288	1
NMTAP	47	312	0
NMTAP	47	336	1
BRTAP	48	0	6
NMTAP	48	32	4
NMTAP	48	64	4
BRTAP	48	96	5
NMTAP	48	128	3
NMTAP	48	160	3
BRTAP	48	192	4
NMTAP	48	224	2
NMTAP	48	256	2
BRTAP	48	288	3
NMTAP	48	320	1
NMTAP	48	352	1
BRSTR	49	0	2
NMSCR	49	0	2	96	48	5
NMTAP	49	96	0
NMTAP	49	144	7
NMSTR	49	192	0
NMSI_	49	192	0	96	48	3
NMSI_	49	192	0	96	48	5
NMTAP	49	288	0
EXTAP	50	0	2
EXTAP	50	0	4
NMTAP	50	96	6
EXTAP	50	144	4
EXTAP	50	144	6
NMTAP	50	240	1
EXTAP	50	288	1
EXTAP	50	288	3
NMTAP	51	0	4
NMTAP	51	0	6
NMTAP	51	24	3
NMTAP	51	48	2
NMTAP	51	72	1
NMTAP	51	96	3
NMTAP	51	120	4
NMTAP	51	144	5
NMTAP	51	168	6
NMTAP	51	192	4
NMTAP	51	216	3
NMTAP	51	240	2
NMTAP	51	264	1
NMTAP	51	288	0
BRTAP	51	288	7
EXTAP	52	0	2
EXSTR	52	0	5
NMSI_	52	0	5	96	48	0
NMSTR	52	96	4
NMSI_	52	96	4	96	48	1
NMTAP	52	96	5
NMTAP	52	144	3
NMTAP	52	192	4
NMSTR	52	240	7
NMSCL	52	240	7	96	96	3
NMSTR	52	336	3
NMSCL	52	336	3	96	96	7
NMTAP	53	48	7
NMSTR	53	144	3
NMSI_	53	144	3	96	48	6
NMSTR	53	192	2
NMSI_	53	192	2	96	48	7
NMTAP	53	240	3
BRTAP	53	288	2
EXTAP	54	0	0
EXTAP	54	0	5
NMTAP	54	24	4
NMTAP	54	48	3
NMTAP	54	72	2
NMTAP	54	96	1
NMTAP	54	120	0
NMTAP	54	144	3
NMTAP	54	144	7
NMTAP	54	192	1
NMTAP	54	192	5
NMTAP	54	240	2
NMTAP	54	240	4
NMTAP	54	288	0
NMTAP	54	288	6
EXTAP	55	0	2
EXTAP	55	0	7
NMTAP	55	24	3
NMTAP	55	48	4
NMTAP	55	72	5
NMTAP	55	96	6
NMTAP	55	120	7
NMTAP	55	144	0
NMTAP	55	144	4
NMTAP	55	192	2
NMTAP	55	192	6
NMTAP	55	240	3
NMTAP	55	240	5
NMTAP	55	288	1
NMTAP	55	288	7
NMSTR	56	0	3
NMSLL	56	0	3	96	96	7
NMSTR	56	96	7
NMSLR	56	96	7	96	96	3
NMTAP	56	192	4
NMTAP	56	240	5
NMTAP	56	288	6
NMTAP	56	336	5
NMSTR	57	0	4
NMSLR	57	0	4	96	96	0
NMSTR	57	96	0
NMSLL	57	96	0	96	96	4
NMTAP	57	192	3
NMTAP	57	240	2
BRTAP	57	288	1
BXHLD	58	0	3	96
BXHLD	58	0	6	96
BXHLD	58	144	0	96
BXHLD	58	144	7	96
BXTAP	58	288	1
BXTAP	58	288	4
NMTAP	59	0	6
NMTAP	59	0	7
NMTAP	59	72	3
NMTAP	59	72	4
NMTAP	59	144	0
NMTAP	59	144	1
NMTAP	59	192	2
NMTAP	59	192	3
NMTAP	59	240	4
NMTAP	59	240	5
BRTAP	59	288	6
BRTAP	59	288	7
EXSTR	60	0	2
NMSI_	60	0	2	96	48	7
EXTAP	60	0	5
NMTAP	60	96	2
NMSTR	60	96	3
NMSI_	60	96	3	96	48	6
NMTAP	60	144	4
NMTAP	60	192	3
NMSTR	60	240	0
NMSCR	60	240	0	96	96	4
NMSTR	60	336	4
NMSCR	60	336	4	96	96	0
NMTAP	61	48	0
NMSTR	61	144	4
NMSI_	61	144	4	96	48	1
NMSTR	61	192	5
NMSI_	61	192	5	96	48	0
NMTAP	61	240	4
BRTAP	61	288	5
EXSTR	62	0	2
NMSI_	62	0	2	96	48	0
NMTAP	62	72	3
BRTAP	62	96	2
NMTAP	62	192	1
NMSTR	62	192	5
NMSI_	62	192	5	96	48	7
NMTAP	62	264	4
BRTAP	62	288	5
NMSTR	63	0	2
NMSI_	63	0	2	96	48	0
NMTAP	63	0	6
NMTAP	63	72	3
BRTAP	63	96	2
NMTAP	63	192	1
NMSTR	63	192	5
NMSI_	63	192	5	96	48	7
NMTAP	63	264	4
BRTAP	63	288	5
EXTAP	64	0	2
NMTAP	64	24	3
NMTAP	64	48	2
NMTAP	64	72	3
NMTAP	64	96	2
NMTAP	64	120	4
NMTAP	64	144	2
NMTAP	64	168	4
NMTAP	64	192	2
NMTAP	64	216	5
NMTAP	64	240	2
NMTAP	64	264	5
NMTAP	64	288	1
EXTAP	65	0	0
EXTAP	65	0	7
NMTAP	65	48	1
NMTAP	65	72	0
NMTAP	65	96	1
NMSTR	65	144	2
NMSCR	65	144	2	96	48	6
NMSTR	65	192	6
BRSCR	65	192	6	96	48	2
EXHLD	66	0	5	384
NMHLD	67	0	4	384
NMHLD	68	0	3	384
NMHLD	69	0	2	384
NMSTR	70	0	3
NMSCR	70	0	3	96	288	7
NMTAP	70	192	2
NMSTR	71	0	4
NMSCL	71	0	4	96	288	0
NMTAP	71	192	5
NMSTR	72	0	3
NMSCL	72	0	3	96	192	7
NMSCR	72	0	3	96	192	7
NMTTP	73	0	2	B	0	M1
NMTTP	73	0	2	E	0	M1
NMTTP	73	0	3	B	0	M1
NMTTP	73	0	4	B	0	M1
NMTTP	73	0	5	B	0	M1
NMTTP	73	0	6	E	0	M1
NMHLD	73	192	6	96
NMSTR	73	192	7
NMSI_	73	192	7	96	48	2
NMTAP	74	0	3
NMTAP	74	0	4
NMTAP	74	96	3
NMTAP	74	96	4
NMTAP	74	192	4
NMTAP	74	192	5
NMTAP	74	288	4
NMTAP	74	288	5
NMTAP	75	0	3
NMTAP	75	0	4
NMTAP	75	96	3
NMTAP	75	96	4
NMTAP	75	192	2
NMTAP	75	192	3
NMTAP	75	288	2
NMTAP	75	288	3
NMTAP	76	0	3
NMTAP	76	0	4
NMTAP	76	96	4
NMTAP	76	96	5
NMTAP	76	192	3
NMTAP	76	192	4
NMTAP	76	288	2
NMTAP	76	288	3
NMSTR	77	0	1
NMSCR	77	0	1	96	48	3
NMTAP	77	96	4
NMSTR	77	192	6
NMSCL	77	192	6	96	48	4
NMTAP	77	288	3
BXTAP	78	0	2
BXHLD	78	48	1	288
BXSTR	78	48	3
NMSI_	78	48	3	96	48	6
CNSI_	78	192	6	0	144	4
BXTAP	79	0	3
BXSTR	79	48	4
NMSI_	79	48	4	96	48	1
BXHLD	79	48	6	288
CNSI_	79	192	1	0	144	3
BXTAP	80	0	5
BXSTR	80	48	1
NMSI_	80	48	1	96	48	7
BXSTR	80	48	4
NMSI_	80	48	4	96	48	6
CNSI_	80	192	6	0	96	2
CNSI_	80	192	7	0	96	3
EXHLD	81	0	4	192
EXHLD	81	0	5	192
NMTAP	81	240	5
NMTAP	81	264	4
BRTAP	81	288	3
BRTAP	81	288	6
NMHLD	82	0	1	72
NMHLD	82	72	2	72
NMTAP	82	144	3
NMTAP	82	168	3
NMHLD	82	192	4	72
NMHLD	82	264	5	72
NMTAP	82	336	6
NMTAP	82	360	6
NMTTP	83	0	3	A	0	M1
NMTTP	83	24	2	A	0	M1
NMTTP	83	48	1	A	0	M1
NMTTP	83	72	0	A	0	M1
NMTTP	83	96	4	A	0	M1
NMTTP	83	120	5	A	0	M1
NMTTP	83	144	6	A	0	M1
NMTTP	83	168	7	A	0	M1
NMTAP	83	192	3
NMTAP	83	240	2
NMTAP	83	240	4
BRTAP	83	288	1
BRTAP	83	288	5
NMTAP	84	0	2
NMSTR	84	0	6
NMSCL	84	0	6	96	48	3
NMTAP	84	48	3
NMTAP	84	72	2
NMTAP	84	96	1
NMTAP	84	144	1
NMSTR	84	192	0
NMSI_	84	192	0	96	48	2
NMSTR	84	240	7
NMSI_	84	240	7	96	48	3
NMSTR	85	0	1
NMSCR	85	0	1	96	48	4
NMTAP	85	48	4
NMTAP	85	72	5
NMTAP	85	96	6
NMTAP	85	144	6
NMSTR	85	192	7
NMSI_	85	192	7	96	48	5
NMSTR	85	240	0
NMSI_	85	240	0	96	48	4
EXTAP	86	0	6
NMTAP	86	24	7
NMTAP	86	48	0
NMTAP	86	72	1
NMTAP	86	96	2
NMTAP	86	120	3
NMTAP	86	144	0
NMTAP	86	144	4
NMTAP	86	192	2
NMTAP	86	192	6
NMTAP	86	240	3
NMTAP	86	240	5
NMTAP	86	288	1
NMTAP	86	288	7
EXTAP	87	0	1
EXTAP	87	0	4
NMTAP	87	24	0
NMTAP	87	48	7
NMTAP	87	72	6
NMTAP	87	96	5
NMTAP	87	120	4
NMTAP	87	144	3
NMTAP	87	144	7
NMTAP	87	192	1
NMTAP	87	192	5
NMTAP	87	240	2
NMTAP	87	240	4
NMTAP	87	288	0
NMTAP	87	288	6
NMTAP	88	0	2
NMTAP	88	0	5
NMTAP	88	48	1
NMTAP	88	72	3
NMTAP	88	120	6
NMTAP	88	144	4
NMTAP	88	192	1
NMTAP	88	192	7
NMTAP	88	240	6
NMTAP	88	264	4
NMTAP	88	312	1
NMTAP	88	336	3
NMTAP	89	0	0
NMTAP	89	0	7
NMTAP	89	48	2
NMTAP	89	72	2
NMTAP	89	120	5
NMTAP	89	144	5
NMSTR	89	192	0
NMSI_	89	192	0	96	48	4
NMTAP	89	192	7
NMTAP	89	216	1
NMTAP	89	240	2
NMTAP	89	264	3
BRTAP	89	288	0
NMTAP	89	288	4
NMHLD	90	0	3	48
NMHLD	90	96	2	48
NMHLD	90	96	4	48
NMHLD	90	192	1	48
NMHLD	90	192	5	48
NMHLD	90	288	0	48
NMHLD	90	288	6	48
NMTAP	91	0	1
NMTAP	91	0	7
NMTAP	91	72	3
NMTAP	91	72	4
NMTAP	91	144	0
NMTAP	91	144	6
NMSTR	91	192	1
NMSI_	91	192	1	96	48	4
NMSTR	91	192	7
NMSI_	91	192	7	96	48	4
NMTAP	91	240	1
NMTAP	91	240	7
BRTAP	91	288	1
BRTAP	91	288	7
NMTAP	92	0	2
NMTAP	92	24	3
NMTAP	92	48	2
NMTAP	92	72	3
EXSTR	92	96	1
NMSI_	92	96	1	96	48	5
NMTAP	92	144	4
NMTAP	92	168	5
NMSTR	92	192	6
NMSI_	92	192	6	96	48	3
NMTAP	92	288	3
NMTAP	92	312	2
NMTAP	92	336	1
NMTAP	92	360	0
NMSTR	93	0	7
NMSCR	93	0	7	96	48	2
NMTAP	93	48	4
NMTAP	93	72	5
NMSTR	93	96	6
NMSI_	93	96	6	96	48	1
NMTAP	93	144	6
NMTAP	93	192	3
NMTAP	93	240	3
NMTAP	93	264	4
NMSTR	93	288	5
BRSI_	93	288	5	96	48	1
BRTAP	94	0	6
CNSI_	94	48	1	0	48	3
BRTAP	94	48	7
BRTAP	94	96	6
NMSTR	94	192	6
NMSI_	94	192	6	96	48	1
NMSTR	94	240	2
NMSI_	94	240	2	96	48	5
NMTAP	94	288	6
NMTAP	94	336	2
EXSTR	95	0	0
NMSCL	95	0	0	96	48	5
NMTAP	95	48	3
NMTAP	95	72	2
NMSTR	95	96	1
NMSI_	95	96	1	96	48	3
NMTAP	95	144	1
NMTAP	95	192	4
NMTAP	95	216	5
NMTAP	95	240	6
NMTAP	95	264	7
NMTAP	95	288	0
NMTAP	95	288	4
NMTAP	95	312	3
NMTAP	95	336	2
NMTAP	95	360	1
EXTAP	96	0	0
EXSTR	96	0	5
NMSI_	96	0	5	96	48	7
NMTAP	96	72	4
NMTAP	96	96	4
BRTAP	96	96	5
NMSTR	96	192	2
NMSI_	96	192	2	96	48	0
NMTAP	96	192	6
NMTAP	96	264	3
BRTAP	96	288	2
NMTAP	96	288	3
NMTAP	97	0	1
NMSTR	97	0	5
NMSI_	97	0	5	96	48	7
NMTAP	97	72	4
NMTAP	97	96	4
BRTAP	97	96	5
NMSTR	97	192	2
NMSI_	97	192	2	96	48	0
NMTAP	97	192	6
NMTAP	97	264	3
BRTAP	97	288	2
NMTAP	97	288	3
EXHLD	98	0	5	288
EXHLD	98	0	7	288
BRTAP	99	0	0
NMTAP	99	0	6
BRTAP	99	96	1
NMTAP	99	96	5
BRTAP	99	192	2
NMTAP	99	192	4
NMTTP	99	288	2	B	0	M1
NMTTP	99	288	3	B	0	M1
NMTTP	99	288	3	E	0	M1
NMTTP	99	288	4	B	0	M1
NMTTP	99	288	4	E	1	M1
NMTTP	99	288	5	B	0	M1
NMTTP	99	288	5	E	0	M1
EXSTR	100	0	1
NMSI_	100	0	1	96	48	5
NMTAP	100	48	1
NMSTR	100	96	0
NMSI_	100	96	0	96	48	4
NMTAP	100	144	0
NMSTR	100	192	7
NMSI_	100	192	7	96	48	3
NMTAP	100	240	7
NMSTR	100	288	6
NMSI_	100	288	6	96	48	2
NMTAP	100	336	6
NMSTR	101	0	5
NMSI_	101	0	5	96	48	1
NMTAP	101	48	5
NMSTR	101	96	4
NMSI_	101	96	4	96	48	0
NMTAP	101	144	4
NMSTR	101	192	3
NMSCL	101	192	3	96	48	0
NMTAP	101	240	3
NMTAP	101	288	5
NMSTR	102	0	6
NMSCL	102	0	6	96	96	2
NMTAP	102	72	7
NMTAP	102	96	6
NMTAP	102	144	0
NMTAP	102	192	0
NMTAP	102	240	1
NMTAP	102	288	2
NMTAP	102	288	3
NMSTR	103	0	4
NMSI_	103	0	4	96	48	1
NMTAP	103	0	5
NMSTR	103	48	6
NMSI_	103	48	6	96	48	1
NMTAP	103	192	2
NMTAP	103	216	3
NMTAP	103	240	4
NMTAP	103	264	5
NMTAP	103	288	6
NMTAP	103	312	7
NMTAP	103	336	0
NMTAP	103	360	1
EXTAP	104	0	2
EXSTR	104	0	6
NMSI_	104	0	6	96	48	2
NMTAP	104	48	6
NMSTR	104	96	7
NMSI_	104	96	7	96	48	3
NMTAP	104	144	7
NMSTR	104	192	0
NMSI_	104	192	0	96	48	4
NMTAP	104	240	0
NMSTR	104	288	1
NMSI_	104	288	1	96	48	5
NMTAP	104	336	1
NMSTR	105	0	2
NMSI_	105	0	2	96	48	6
NMTAP	105	48	2
NMSTR	105	96	3
NMSI_	105	96	3	96	48	7
NMTAP	105	144	3
NMTAP	105	192	4
NMTAP	105	240	4
NMTAP	105	288	0
NMTAP	105	312	1
NMTAP	105	336	2
NMTAP	105	360	3
NMTAP	106	0	0
NMHLD	106	0	4	96
NMTAP	106	96	7
NMTAP	106	120	6
NMTAP	106	144	5
NMTAP	106	168	4
NMSTR	106	192	3
NMSV_	106	192	3	96	48	1
NMSV_	106	192	3	96	48	5
NMTAP	106	192	7
EXTAP	107	0	2
EXTAP	107	0	4
NMTAP	107	72	0
NMTAP	107	72	7
NMTAP	107	144	3
NMTAP	107	144	5
NMSTR	107	192	4
NMSI_	107	192	4	96	48	1
NMSTR	107	192	6
NMSI_	107	192	6	96	48	1
NMTAP	107	240	4
NMTAP	107	240	6
EXTAP	108	0	2
NMTAP	108	24	3
NMTAP	108	48	2
NMTAP	108	72	3
BRTAP	108	96	1
NMTAP	108	144	5
NMTAP	108	168	4
NMTAP	108	192	5
NMTAP	108	216	4
BRTAP	108	240	6
NMTAP	108	288	2
NMTAP	108	312	3
NMTAP	108	336	2
NMTAP	108	360	3
BRTAP	109	0	1
NMTAP	109	48	5
NMTAP	109	72	4
NMTAP	109	96	5
NMTAP	109	120	4
BRTAP	109	144	6
NMTAP	109	192	2
NMSTR	109	192	3
NMSI_	109	192	3	96	48	6
NMTAP	109	216	1
NMTAP	109	240	0
NMTAP	109	264	7
NMTAP	109	288	0
NMTAP	109	312	1
NMTAP	109	336	2
EXTAP	110	0	5
NMTAP	110	24	4
NMTAP	110	48	5
NMTAP	110	72	4
BRTAP	110	96	7
NMTAP	110	144	2
NMTAP	110	168	3
NMTAP	110	192	2
NMTAP	110	216	3
BRTAP	110	240	0
NMTAP	110	288	5
NMTAP	110	312	4
NMTAP	110	336	5
NMTAP	110	360	4
BRTAP	111	0	7
NMTAP	111	48	2
NMTAP	111	72	3
NMTAP	111	96	2
NMTAP	111	120	3
BRTAP	111	144	0
NMHLD	111	192	4	144
NMTAP	111	192	5
NMTAP	111	216	6
NMTAP	111	240	7
NMTAP	111	264	0
NMTAP	111	288	7
NMTAP	111	312	6
NMTAP	111	336	5
EXTAP	112	0	2
NMTAP	112	24	2
NMTAP	112	24	3
NMTAP	112	72	5
NMTAP	112	96	4
NMTAP	112	96	5
NMTAP	112	144	2
NMTAP	112	168	2
NMTAP	112	168	3
NMTAP	112	216	5
NMTAP	112	240	4
NMTAP	112	240	5
NMTAP	112	288	1
NMTAP	112	288	6
EXTAP	113	0	2
NMTAP	113	24	1
NMTAP	113	24	3
NMTAP	113	72	5
NMTAP	113	96	4
NMTAP	113	96	6
NMTAP	113	144	2
NMTAP	113	168	1
NMTAP	113	168	3
NMTAP	113	216	5
NMTAP	113	240	4
NMTAP	113	240	6
NMTAP	113	288	0
NMTAP	113	288	7
EXTAP	114	0	2
NMTAP	114	24	1
NMTAP	114	24	3
NMTAP	114	72	6
NMTAP	114	96	5
NMTAP	114	96	7
NMTAP	114	144	1
NMTAP	114	168	0
NMTAP	114	168	2
NMTAP	114	216	5
NMTAP	114	240	4
NMTAP	114	240	6
NMTAP	114	288	0
NMTAP	114	312	1
NMTAP	114	336	2
NMTAP	114	360	3
EXTAP	115	0	0
EXTAP	115	0	4
NMTAP	115	48	6
NMTAP	115	72	5
NMTAP	115	96	2
NMTAP	115	96	4
NMTAP	115	144	1
NMTAP	115	144	3
NMSTR	115	192	0
NMSCR	115	192	0	96	48	4
NMSTR	115	240	4
BRSCR	115	240	4	96	48	0
BRTAP	115	288	0

T_REC_TAP	586
T_REC_BRK	52
T_REC_XTP	52
T_REC_BXX	7
T_REC_HLD	51
T_REC_XHO	5
T_REC_BHO	0
T_REC_BXH	6
T_REC_STR	94
T_REC_BST	1
T_REC_XST	17
T_REC_XBS	4
T_REC_TTP	67
T_REC_THO	1
T_REC_SLD	116
T_REC_BSL	5
T_REC_ALL	1064
T_NUM_TAP	816
T_NUM_BRK	75
T_NUM_HLD	57
T_NUM_SLD	116
T_NUM_ALL	1064
T_JUDGE_TAP	880
T_JUDGE_HLD	174
T_JUDGE_SLD	121
T_JUDGE_ALL	1175
TTM_EACHPAIRS	180
TTM_SCR_TAP	408000
TTM_SCR_BRK	195000
TTM_SCR_HLD	57000
TTM_SCR_SLD	174000
TTM_SCR_ALL	834000
TTM_SCR_S	801750
TTM_SCR_SS	826500
TTM_RAT_ACV	10090

