VERSION	0.00.00	1.04.00
FES_MODE	0
BPM_DEF	203.000	203.000	203.000	203.000
MET_DEF	4	4
RESOLUTION	384
CLK_DEF	384
COMPATIBLE_CODE	MA2

BPM	0	0	203.000
MET	0	0	4	4

BXTAP	1	0	3
BXTAP	1	0	5
BXHLD	1	48	3	288
BXHLD	1	48	5	384
BXTAP	3	0	2
BXTAP	3	0	4
BXHLD	3	48	2	336
BXTAP	3	48	4
BXTAP	4	0	3
NMTAP	4	96	3
NMTAP	4	96	4
NMTAP	4	192	4
NMTAP	4	192	5
NMTAP	4	288	3
NMTAP	4	288	6
NMTAP	5	0	2
EXTAP	5	96	1
EXTAP	5	96	3
NMTAP	5	192	5
EXTAP	5	288	4
EXTAP	5	288	6
NMTAP	6	0	1
EXTAP	6	96	0
EXTAP	6	96	1
NMTAP	6	192	6
EXTAP	6	288	6
EXTAP	6	288	7
BRTAP	7	0	0
NMHLD	7	0	5	288
BRTAP	7	96	1
BRTAP	7	192	2
BRTAP	7	288	3
NMSTR	8	0	4
NMSI_	8	0	4	96	96	1
NMSI_	8	0	4	96	96	7
EXTAP	8	288	1
EXTAP	8	288	7
BRTAP	9	0	1
BRTAP	9	0	7
NMTAP	9	96	6
NMTAP	9	144	6
NMTAP	9	192	4
NMTAP	9	288	3
NMTAP	9	288	5
NMTAP	10	0	0
NMTAP	10	0	1
NMTAP	10	96	2
NMTAP	10	96	4
NMTAP	10	192	6
NMTAP	10	192	7
NMTAP	10	288	4
NMTAP	11	0	3
NMTAP	11	0	5
NMTAP	11	96	1
NMTAP	11	144	1
NMTAP	11	192	3
NMTAP	11	288	2
NMHLD	11	288	4	192
BRTAP	12	0	7
BRTAP	12	96	7
EXTAP	12	192	0
EXTAP	12	240	7
EXTAP	12	288	1
EXTAP	12	288	6
NMTAP	13	0	2
NMTAP	13	48	2
NMTAP	13	96	1
NMTAP	13	96	3
NMTAP	13	192	0
NMTAP	13	192	7
NMTAP	13	288	4
NMTAP	13	288	6
NMHLD	14	0	5	96
NMHLD	14	96	7	96
NMHLD	14	192	0	96
NMTAP	14	288	2
NMTAP	15	0	2
NMTAP	15	48	2
NMTAP	15	96	4
NMTAP	15	144	4
NMTAP	15	192	3
NMTAP	15	240	3
NMSTR	15	288	5
NMSLL	15	288	5	96	192	7
BXTAP	16	288	0
BXTAP	16	288	6
EXTAP	17	0	2
EXTAP	17	0	4
NMTAP	17	96	1
NMTAP	17	144	1
NMTAP	17	192	3
NMTAP	17	288	0
NMTAP	17	288	6
NMTAP	18	0	4
NMTAP	18	0	5
NMTAP	18	96	1
NMTAP	18	96	7
NMTAP	18	192	2
NMTAP	18	192	3
NMTAP	18	288	0
NMTAP	18	288	1
NMTAP	19	0	2
NMTAP	19	0	7
NMTAP	19	96	6
NMTAP	19	144	6
NMTAP	19	192	4
NMHLD	19	288	3	192
NMTAP	19	288	5
BRTAP	20	0	0
BRTAP	20	96	0
EXTAP	20	192	7
EXTAP	20	240	0
EXTAP	20	288	1
EXTAP	20	288	6
NMTAP	21	0	5
NMTAP	21	48	5
NMTAP	21	96	4
NMTAP	21	192	3
NMTAP	21	192	6
NMTAP	21	288	0
NMTAP	21	288	1
NMHLD	22	0	2	96
NMHLD	22	96	3	96
NMHLD	22	192	4	96
NMTAP	22	288	5
NMTAP	23	0	5
NMTAP	23	48	5
NMTAP	23	96	3
NMTAP	23	144	3
NMTAP	23	192	4
NMTAP	23	240	4
NMTAP	23	288	2
NMTAP	23	336	2
EXTAP	24	0	7
EXSTR	24	96	7
NMSF_	24	96	7	96	96	3
BXHLD	25	0	1	144
BXHLD	25	0	5	144
EXTAP	25	192	1
EXTAP	25	192	5
EXTAP	25	288	0
NMSTR	26	0	1
NMSCR	26	0	1	96	144	4
NMHLD	26	0	7	192
NMHLD	27	0	3	192
NMSTR	27	0	5
NMSCR	27	0	5	96	144	0
NMSTR	28	0	2
NMSCL	28	0	2	96	144	7
NMHLD	28	0	4	192
NMTTP	29	0	7	E	0	M1
NMTTP	29	96	0	C	0	M1
NMTTP	29	192	3	E	0	M1
NMTTP	29	288	2	E	0	M1
NMTTP	29	288	4	E	0	M1
EXHLD	30	0	1	192
NMTAP	30	192	0
NMHLD	30	288	2	192
NMTAP	30	288	7
NMTAP	31	96	3
NMTAP	31	192	3
NMTAP	31	192	4
NMTAP	31	288	4
NMTAP	31	288	5
EXHLD	32	0	6	192
NMTAP	32	192	7
NMTAP	32	288	0
NMHLD	32	288	5	192
NMTAP	33	96	4
NMTAP	33	192	3
NMTAP	33	192	4
NMSTR	33	288	2
NMSCL	33	288	2	96	144	7
NMSTR	33	288	3
NMSCR	33	288	3	96	144	6
EXTAP	34	288	6
EXTAP	34	288	7
NMTAP	35	0	5
NMTAP	35	48	5
NMTAP	35	96	4
NMTAP	35	144	6
NMTAP	35	192	0
NMTAP	35	240	0
NMHLD	35	288	7	96
NMHLD	36	0	5	96
NMHLD	36	96	3	96
NMTAP	36	192	2
NMTAP	36	288	0
NMTAP	36	288	6
NMSTR	37	0	1
NMSI_	37	0	1	96	48	3
NMSTR	37	0	5
NMSI_	37	0	5	96	48	3
EXTAP	37	192	1
EXTAP	37	192	5
NMTAP	37	288	1
NMTAP	37	288	5
NMTAP	38	0	7
NMTAP	38	48	7
NMTAP	38	96	0
NMTAP	38	96	6
NMTAP	38	192	1
NMTAP	38	192	4
NMTAP	38	288	3
NMTAP	38	288	6
EXTAP	39	0	5
EXTAP	39	24	4
EXTAP	39	48	5
EXTAP	39	72	4
EXTAP	39	96	5
NMTAP	39	192	3
NMTAP	39	192	6
NMTAP	39	288	1
NMTAP	39	288	4
BXTAP	40	0	0
BXTAP	40	0	6
BXTAP	40	48	0
BXTAP	40	48	6
BXTAP	40	144	2
BXTAP	40	144	4
BXTAP	40	192	2
BXTAP	40	192	4
EXTAP	40	288	0
EXTAP	40	312	7
EXTAP	40	336	0
EXTAP	40	360	7
EXHLD	41	0	0	192
NMTHO	41	192	0	192	C	1	M1
NMSTR	42	0	0
NMSLR	42	0	0	96	192	4
CNSI_	42	288	4	0	288	6
NMSTR	44	0	6
NMSLL	44	0	6	96	192	2
NMTAP	44	0	7
CNSI_	44	288	2	0	288	0
NMHLD	46	0	1	144
NMHLD	46	0	3	144
EXTAP	46	192	1
EXTAP	46	192	3
NMTAP	46	288	3
NMTAP	46	288	4
NMHLD	47	0	4	144
NMHLD	47	0	6	144
EXTAP	47	192	4
EXTAP	47	192	6
NMTAP	47	288	3
NMTAP	47	288	4
EXTAP	48	0	2
EXTAP	48	32	3
EXTAP	48	64	2
EXTAP	48	96	3
EXTAP	48	192	5
EXTAP	48	224	4
EXTAP	48	256	5
EXTAP	48	288	4
BRHLD	49	0	0	192
BRTAP	49	0	6
NMTAP	49	192	7
BRSTR	49	288	3
NMSCL	49	288	3	96	144	0
BRSTR	49	288	4
NMSCR	49	288	4	96	144	7
NMSTR	50	288	2
NMSI_	50	288	2	96	48	7
NMTAP	50	288	5
NMSTR	51	0	6
NMSI_	51	0	6	96	48	3
NMTAP	51	96	0
NMTAP	51	192	2
NMTAP	51	240	2
NMSTR	51	288	1
NMSI_	51	288	1	96	48	4
NMTAP	51	288	3
NMSTR	52	0	5
NMSI_	52	0	5	96	48	0
NMTAP	52	96	3
NMTAP	52	192	1
NMTAP	52	240	1
NMTAP	52	288	0
NMHLD	52	336	2	96
NMSTR	53	48	3
NMSI_	53	48	3	96	48	6
NMSI_	53	48	3	96	48	7
EXTAP	53	288	0
EXTAP	53	288	1
BRTAP	54	0	2
BRTAP	54	0	3
BRTAP	54	48	1
BRTAP	54	48	4
BRSTR	54	96	0
NMSI_	54	96	0	96	48	4
BRSTR	54	96	5
NMSI_	54	96	5	96	48	0
EXTAP	54	288	3
EXTAP	54	288	7
NMTAP	55	0	4
NMTAP	55	0	5
NMTAP	55	96	0
NMTAP	55	96	6
NMTAP	55	144	1
NMTAP	55	144	5
BRTAP	55	192	2
BRTAP	55	192	4
EXTAP	55	288	3
EXTAP	55	288	7
NMTAP	56	0	1
NMTAP	56	24	0
NMTAP	56	48	1
NMTAP	56	72	0
NMTAP	56	96	1
NMTAP	56	120	0
NMTAP	56	144	1
NMTAP	56	168	0
NMTAP	56	192	1
NMTAP	56	288	0
NMTAP	56	288	5
NMTAP	57	0	6
NMTAP	57	24	7
NMTAP	57	48	6
NMTAP	57	72	7
NMTAP	57	96	6
NMTAP	57	120	7
NMTAP	57	144	6
NMTAP	57	168	7
NMTAP	57	192	6
NMTAP	57	288	2
NMTAP	57	288	5
NMHLD	58	0	1	96
NMHLD	58	96	3	96
NMHLD	58	192	4	96
NMSTR	58	288	6
NMSCL	58	288	6	96	192	1
NMTAP	59	288	2
NMSTR	59	288	5
NMSI_	59	288	5	96	48	0
NMSTR	60	0	1
NMSI_	60	0	1	96	48	4
NMTAP	60	96	7
NMTAP	60	192	5
NMTAP	60	240	5
NMTAP	60	288	4
NMSTR	60	336	6
BRSI_	60	336	6	96	48	2
NMSTR	61	48	0
BRSF_	61	48	0	96	48	4
BRTAP	61	288	2
BRTAP	61	288	6
NMHLD	62	0	1	72
NMTAP	62	0	3
NMHLD	62	72	2	72
NMTAP	62	144	3
NMTAP	62	192	3
NMTAP	62	288	0
NMTAP	62	288	7
NMHLD	63	0	6	72
NMHLD	63	72	5	72
NMTAP	63	144	4
NMTAP	63	192	4
NMTAP	63	288	0
NMTAP	63	288	7
NMTAP	64	0	0
NMTAP	64	24	7
NMTAP	64	48	0
NMTAP	64	72	7
NMTAP	64	96	0
NMTAP	64	120	7
NMTAP	64	144	0
NMTAP	64	168	7
NMTAP	64	192	0
NMTAP	64	216	7
NMTAP	64	240	0
NMTAP	64	264	7
NMTAP	64	288	0
NMTAP	64	312	7
NMTAP	64	336	0
NMTAP	64	360	7
BXHLD	65	0	0	192
NMSTR	65	192	6
NMSI_	65	192	6	96	48	2
NMSTR	65	288	0
BRSCR	65	288	0	96	768	7
NMHLD	70	0	6	768
NMTTP	70	192	7	E	0	M1
NMTTP	71	0	6	E	0	M1
NMTTP	71	192	5	E	0	M1
NMHLD	72	0	1	768
NMTTP	72	192	1	E	0	M1
NMTTP	73	0	2	E	0	M1
NMTTP	73	192	3	E	0	M1
NMTAP	74	0	4
NMTAP	74	96	4
NMTAP	74	192	5
NMTAP	74	288	4
NMTAP	75	0	2
NMTAP	75	96	2
NMTAP	75	192	1
NMTAP	75	288	2
NMTAP	76	0	3
NMTAP	76	0	5
NMTAP	76	96	3
NMTAP	76	96	5
NMTAP	76	192	2
NMTAP	76	192	4
NMTAP	76	288	2
NMTAP	76	288	4
NMHLD	77	0	2	96
NMHLD	77	96	3	96
NMHLD	77	192	4	96
NMTAP	77	288	5
EXTAP	78	0	3
EXTAP	78	0	6
EXHLD	78	48	3	240
EXHLD	78	48	6	240
EXTAP	79	0	1
EXTAP	79	0	4
EXHLD	79	48	1	240
EXHLD	79	48	4	240
EXTAP	80	0	2
EXTAP	80	0	5
EXHLD	80	48	2	240
EXHLD	80	48	5	240
NMTHO	81	0	0	192	C	0	M1
NMTTP	81	0	1	B	0	M1
NMTTP	81	0	2	B	0	M1
NMTTP	81	0	5	B	0	M1
NMTTP	81	0	6	B	0	M1
BXTAP	81	288	0
BXTAP	81	288	7
NMHLD	82	0	1	72
NMHLD	82	72	3	72
NMTAP	82	144	2
NMHLD	82	192	6	72
NMHLD	82	264	4	72
NMTAP	82	336	5
NMTAP	83	0	3
NMTAP	83	48	3
NMTAP	83	96	4
NMTAP	83	144	2
NMTAP	83	192	7
NMTAP	83	240	6
BRTAP	83	288	3
BRSTR	83	288	5
NMSI_	83	288	5	96	48	0
NMSTR	84	0	1
NMSI_	84	0	1	96	48	4
NMSTR	84	96	6
NMSI_	84	96	6	96	48	3
NMSTR	84	192	2
NMSI_	84	192	2	96	48	7
NMSTR	84	288	5
NMSI_	84	288	5	96	48	0
NMSTR	85	0	1
NMSI_	85	0	1	96	48	4
NMSTR	85	96	6
NMSI_	85	96	6	96	48	3
NMSTR	85	192	2
NMSI_	85	192	2	96	48	7
NMTAP	85	288	4
NMTAP	86	0	4
NMTAP	86	0	5
NMTAP	86	48	3
NMTAP	86	48	6
NMSTR	86	96	2
NMSI_	86	96	2	96	48	7
NMSTR	86	96	7
NMSI_	86	96	7	96	48	3
NMTAP	86	288	0
NMTAP	86	288	4
NMTAP	87	0	0
NMTAP	87	0	1
NMTAP	87	48	2
NMTAP	87	48	7
NMSTR	87	96	3
NMSI_	87	96	3	96	48	7
NMSTR	87	96	6
NMSI_	87	96	6	96	48	3
NMTAP	87	288	0
NMTAP	87	288	4
NMTAP	88	0	1
NMTAP	88	48	1
NMTAP	88	96	3
NMTAP	88	144	3
NMTAP	88	192	5
NMTAP	88	240	5
NMTAP	88	288	7
NMTAP	88	336	7
EXHLD	89	0	4	48
EXHLD	89	0	6	48
EXHLD	89	72	3	48
EXHLD	89	72	5	48
EXTAP	89	144	2
EXTAP	89	144	4
EXTAP	89	192	2
EXTAP	89	192	4
BRTAP	89	288	0
BRTAP	89	288	6
NMSTR	90	0	7
NMSCL	90	0	7	96	96	4
NMSTR	90	192	3
NMSCL	90	192	3	96	96	0
NMSTR	91	0	7
NMSF_	91	0	7	96	96	3
EXTAP	91	288	1
EXTAP	91	288	5
EXTAP	92	0	6
EXTAP	92	24	7
EXTAP	92	48	6
EXTAP	92	72	7
EXSTR	92	96	6
BRSI_	92	96	6	96	48	3
NMSTR	92	192	1
NMSI_	92	192	1	96	48	5
NMSTR	92	288	7
NMSI_	92	288	7	96	48	2
NMSTR	93	0	3
NMSI_	93	0	3	96	48	7
NMSTR	93	96	6
NMSI_	93	96	6	96	48	2
NMTAP	93	192	1
NMTAP	93	240	1
EXTAP	93	288	0
EXTAP	93	288	1
NMTAP	94	0	4
NMTAP	94	0	5
NMTAP	94	48	3
NMTAP	94	48	6
NMTAP	94	96	2
NMSTR	94	96	7
NMSI_	94	96	7	96	48	2
NMSTR	94	192	3
NMSI_	94	192	3	96	48	7
NMSTR	94	288	6
NMSI_	94	288	6	96	48	3
NMSTR	95	0	2
NMSI_	95	0	2	96	48	6
NMTAP	95	96	5
EXTAP	95	192	1
EXTAP	95	192	7
EXTAP	95	240	1
EXTAP	95	240	7
BXTAP	95	288	2
BXTAP	95	288	6
NMHLD	96	0	1	96
NMTAP	96	0	3
BRTAP	96	96	7
NMTAP	96	192	4
NMHLD	96	192	6	96
BRSTR	96	288	0
BRSCR	96	288	0	96	96	3
BRSTR	97	96	5
BRSCR	97	96	5	96	96	0
NMHLD	97	288	1	384
BRHLD	98	0	7	576
BRTAP	99	0	0
BRTAP	99	96	1
BRTAP	99	192	2
BRTAP	99	288	0
BRTAP	99	288	6
NMHLD	100	0	1	48
NMHLD	100	0	4	48
NMHLD	100	96	3	48
NMHLD	100	96	5	48
NMHLD	100	192	0	48
NMHLD	100	192	1	48
NMHLD	100	288	6	48
NMHLD	100	288	7	48
NMHLD	101	0	1	48
NMHLD	101	0	3	48
NMHLD	101	96	4	48
NMHLD	101	96	6	48
NMHLD	101	192	2	48
NMHLD	101	192	3	48
BRSTR	101	288	0
BRSI_	101	288	0	96	48	4
BRSTR	101	288	5
BRSI_	101	288	5	96	48	0
BRSTR	102	96	3
BRSI_	102	96	3	96	48	7
BRSTR	102	96	6
BRSI_	102	96	6	96	48	3
BRTAP	102	288	0
BRTAP	102	288	4
EXTAP	103	0	6
EXTAP	103	0	7
EXTAP	103	96	4
EXTAP	103	96	5
NMTAP	103	192	2
NMTAP	103	216	3
NMTAP	103	240	2
NMTAP	103	264	3
NMTAP	103	288	2
NMTAP	103	312	3
NMTAP	103	336	2
NMTAP	103	360	3
BRHLD	104	0	2	96
NMHLD	104	96	0	96
NMHLD	104	192	6	96
NMHLD	104	288	4	96
NMHLD	105	0	6	96
NMHLD	105	96	0	96
NMHLD	105	192	2	96
NMHLD	105	288	4	96
NMTAP	106	0	2
NMTAP	106	48	2
NMTAP	106	96	0
NMTAP	106	144	0
NMTAP	106	192	6
NMTAP	106	240	6
NMTAP	106	288	4
NMTAP	106	336	4
NMHLD	107	0	2	72
NMTAP	107	0	3
NMHLD	107	72	1	72
NMTAP	107	144	0
NMTAP	107	192	2
NMTAP	107	192	7
NMTAP	107	240	3
NMTAP	107	240	6
BRTAP	107	288	4
BRTAP	107	288	5
NMSTR	108	0	6
NMSI_	108	0	6	96	48	3
NMTAP	108	48	6
NMSTR	108	96	0
NMSI_	108	96	0	96	48	4
NMTAP	108	144	0
NMSTR	108	192	7
NMSI_	108	192	7	96	48	3
NMTAP	108	240	7
NMSTR	108	288	1
NMSI_	108	288	1	96	48	4
NMTAP	108	336	1
NMSTR	109	0	5
NMSI_	109	0	5	96	48	0
NMTAP	109	48	5
NMSTR	109	96	2
NMSI_	109	96	2	96	48	7
NMTAP	109	144	2
NMTAP	109	192	6
NMTAP	109	240	6
BRTAP	109	288	0
BRTAP	109	288	5
NMSTR	110	0	1
NMSI_	110	0	1	96	48	4
NMTAP	110	48	1
NMSTR	110	96	7
NMSI_	110	96	7	96	48	3
NMTAP	110	144	7
NMSTR	110	192	0
NMSI_	110	192	0	96	48	4
NMTAP	110	240	0
NMSTR	110	288	6
BRSI_	110	288	6	96	48	2
NMTAP	110	336	6
BXHLD	111	0	1	192
NMTAP	111	192	7
NMTAP	111	288	3
NMTAP	111	288	5
NMTAP	112	0	6
NMTAP	112	24	4
NMTAP	112	72	4
NMTAP	112	96	5
NMTAP	112	144	5
NMTAP	112	168	2
NMTAP	112	216	2
NMTAP	112	240	3
NMTAP	112	288	1
NMTAP	112	288	5
NMTAP	113	0	6
NMTAP	113	24	4
NMTAP	113	72	4
NMTAP	113	96	5
NMTAP	113	144	5
NMTAP	113	168	2
NMTAP	113	216	2
NMTAP	113	240	3
NMTAP	113	288	1
NMTAP	113	288	5
NMTAP	114	0	6
NMTAP	114	24	4
NMTAP	114	72	4
NMTAP	114	96	3
NMTAP	114	144	3
NMTAP	114	168	1
NMTAP	114	216	1
NMTAP	114	240	0
NMTAP	114	288	0
NMTAP	114	288	1
NMTAP	114	336	2
NMTAP	114	336	7
NMSTR	115	0	3
NMSI_	115	0	3	96	48	7
NMTAP	115	0	6
NMSTR	115	96	5
NMSI_	115	96	5	96	48	1
NMSTR	115	192	0
BRSF_	115	192	0	96	48	4

T_REC_TAP	312
T_REC_BRK	34
T_REC_XTP	81
T_REC_BXX	20
T_REC_HLD	64
T_REC_XHO	13
T_REC_BHO	3
T_REC_BXH	7
T_REC_STR	58
T_REC_BST	11
T_REC_XST	2
T_REC_XBS	0
T_REC_TTP	15
T_REC_THO	2
T_REC_SLD	61
T_REC_BSL	12
T_REC_ALL	695
T_NUM_TAP	468
T_NUM_BRK	87
T_NUM_HLD	79
T_NUM_SLD	61
T_NUM_ALL	695
T_JUDGE_TAP	533
T_JUDGE_HLD	277
T_JUDGE_SLD	73
T_JUDGE_ALL	883
TTM_EACHPAIRS	148
TTM_SCR_TAP	234000
TTM_SCR_BRK	226200
TTM_SCR_HLD	79000
TTM_SCR_SLD	91500
TTM_SCR_ALL	630700
TTM_SCR_S	603350
TTM_SCR_SS	622000
TTM_RAT_ACV	10139

