VERSION	0.00.00	1.04.00
FES_MODE	0
BPM_DEF	203.000	203.000	203.000	203.000
MET_DEF	4	4
RESOLUTION	384
CLK_DEF	384
COMPATIBLE_CODE	MA2

BPM	0	0	203.000
MET	0	0	4	4

EXTAP	5	96	2
EXTAP	5	96	3
EXTAP	5	288	2
EXTAP	5	288	3
EXTAP	6	96	4
EXTAP	6	96	5
EXTAP	6	288	4
EXTAP	6	288	5
NMTAP	7	0	3
NMTAP	7	96	3
NMTAP	7	192	4
NMTAP	7	288	4
BRTAP	8	0	3
BRTAP	8	0	4
NMTAP	9	0	1
NMTAP	9	96	1
NMTAP	9	192	1
NMTAP	10	0	2
NMTAP	10	96	2
NMTAP	10	192	2
NMTAP	11	0	3
NMTAP	11	96	3
NMTAP	11	192	3
EXTAP	12	0	4
EXTAP	12	0	5
EXTAP	12	96	4
EXTAP	12	96	5
EXTAP	12	192	4
EXTAP	12	192	5
NMTAP	13	0	6
NMTAP	13	96	6
NMTAP	13	192	6
NMTAP	14	0	5
NMTAP	14	96	5
NMTAP	14	192	5
NMTAP	15	0	4
NMTAP	15	96	4
NMTAP	15	192	4
NMTAP	16	0	2
NMTAP	16	0	3
NMTAP	16	96	2
NMTAP	16	96	3
NMTAP	16	192	2
NMTAP	16	192	3
NMTAP	17	0	2
NMTAP	17	96	2
NMTAP	17	192	2
NMTAP	17	192	3
NMTAP	18	0	1
NMTAP	18	96	1
NMTAP	18	192	0
NMTAP	18	192	1
NMTAP	19	0	7
NMTAP	19	96	7
NMTAP	19	192	6
NMTAP	19	192	7
EXTAP	20	0	4
EXTAP	20	0	5
EXTAP	20	96	4
EXTAP	20	96	5
EXTAP	20	192	4
EXTAP	20	192	5
NMTAP	21	0	5
NMTAP	21	96	5
NMTAP	21	192	4
NMTAP	21	192	5
NMTAP	22	0	6
NMTAP	22	96	6
NMTAP	22	192	6
NMTAP	22	192	7
NMTAP	23	0	0
NMTAP	23	96	0
NMTAP	23	192	0
NMTAP	23	192	1
NMTAP	24	0	2
NMTAP	24	0	3
NMTAP	24	96	2
NMTAP	24	96	3
NMTAP	24	192	2
NMTAP	24	192	3
NMHLD	25	0	3	192
NMHLD	25	0	4	192
NMHLD	26	0	2	192
NMHLD	26	192	3	192
NMHLD	27	0	4	192
NMTAP	27	192	5
NMHLD	28	0	5	192
NMHLD	28	192	4	192
NMHLD	29	0	3	192
NMTAP	29	192	2
NMHLD	30	0	1	192
NMHLD	30	192	2	192
NMHLD	31	0	3	192
NMTAP	31	192	4
NMHLD	32	0	6	192
NMHLD	32	192	5	192
NMHLD	33	0	4	192
NMTAP	33	192	3
NMHLD	34	0	3	192
NMHLD	34	0	4	192
NMTAP	35	0	2
NMTAP	35	96	3
NMTAP	35	192	4
NMTAP	35	192	5
NMTAP	36	0	6
NMTAP	36	96	7
NMTAP	36	192	0
NMTAP	36	192	1
NMTAP	37	0	2
NMTAP	37	96	3
NMTAP	37	192	4
NMTAP	37	192	5
NMTAP	38	0	5
NMTAP	38	96	4
NMTAP	38	192	2
NMTAP	38	192	3
NMTAP	39	0	1
NMTAP	39	96	0
NMTAP	39	192	6
NMTAP	39	192	7
NMTAP	40	0	5
NMTAP	40	96	4
NMTAP	40	192	2
NMTAP	40	192	3
NMTAP	41	0	3
NMTAP	41	0	4
NMTAP	41	96	3
NMTAP	41	96	4
NMTAP	41	192	2
NMTAP	41	192	5
NMSTR	42	0	1
NMSCR	42	0	1	96	288	4
NMSTR	44	0	5
NMSCR	44	0	5	96	288	0
NMSTR	46	0	1
NMSI_	46	0	1	96	288	5
NMTAP	48	0	6
NMTAP	48	96	6
NMTAP	48	192	5
NMTAP	48	288	5
BRTAP	49	0	3
BRTAP	49	0	4
NMTAP	50	0	5
NMTAP	50	96	5
NMTAP	50	192	6
NMTAP	50	288	6
NMTAP	51	0	7
NMTAP	51	96	7
NMTAP	51	192	0
NMTAP	51	192	1
NMTAP	52	0	2
NMTAP	52	96	2
NMTAP	52	192	1
NMTAP	52	288	1
NMTAP	53	0	0
NMTAP	53	96	0
NMTAP	53	192	6
NMTAP	53	192	7
NMTAP	54	0	6
NMTAP	54	96	6
NMTAP	54	192	5
NMTAP	54	288	5
NMTAP	55	0	4
NMTAP	55	96	4
NMTAP	55	192	2
NMTAP	55	192	3
NMTAP	56	0	1
NMTAP	56	96	1
NMTAP	56	192	2
NMTAP	56	288	2
NMTAP	57	0	3
NMTAP	57	96	3
NMTAP	57	192	4
NMTAP	57	192	5
NMTAP	58	0	6
NMTAP	58	96	6
NMTAP	58	192	6
NMTAP	58	288	6
NMTAP	58	288	7
NMTAP	59	0	5
NMTAP	59	96	5
NMTAP	59	192	5
NMTAP	59	288	4
NMTAP	59	288	5
NMTAP	60	0	3
NMTAP	60	96	3
NMTAP	60	192	2
NMTAP	60	192	3
NMTAP	60	288	2
NMTAP	60	288	3
NMTAP	61	0	0
NMTAP	61	0	1
NMTAP	61	96	0
NMTAP	61	96	1
NMTAP	61	192	0
NMTAP	61	192	1
NMTAP	62	0	1
NMTAP	62	96	1
NMTAP	62	192	1
NMTAP	62	288	0
NMTAP	62	288	1
NMTAP	63	0	2
NMTAP	63	96	2
NMTAP	63	192	2
NMTAP	63	288	2
NMTAP	63	288	3
NMTAP	64	0	4
NMTAP	64	96	4
NMTAP	64	192	4
NMTAP	64	192	5
NMTAP	64	288	4
NMTAP	64	288	5
NMTAP	65	0	6
NMTAP	65	0	7
NMTAP	65	96	6
NMTAP	65	96	7
NMTAP	65	192	6
NMTAP	65	192	7
NMSTR	66	0	6
NMSCL	66	0	6	96	288	3
NMSTR	68	0	2
NMSCL	68	0	2	96	288	7
NMSTR	70	0	6
NMSI_	70	0	6	96	288	2
NMTAP	72	0	1
NMTAP	72	192	1
NMTAP	73	0	0
NMTAP	73	0	7
NMTTP	74	0	1	B	0	L1
NMTTP	74	192	2	B	0	L1
NMTTP	75	0	3	B	0	L1
NMTTP	75	192	4	B	0	L1
NMTTP	76	0	5	B	0	L1
NMTTP	76	192	6	B	0	L1
NMTTP	77	0	0	B	0	L1
NMTTP	77	0	7	B	0	L1
NMTTP	78	0	2	B	0	L1
NMTTP	78	192	1	B	0	L1
NMTTP	79	0	0	B	0	L1
NMTTP	79	192	7	B	0	L1
NMTTP	80	0	6	B	0	L1
NMTTP	80	192	5	B	0	L1
NMTTP	81	0	3	B	0	L1
NMTTP	81	0	4	B	0	L1
NMTAP	82	0	2
NMTAP	82	96	2
NMTAP	82	192	0
NMTAP	82	192	1
NMTAP	82	288	0
NMTAP	82	288	1
NMTAP	83	0	7
NMTAP	83	96	6
NMTAP	83	192	4
NMTAP	83	192	5
NMTAP	84	0	5
NMTAP	84	96	5
NMTAP	84	192	6
NMTAP	84	192	7
NMTAP	84	288	6
NMTAP	84	288	7
NMTAP	85	0	0
NMTAP	85	96	1
NMTAP	85	192	2
NMTAP	85	192	3
NMTAP	86	0	1
NMTAP	86	96	1
NMTAP	86	192	2
NMTAP	86	192	3
NMTAP	86	288	2
NMTAP	86	288	3
NMTAP	87	0	4
NMTAP	87	96	5
NMTAP	87	192	6
NMTAP	87	192	7
NMTAP	88	0	6
NMTAP	88	96	6
NMTAP	88	192	4
NMTAP	88	192	5
NMTAP	88	288	4
NMTAP	88	288	5
NMTAP	89	0	3
NMTAP	89	96	2
NMTAP	89	192	0
NMTAP	89	192	1
NMTAP	90	0	1
NMTAP	90	96	1
NMTAP	90	192	0
NMTAP	90	192	1
NMTAP	90	288	0
NMTAP	90	288	1
NMTAP	91	0	2
NMTAP	91	96	2
NMTAP	91	192	3
NMTAP	91	192	4
NMTAP	91	288	3
NMTAP	91	288	4
NMTAP	92	0	5
NMTAP	92	96	5
NMTAP	92	192	4
NMTAP	92	192	5
NMTAP	92	288	4
NMTAP	92	288	5
NMTAP	93	0	6
NMTAP	93	0	7
NMTAP	93	96	6
NMTAP	93	96	7
NMTAP	93	192	0
NMTAP	93	192	5
NMTAP	94	0	6
NMTAP	94	96	6
NMTAP	94	192	6
NMTAP	94	192	7
NMTAP	94	288	6
NMTAP	94	288	7
NMTAP	95	0	5
NMTAP	95	96	5
NMTAP	95	192	3
NMTAP	95	192	4
NMTAP	95	288	3
NMTAP	95	288	4
NMTAP	96	0	2
NMTAP	96	96	2
NMTAP	96	192	2
NMTAP	96	192	3
NMTAP	96	288	2
NMTAP	96	288	3
NMTAP	97	0	0
NMTAP	97	0	1
NMTAP	97	96	0
NMTAP	97	96	1
NMTAP	97	192	2
NMTAP	97	192	7
NMTAP	98	0	0
NMTAP	98	96	0
NMTAP	98	192	7
NMTAP	98	288	7
EXTAP	99	0	0
EXTAP	99	0	7
EXTAP	99	96	0
EXTAP	99	96	7
BRTAP	99	192	0
BRTAP	99	192	7
NMTAP	100	0	0
NMTAP	100	96	1
NMTAP	100	192	2
NMTAP	100	288	3
NMTAP	101	0	4
NMTAP	101	96	5
NMTAP	101	192	6
NMTAP	101	288	7
NMTAP	102	0	0
NMTAP	102	96	1
NMTAP	102	192	2
NMTAP	102	288	3
NMTAP	103	0	4
NMTAP	103	96	5
NMTAP	103	192	6
NMTAP	103	192	7
NMTAP	104	0	7
NMTAP	104	96	6
NMTAP	104	192	5
NMTAP	104	288	4
NMTAP	105	0	3
NMTAP	105	96	2
NMTAP	105	192	1
NMTAP	105	288	0
NMTAP	106	0	7
NMTAP	106	96	6
NMTAP	106	192	5
NMTAP	106	288	4
NMTAP	107	0	3
NMTAP	107	96	2
NMTAP	107	192	0
NMTAP	107	192	1
NMTAP	108	0	1
NMTAP	108	48	1
NMTAP	108	96	1
NMTAP	108	192	2
NMTAP	108	240	2
NMTAP	108	288	2
NMTAP	109	0	3
NMTAP	109	48	3
NMTAP	109	96	3
NMTAP	109	192	4
NMTAP	109	192	5
NMTAP	110	0	6
NMTAP	110	48	6
NMTAP	110	96	6
NMTAP	110	192	5
NMTAP	110	240	5
NMTAP	110	288	5
NMTAP	111	0	4
NMTAP	111	48	4
NMTAP	111	96	4
NMTAP	111	192	2
NMTAP	111	192	3
NMTAP	112	0	1
NMTAP	112	48	1
NMTAP	112	96	1
NMTAP	112	192	2
NMTAP	112	240	2
NMTAP	112	288	2
NMTAP	113	0	3
NMTAP	113	48	3
NMTAP	113	96	3
NMTAP	113	192	4
NMTAP	113	240	4
NMTAP	113	288	4
NMTAP	114	0	5
NMTAP	114	48	5
NMTAP	114	96	5
NMTAP	114	192	6
NMTAP	114	240	6
NMTAP	114	288	6
NMSTR	115	0	0
NMSI_	115	0	0	96	288	3
NMSTR	115	0	7
NMSI_	115	0	7	96	288	4

T_REC_TAP	340
T_REC_BRK	6
T_REC_XTP	24
T_REC_BXX	0
T_REC_HLD	16
T_REC_XHO	0
T_REC_BHO	0
T_REC_BXH	0
T_REC_STR	8
T_REC_BST	0
T_REC_XST	0
T_REC_XBS	0
T_REC_TTP	16
T_REC_THO	0
T_REC_SLD	8
T_REC_BSL	0
T_REC_ALL	418
T_NUM_TAP	388
T_NUM_BRK	6
T_NUM_HLD	16
T_NUM_SLD	8
T_NUM_ALL	418
T_JUDGE_TAP	394
T_JUDGE_HLD	64
T_JUDGE_SLD	8
T_JUDGE_ALL	466
TTM_EACHPAIRS	92
TTM_SCR_TAP	194000
TTM_SCR_BRK	15600
TTM_SCR_HLD	16000
TTM_SCR_SLD	12000
TTM_SCR_ALL	237600
TTM_SCR_S	229900
TTM_SCR_SS	237000
TTM_RAT_ACV	10025

