VERSION	0.00.00	1.04.00
FES_MODE	0
BPM_DEF	160.000	160.000	160.000	160.000
MET_DEF	4	4
RESOLUTION	384
CLK_DEF	384
COMPATIBLE_CODE	MA2

BPM	0	0	160.000
MET	0	0	4	4

NMTAP	1	0	2
NMTAP	1	0	5
NMTAP	1	72	3
NMTAP	1	72	4
NMTAP	1	144	3
NMTAP	1	144	4
NMTTP	1	192	4	E	0	M1
NMTTP	1	204	3	E	0	M1
NMTTP	1	216	2	E	0	M1
NMTTP	1	228	1	E	0	M1
NMTTP	1	240	0	E	0	M1
NMTTP	1	252	7	E	0	M1
NMTTP	1	264	6	E	0	M1
NMTTP	1	276	5	E	0	M1
NMTTP	1	288	4	E	0	M1
NMSTR	2	0	1
NMSI_	2	0	1	96	72	3
NMHLD	2	0	7	288
CNSV_	2	168	3	0	120	5
NMHLD	3	0	0	288
NMSTR	3	0	6
NMSI_	3	0	6	96	72	4
CNSV_	3	168	4	0	120	2
NMSTR	4	0	1
NMSI_	4	0	1	96	72	5
NMHLD	4	0	7	288
CNSI_	4	168	5	0	72	2
CNSI_	4	240	2	0	48	4
NMHLD	5	0	0	288
NMSTR	5	0	6
NMSI_	5	0	6	96	72	2
CNSI_	5	168	2	0	72	5
CNSI_	5	240	5	0	48	3
NMTAP	6	0	1
NMTAP	6	48	1
NMHLD	6	96	2	288
NMSTR	6	96	7
NMSI_	6	96	7	96	48	3
CNSI_	6	240	3	0	48	5
NMTAP	7	0	6
NMTAP	7	48	6
NMSTR	7	96	0
NMSI_	7	96	0	96	48	4
NMHLD	7	96	5	288
CNSI_	7	240	4	0	48	2
NMTAP	8	0	1
NMTAP	8	48	1
NMTAP	8	96	2
NMSTR	8	96	7
NMSI_	8	96	7	96	48	3
NMTAP	8	288	1
NMTAP	8	288	4
NMTAP	9	0	2
NMTAP	9	0	5
NMTAP	9	96	3
NMTAP	9	96	6
NMTAP	9	192	4
NMTAP	9	192	5
NMTAP	9	240	2
NMTAP	9	240	3
NMTAP	9	288	1
NMTAP	9	288	4
EXTAP	10	0	0
EXTAP	10	0	1
EXTAP	10	96	0
EXSTR	10	96	1
NMSCR	10	96	1	96	96	4
NMSTR	10	192	4
NMSCR	10	192	4	96	96	7
NMSTR	10	288	7
NMSCR	10	288	7	96	96	2
NMSTR	11	0	2
NMSCR	11	0	2	96	96	5
NMTAP	11	96	5
NMTAP	11	192	0
NMTAP	11	288	0
NMTAP	11	288	7
EXTAP	12	0	6
EXTAP	12	0	7
EXSTR	12	96	6
NMSCL	12	96	6	96	96	3
EXTAP	12	96	7
NMSTR	12	192	3
NMSCL	12	192	3	96	96	0
NMSTR	12	288	0
NMSCL	12	288	0	96	96	5
NMSTR	13	0	5
NMSCL	13	0	5	96	96	2
NMTAP	13	96	2
NMTAP	13	192	7
NMTAP	13	288	0
NMTAP	13	288	7
EXTAP	14	0	0
EXTAP	14	0	1
EXTAP	14	96	0
EXSTR	14	96	1
NMSI_	14	96	1	96	96	5
NMSTR	14	192	5
NMSLL	14	192	5	96	96	7
NMSTR	14	288	7
NMSCR	14	288	7	96	96	2
NMSTR	15	0	2
NMSLR	15	0	2	96	96	6
NMTAP	15	96	6
NMTAP	15	192	0
NMTAP	15	288	0
NMTAP	15	288	7
EXTAP	16	0	6
EXTAP	16	0	7
EXSTR	16	96	6
NMSI_	16	96	6	96	96	2
EXTAP	16	96	7
NMSTR	16	192	2
NMSLR	16	192	2	96	96	0
NMSTR	16	288	0
NMSCL	16	288	0	96	96	5
NMSTR	17	0	5
NMSLL	17	0	5	96	96	1
NMTAP	17	96	1
NMTAP	17	192	7
NMTAP	17	288	0
NMTAP	17	288	7
NMSTR	18	0	2
NMSI_	18	0	2	96	48	0
NMTAP	18	0	4
NMTAP	18	96	2
NMTAP	18	96	3
NMTAP	18	192	3
NMSTR	18	192	5
NMSI_	18	192	5	96	48	7
NMTAP	18	288	4
NMTAP	18	288	5
NMSTR	19	0	2
NMSI_	19	0	2	96	48	0
NMTAP	19	0	4
NMTAP	19	96	2
NMTAP	19	96	3
NMTAP	19	192	3
NMHLD	19	192	6	96
NMTAP	19	288	4
NMTAP	19	336	3
NMTAP	19	336	5
NMSTR	20	0	2
NMSI_	20	0	2	96	48	0
NMTAP	20	0	4
NMTAP	20	96	2
NMTAP	20	96	3
NMTAP	20	192	3
NMSTR	20	192	5
NMSI_	20	192	5	96	48	7
NMTAP	20	288	4
NMTAP	20	288	5
EXSTR	21	0	1
NMSI_	21	0	1	96	48	3
EXTAP	21	0	7
NMTAP	21	96	0
NMTAP	21	96	1
NMTAP	21	192	4
NMTAP	21	192	6
NMTAP	21	240	4
NMTAP	21	240	6
NMSTR	21	288	3
NMSI_	21	288	3	96	48	1
NMTAP	21	288	5
NMTAP	21	336	3
NMTAP	21	336	5
NMSTR	22	0	4
NMSI_	22	0	4	96	48	6
NMTAP	22	48	4
NMSTR	22	96	2
NMSI_	22	96	2	96	48	0
NMTAP	22	144	2
NMSTR	22	192	5
NMSI_	22	192	5	96	48	7
NMTAP	22	240	5
NMSTR	22	288	3
NMSI_	22	288	3	96	48	0
NMTAP	22	336	3
NMSTR	23	0	4
NMSI_	23	0	4	96	48	7
NMTAP	23	48	4
NMSTR	23	96	2
NMSI_	23	96	2	96	48	7
NMTAP	23	144	2
NMSTR	23	192	5
NMSI_	23	192	5	96	48	0
NMTAP	23	240	5
NMTAP	23	288	1
NMTAP	23	336	1
NMTAP	24	0	2
NMTAP	24	24	4
NMTAP	24	48	2
NMTAP	24	72	4
NMTAP	24	96	3
NMTAP	24	120	5
NMTAP	24	144	3
NMTAP	24	168	5
NMTAP	24	192	3
NMTAP	24	204	2
NMTAP	24	216	1
NMTAP	24	228	0
NMTAP	24	240	7
NMTAP	24	252	6
NMTAP	24	264	5
NMTAP	24	276	4
NMTAP	24	288	3
NMTAP	24	300	2
NMTAP	24	312	1
NMTAP	24	324	0
NMTAP	24	336	7
NMTAP	24	348	6
NMTAP	24	360	5
NMTAP	24	372	4
NMTAP	25	0	3
NMTAP	25	96	0
NMTAP	25	96	6
NMTAP	25	144	0
NMTAP	25	144	6
BRSTR	25	192	1
NMSI_	25	192	1	96	48	7
BRSTR	25	192	5
NMSI_	25	192	5	96	48	7
NMSTR	25	288	1
NMSI_	25	288	1	96	48	3
NMSTR	25	288	5
NMSI_	25	288	5	96	48	3
NMTAP	26	0	1
NMTAP	26	0	5
NMTAP	26	96	6
EXTAP	26	112	5
EXTAP	26	128	4
NMTAP	26	144	1
EXTAP	26	160	2
EXTAP	26	176	3
NMTAP	26	192	6
EXTAP	26	208	5
EXTAP	26	224	4
NMTAP	26	240	1
EXTAP	26	256	2
EXTAP	26	272	3
BRHLD	26	288	7	96
NMTTP	27	0	0	A	0	M1
NMTTP	27	0	0	D	0	M1
NMTTP	27	0	1	D	0	M1
NMTAP	27	96	0
EXTAP	27	112	1
EXTAP	27	128	2
NMTAP	27	144	6
EXTAP	27	160	5
EXTAP	27	176	4
NMTAP	27	192	0
EXTAP	27	208	1
EXTAP	27	224	2
NMTAP	27	240	6
EXTAP	27	256	5
EXTAP	27	272	4
BRHLD	27	288	0	96
NMTTP	28	0	0	D	0	M1
NMTTP	28	0	7	A	0	M1
NMTTP	28	0	7	D	0	M1
NMTAP	28	96	7
EXTAP	28	112	6
EXTAP	28	128	5
NMTAP	28	144	1
EXTAP	28	160	2
EXTAP	28	176	3
NMTAP	28	192	7
EXTAP	28	208	6
EXTAP	28	224	5
NMTAP	28	240	1
EXTAP	28	256	2
EXTAP	28	272	3
BRHLD	28	288	7	96
NMTAP	29	0	0
EXTAP	29	16	1
EXTAP	29	32	2
NMTAP	29	48	5
EXTAP	29	64	4
EXTAP	29	80	3
NMTAP	29	96	1
EXTAP	29	112	2
EXTAP	29	128	3
NMTAP	29	144	6
EXTAP	29	160	5
EXTAP	29	176	4
NMTAP	29	192	2
EXTAP	29	208	3
EXTAP	29	224	4
NMTAP	29	240	7
EXTAP	29	256	6
EXTAP	29	272	5
BRTAP	29	288	0
NMTAP	30	0	1
NMSTR	30	0	3
NMSI_	30	0	3	96	48	7
NMTAP	30	24	1
NMTAP	30	24	3
NMTAP	30	96	3
NMTAP	30	96	4
NMTAP	30	144	5
NMSTR	30	192	4
NMSI_	30	192	4	96	48	0
NMTAP	30	192	6
NMTAP	30	216	4
NMTAP	30	216	6
NMTAP	30	288	3
NMTAP	30	288	4
NMTAP	30	336	2
NMTAP	31	0	1
NMSTR	31	0	3
NMSI_	31	0	3	96	48	7
NMTAP	31	24	1
NMTAP	31	24	3
NMTAP	31	96	3
NMTAP	31	96	4
NMTAP	31	144	5
NMHLD	31	192	0	24
NMHLD	31	192	7	24
NMHLD	31	240	0	24
NMHLD	31	240	7	24
NMTAP	31	288	0
NMTAP	31	288	7
NMSTR	32	0	4
NMSI_	32	0	4	96	48	0
NMTAP	32	0	6
NMTAP	32	24	4
NMTAP	32	24	6
NMTAP	32	96	3
NMTAP	32	96	4
NMTAP	32	144	2
NMTAP	32	192	1
NMSTR	32	192	3
NMSI_	32	192	3	96	48	7
NMTAP	32	216	1
NMTAP	32	216	3
NMTAP	32	288	3
NMSTR	32	288	4
NMSCR	32	288	4	96	96	3
BRTAP	33	0	0
EXSTR	33	192	2
BRSI_	33	192	2	96	48	0
EXSTR	33	192	5
BRSI_	33	192	5	96	48	7
BRTAP	33	288	2
BRTAP	33	288	5
NMHLD	34	0	3	24
NMSTR	34	0	7
NMSCL	34	0	7	96	48	4
NMHLD	34	48	3	24
NMHLD	34	96	3	24
NMSTR	34	96	7
NMSCR	34	96	7	96	48	2
NMHLD	34	144	3	24
NMHLD	34	192	3	24
NMSTR	34	192	7
NMSI_	34	192	7	96	48	3
NMHLD	34	240	3	24
NMTAP	34	288	3
NMTAP	34	288	7
NMSTR	35	0	0
NMSCR	35	0	0	96	48	3
NMHLD	35	0	4	24
NMHLD	35	48	4	24
NMSTR	35	96	0
NMSCL	35	96	0	96	48	5
NMHLD	35	96	4	24
NMHLD	35	144	4	24
NMSTR	35	192	0
NMSI_	35	192	0	96	48	4
NMHLD	35	192	4	24
NMHLD	35	240	4	24
NMTAP	35	288	0
BXTAP	35	288	6
NMHLD	36	0	3	24
NMSTR	36	0	7
NMSCL	36	0	7	96	48	4
NMHLD	36	48	3	24
NMHLD	36	96	3	24
NMSTR	36	96	7
NMSCR	36	96	7	96	48	2
NMHLD	36	144	3	24
NMHLD	36	192	3	24
NMSTR	36	192	7
NMSI_	36	192	7	96	48	3
NMHLD	36	240	3	24
NMSTR	36	288	3
NMSI_	36	288	3	96	48	1
NMTAP	36	288	7
EXTAP	37	0	3
EXSTR	37	0	6
NMSI_	37	0	6	96	48	2
BRTAP	37	96	0
BRTAP	37	96	6
NMTTP	37	192	1	E	1	M1
NMTTP	37	216	5	E	1	M1
NMTTP	37	240	2	E	1	M1
NMTTP	37	264	6	E	1	M1
NMTTP	37	288	3	E	1	M1
EXTAP	38	0	6
NMTAP	38	24	4
EXTAP	38	48	5
NMTAP	38	72	4
NMTAP	38	96	6
EXTAP	38	120	4
NMTAP	38	144	5
NMTAP	38	168	4
EXTAP	38	192	7
NMTAP	38	216	4
NMTAP	38	240	5
NMTAP	38	264	4
BRTAP	38	288	0
EXTAP	39	0	1
NMTAP	39	24	3
EXTAP	39	48	2
NMTAP	39	72	3
NMTAP	39	96	1
EXTAP	39	120	3
NMTAP	39	144	2
NMTAP	39	168	3
EXTAP	39	192	0
NMTAP	39	216	3
NMTAP	39	240	2
NMTAP	39	264	3
BRTAP	39	288	7
EXTAP	40	0	6
NMTAP	40	24	4
EXTAP	40	48	5
NMTAP	40	72	4
NMTAP	40	96	6
EXTAP	40	120	4
NMTAP	40	144	5
NMTAP	40	168	4
EXTAP	40	192	7
NMTAP	40	216	4
NMTAP	40	240	5
NMTAP	40	264	4
BRTAP	40	288	0
NMTTP	41	0	2	B	0	M1
NMTTP	41	0	2	A	0	M1
NMTTP	41	0	3	B	0	M1
NMTTP	41	0	3	E	0	M1
NMTTP	41	0	3	A	0	M1
NMTTP	41	0	3	D	1	M1
NMTHO	41	96	0	96	C	0	M1
NMTTP	41	192	0	E	0	M1
NMTTP	41	204	1	E	0	M1
NMTTP	41	216	2	E	0	M1
NMTTP	41	228	3	E	0	M1
NMTTP	41	240	4	E	0	M1
NMTTP	41	252	5	E	0	M1
NMTTP	41	264	6	E	0	M1
NMTTP	41	276	7	E	0	M1
NMTTP	41	288	0	E	1	M1
NMTAP	42	336	3
NMTAP	42	360	4
NMTAP	43	0	3
NMTAP	43	24	4
NMTAP	43	48	3
NMTAP	43	72	4
NMTAP	43	96	3
NMTAP	43	120	4
NMTAP	43	144	3
NMTAP	43	168	4
NMTAP	43	192	3
NMTAP	43	216	4
NMTAP	43	240	3
NMTAP	43	264	4
EXTAP	43	288	2
NMTAP	44	0	0
NMHLD	44	0	1	96
NMTAP	44	96	7
NMTAP	44	144	7
NMHLD	44	192	6	96
NMTAP	44	192	7
NMTAP	44	288	0
NMTAP	44	336	0
NMTAP	45	0	0
NMHLD	45	0	1	96
NMTAP	45	96	7
NMTAP	45	144	7
NMSTR	45	192	6
NMSCL	45	192	6	96	48	3
NMTAP	45	192	7
NMTAP	45	288	0
NMTAP	45	336	0
NMTAP	46	0	0
NMHLD	46	0	2	96
NMTAP	46	96	7
NMTAP	46	144	7
NMHLD	46	192	5	96
NMTAP	46	192	7
NMTAP	46	288	0
NMTAP	46	336	0
NMTAP	47	0	0
NMHLD	47	0	2	96
NMTAP	47	96	7
NMTAP	47	144	7
NMTAP	47	192	5
NMTAP	47	192	7
NMTAP	47	288	4
NMTAP	47	288	5
NMSTR	48	0	6
NMSI_	48	0	6	96	48	3
NMTAP	48	0	7
NMTAP	48	96	0
NMTAP	48	96	6
NMTAP	48	144	0
NMTAP	48	192	0
NMSTR	48	192	1
NMSI_	48	192	1	96	48	4
NMTAP	48	288	1
NMTAP	48	288	7
NMTAP	48	336	7
NMSTR	49	0	6
NMSI_	49	0	6	96	48	3
NMTAP	49	0	7
NMTAP	49	96	0
NMTAP	49	96	6
NMTAP	49	144	0
NMTAP	49	192	0
NMSTR	49	192	1
NMSI_	49	192	1	96	48	4
NMTAP	49	288	1
NMTAP	49	288	7
NMTAP	49	336	7
NMTAP	50	0	5
NMTAP	50	0	7
NMTAP	50	48	5
NMTAP	50	48	7
NMSTR	50	96	0
NMSCR	50	96	0	96	96	5
NMTAP	50	144	0
NMTAP	50	192	6
NMSTR	50	288	7
NMSI_	50	288	7	96	48	3
NMSTR	51	0	7
NMSF_	51	0	7	96	48	3
EXTAP	51	192	1
EXTAP	51	192	5
EXTAP	51	216	1
EXTAP	51	216	5
EXTAP	51	240	1
EXTAP	51	240	5
EXTAP	51	264	1
EXTAP	51	264	5
EXSTR	51	288	1
NMSSL	51	288	1	96	288	5
EXSTR	51	288	5
NMSSL	51	288	5	96	288	1
NMTAP	53	0	6
NMTAP	53	32	4
NMTAP	53	64	5
NMTAP	53	96	1
NMTAP	53	128	3
NMTAP	53	160	2
NMHLD	53	192	6	96
BRSTR	53	288	4
NMSI_	53	288	4	96	48	1
NMSI_	53	288	4	96	48	7
EXTAP	54	0	4
NMTAP	54	96	2
NMTAP	54	120	4
NMTAP	54	144	3
NMTAP	54	168	3
NMTAP	54	192	2
NMTAP	54	216	4
NMTAP	54	240	3
NMTAP	54	264	3
NMSTR	54	288	3
NMSI_	54	288	3	96	48	0
NMSI_	54	288	3	96	48	6
EXTAP	55	0	3
NMTAP	55	96	5
NMTAP	55	120	3
NMTAP	55	144	4
NMTAP	55	168	4
NMTAP	55	192	5
NMTAP	55	216	3
NMTAP	55	240	4
NMTAP	55	264	4
NMSTR	55	288	4
NMSI_	55	288	4	96	48	1
NMSI_	55	288	4	96	48	7
EXTAP	56	0	4
NMTAP	56	96	2
NMTAP	56	120	4
NMTAP	56	144	3
NMTAP	56	168	3
NMTAP	56	192	2
NMTAP	56	216	4
NMTAP	56	240	3
NMTAP	56	264	3
NMTAP	56	288	3
NMTAP	56	312	3
NMTAP	56	336	3
NMTAP	56	360	3
NMTAP	57	0	2
NMTAP	57	24	4
NMTAP	57	48	3
NMTAP	57	72	3
NMTAP	57	96	3
NMTAP	57	120	3
NMTAP	57	144	3
NMTAP	57	168	3
NMTAP	57	192	2
NMTAP	57	216	4
NMTAP	57	240	3
NMTAP	57	264	3
NMSTR	57	288	3
NMSI_	57	288	3	96	48	0
NMSI_	57	288	3	96	48	6
EXTAP	58	0	3
NMTAP	58	96	5
NMTAP	58	120	3
NMTAP	58	144	4
NMTAP	58	168	4
NMTAP	58	192	5
NMTAP	58	216	3
NMTAP	58	240	4
NMTAP	58	264	4
NMSTR	58	288	4
NMSI_	58	288	4	96	48	1
NMSI_	58	288	4	96	48	7
EXTAP	59	0	4
NMTAP	59	96	2
NMTAP	59	120	4
NMTAP	59	144	3
NMTAP	59	168	3
NMTAP	59	192	2
NMTAP	59	216	4
NMTAP	59	240	3
NMTAP	59	264	3
NMTAP	59	288	3
NMTAP	60	0	2
NMTAP	60	0	6
NMTAP	60	48	5
NMTAP	60	72	3
NMTAP	60	96	4
NMTAP	60	120	4
NMTAP	60	144	4
NMTAP	60	192	1
NMTAP	60	192	5
NMTAP	60	240	2
NMTAP	60	264	4
NMTAP	60	288	3
NMTAP	60	312	3
NMTAP	60	336	3
BXTAP	61	0	5
BXTAP	61	32	6
BXTAP	61	64	7
BXSTR	61	96	0
NMSSL	61	96	0	96	144	4
BXTAP	61	128	1
BXTAP	61	160	2
NMHLD	62	0	5	384
NMTAP	62	48	4
NMTAP	62	96	4
NMTAP	62	144	4
NMTAP	62	192	4
NMTAP	62	240	4
NMTAP	62	288	4
NMTAP	62	336	3
NMHLD	63	0	2	384
NMTAP	63	48	3
NMTAP	63	96	3
NMTAP	63	144	3
NMTAP	63	192	3
NMTAP	63	240	3
NMTAP	63	288	4
NMTAP	63	336	5
NMHLD	64	0	6	384
NMTAP	64	48	5
NMTAP	64	96	5
NMTAP	64	144	5
NMTAP	64	192	5
NMTAP	64	240	4
NMTAP	64	288	3
NMTAP	64	336	2
NMHLD	65	0	1	384
NMTAP	65	48	2
NMTAP	65	96	2
NMTAP	65	144	2
NMTAP	65	192	3
NMTAP	65	240	4
NMTAP	65	288	5
NMTAP	65	336	6
NMHLD	66	0	7	48
NMHLD	66	48	6	48
NMHLD	66	96	5	48
NMHLD	66	144	4	48
NMHLD	66	192	3	48
NMHLD	66	240	2	48
BRTAP	66	288	1
NMHLD	67	0	0	48
NMHLD	67	48	1	48
NMHLD	67	96	2	48
NMHLD	67	144	3	48
NMHLD	67	192	4	48
NMHLD	67	240	5	48
BRTAP	67	288	6
NMTAP	68	0	7
NMTAP	68	24	7
NMTAP	68	48	6
NMTAP	68	72	6
NMTAP	68	96	5
NMTAP	68	120	5
NMTAP	68	144	4
NMTAP	68	168	4
NMTAP	68	192	3
NMTAP	68	216	3
NMTAP	68	240	2
NMTAP	68	264	2
NMTAP	68	288	1
NMTAP	68	312	1
NMTAP	68	336	0
NMTAP	68	360	0
BRTAP	69	0	7
NMSTR	69	96	2
NMSI_	69	96	2	96	48	4
NMSTR	69	96	6
NMSI_	69	96	6	96	48	4
NMTAP	69	144	1
NMTAP	69	144	7
NMSTR	69	192	2
NMSI_	69	192	2	96	48	0
NMSTR	69	192	6
NMSI_	69	192	6	96	48	0
BRTAP	69	288	2
BRTAP	69	288	6
NMTAP	70	0	0
NMTAP	70	0	1
NMTAP	70	48	0
NMTAP	70	48	1
NMTAP	70	96	2
NMTAP	70	96	3
NMTAP	70	144	4
NMTAP	70	144	5
NMTAP	70	192	6
NMTAP	70	192	7
NMTAP	70	240	6
NMTAP	70	240	7
NMTAP	70	288	4
NMTAP	70	288	5
NMTAP	70	336	2
NMTAP	70	336	3
NMTAP	71	0	2
NMTAP	71	24	4
NMTAP	71	48	2
NMTAP	71	72	4
NMTAP	71	96	3
NMTAP	71	120	5
NMTAP	71	144	3
NMTAP	71	168	5
NMSTR	71	192	4
NMSV_	71	192	4	96	48	1
NMTAP	71	288	4
NMTAP	71	288	5
NMTAP	72	0	2
NMTAP	72	24	4
NMTAP	72	48	2
NMTAP	72	72	4
NMTAP	72	96	0
NMTAP	72	120	4
NMTAP	72	144	0
NMTAP	72	168	4
NMTAP	72	192	2
NMTAP	72	216	4
NMTAP	72	240	2
NMTAP	72	264	4
NMTAP	72	288	0
NMTAP	72	312	4
NMTAP	72	336	0
NMTAP	72	360	4
NMTAP	73	0	2
NMTAP	73	24	4
NMTAP	73	48	2
NMTAP	73	72	4
NMTAP	73	96	0
NMTAP	73	120	4
NMTAP	73	144	0
NMTAP	73	168	4
NMTAP	73	192	6
NMTAP	73	216	4
NMTAP	73	240	6
NMTAP	73	264	4
NMTAP	73	288	0
NMTAP	73	312	4
EXHLD	73	336	0	48
NMTAP	74	0	5
NMTAP	74	24	3
NMTAP	74	48	5
NMTAP	74	72	3
NMTAP	74	96	7
NMTAP	74	120	3
NMTAP	74	144	7
NMTAP	74	168	3
NMTAP	74	192	5
NMTAP	74	216	3
NMTAP	74	240	5
NMTAP	74	264	3
NMTAP	74	288	7
NMTAP	74	312	3
NMTAP	74	336	7
NMTAP	74	360	3
NMTAP	75	0	5
NMTAP	75	24	3
NMTAP	75	48	5
NMTAP	75	72	3
NMTAP	75	96	7
NMTAP	75	120	3
NMTAP	75	144	7
NMTAP	75	168	3
BRTAP	75	192	1
BRTAP	75	216	3
BRTAP	75	240	1
BRTAP	75	264	3
BRTAP	75	288	7
NMSTR	76	0	1
NMSI_	76	0	1	96	48	5
NMTAP	76	96	1
NMSTR	76	96	4
NMSI_	76	96	4	96	48	1
NMSTR	76	192	0
NMSLR	76	192	0	96	48	4
NMTAP	76	192	4
NMTAP	76	288	0
NMSTR	76	288	5
NMSI_	76	288	5	96	48	0
NMSTR	77	0	3
NMSLL	77	0	3	96	48	7
NMTAP	77	0	5
EXSTR	77	96	6
NMSI_	77	96	6	96	48	1
EXTAP	77	120	6
NMTAP	77	192	2
NMTAP	77	192	6
NMTAP	77	264	3
NMTAP	77	288	3
NMTAP	77	336	0
NMTAP	77	336	1
NMTAP	78	0	2
NMSTR	78	0	3
NMSUR	78	0	3	96	48	7
NMTAP	78	48	1
NMTAP	78	48	4
NMTAP	78	96	2
NMTAP	78	96	3
NMTAP	78	168	0
NMTAP	78	180	1
NMTAP	78	192	2
NMTAP	78	216	5
NMTAP	78	264	3
NMTAP	78	264	6
NMTAP	78	288	3
NMTAP	78	288	6
NMTAP	78	336	1
NMTAP	78	336	4
BRTAP	79	0	7
NMSTR	79	96	1
NMSI_	79	96	1	96	48	7
NMSTR	79	96	5
NMSI_	79	96	5	96	48	7
NMTAP	79	144	2
NMTAP	79	144	4
NMSTR	79	192	1
NMSI_	79	192	1	96	48	3
NMSTR	79	192	5
NMSI_	79	192	5	96	48	3
BRTAP	79	288	1
BRTAP	79	288	5
NMTAP	80	0	2
NMTAP	80	24	4
NMTAP	80	48	2
NMTAP	80	72	4
NMTAP	80	96	0
NMTAP	80	120	4
NMTAP	80	144	0
NMTAP	80	168	4
NMTAP	80	192	6
NMTAP	80	216	4
NMTAP	80	240	6
NMTAP	80	264	4
NMTAP	80	288	0
NMTAP	80	312	4
NMTAP	80	336	0
NMTAP	80	360	4
NMTAP	81	0	2
NMTAP	81	24	4
NMTAP	81	48	2
NMTAP	81	72	4
NMTAP	81	96	0
NMTAP	81	120	4
NMTAP	81	144	0
NMTAP	81	168	4
NMTAP	81	192	6
NMTAP	81	216	4
NMTAP	81	240	6
NMTAP	81	264	4
NMTAP	81	288	0
NMTAP	81	312	4
EXHLD	81	336	0	48
NMTAP	82	0	5
NMTAP	82	24	3
NMTAP	82	48	5
NMTAP	82	72	3
NMTAP	82	96	7
NMTAP	82	120	3
NMTAP	82	144	7
NMTAP	82	168	3
NMTAP	82	192	1
NMTAP	82	216	3
NMTAP	82	240	1
NMTAP	82	264	3
NMTAP	82	288	7
NMTAP	82	312	3
NMTAP	82	336	7
NMTAP	82	360	3
NMTAP	83	0	5
NMTAP	83	24	3
NMTAP	83	48	5
NMTAP	83	72	3
NMSTR	83	96	4
NMSUL	83	96	4	96	96	3
NMTTP	83	192	0	C	0	M1
BRSTR	84	0	0
BRSI_	84	0	0	96	48	6
BRSTR	84	0	1
BRSI_	84	0	1	96	48	3
BRSTR	84	96	0
BRSI_	84	96	0	96	48	4
BRSTR	84	96	1
BRSI_	84	96	1	96	48	5
BRTAP	84	192	0
BRTAP	84	192	1
NMTTP	84	288	0	B	0	M1
NMTTP	84	288	0	A	0	M1
NMTTP	84	288	1	B	0	M1
NMTTP	84	288	1	E	0	M1
NMTTP	84	288	1	A	0	M1
NMTTP	84	288	1	D	0	M1
NMTTP	84	288	2	B	0	M1
NMTTP	84	288	2	A	0	M1
NMTTP	84	288	3	B	0	M1
NMTTP	84	288	3	E	0	M1
NMTTP	84	288	3	A	0	M1
NMTTP	84	288	3	D	1	M1
BRSTR	85	0	6
BRSI_	85	0	6	96	48	4
BRSTR	85	0	7
BRSI_	85	0	7	96	48	1
BRSTR	85	96	6
BRSI_	85	96	6	96	48	2
BRSTR	85	96	7
BRSI_	85	96	7	96	48	3
BRTAP	85	192	6
BRTAP	85	192	7
NMTTP	85	288	4	B	0	M1
NMTTP	85	288	4	A	0	M1
NMTTP	85	288	5	B	0	M1
NMTTP	85	288	5	E	0	M1
NMTTP	85	288	5	A	0	M1
NMTTP	85	288	5	D	1	M1
NMTTP	85	288	6	B	0	M1
NMTTP	85	288	6	A	0	M1
NMTTP	85	288	7	B	0	M1
NMTTP	85	288	7	E	0	M1
NMTTP	85	288	7	A	0	M1
NMTTP	85	288	7	D	0	M1
NMTAP	86	0	0
NMTAP	86	0	1
NMTAP	86	96	2
NMTAP	86	96	3
NMTAP	86	144	4
NMTAP	86	168	4
NMTAP	86	192	5
NMTAP	86	216	5
NMTAP	86	240	6
NMTAP	86	264	6
NMTAP	86	288	7
NMTAP	86	300	0
NMTAP	86	312	1
NMTAP	86	324	2
NMTAP	86	336	3
NMTAP	86	348	4
NMTAP	86	360	5
NMTAP	86	372	6
NMTAP	87	0	7
NMTHO	87	96	0	96	C	0	M1
NMTTP	87	192	0	D	0	M1
NMTTP	87	204	7	D	0	M1
NMTTP	87	216	6	D	0	M1
NMTTP	87	228	5	D	0	M1
NMTTP	87	240	4	D	0	M1
NMTTP	87	252	3	D	0	M1
NMTTP	87	264	2	D	0	M1
NMTTP	87	276	1	D	0	M1
NMTTP	87	288	0	D	1	M1
NMTTP	88	192	3	A	0	M1
NMTTP	88	264	4	D	0	M1
NMTTP	88	336	4	A	0	M1

T_REC_TAP	545
T_REC_BRK	26
T_REC_XTP	77
T_REC_BXX	6
T_REC_HLD	52
T_REC_XHO	2
T_REC_BHO	3
T_REC_BXH	0
T_REC_STR	78
T_REC_BST	11
T_REC_XST	11
T_REC_XBS	1
T_REC_TTP	72
T_REC_THO	2
T_REC_SLD	96
T_REC_BSL	10
T_REC_ALL	992
T_NUM_TAP	783
T_NUM_BRK	57
T_NUM_HLD	56
T_NUM_SLD	96
T_NUM_ALL	992
T_JUDGE_TAP	827
T_JUDGE_HLD	130
T_JUDGE_SLD	106
T_JUDGE_ALL	1063
TTM_EACHPAIRS	148
TTM_SCR_TAP	391500
TTM_SCR_BRK	148200
TTM_SCR_HLD	56000
TTM_SCR_SLD	144000
TTM_SCR_ALL	739700
TTM_SCR_S	712000
TTM_SCR_SS	734000
TTM_RAT_ACV	10077

