VERSION	0.00.00	1.04.00
FES_MODE	0
BPM_DEF	160.000	160.000	160.000	160.000
MET_DEF	4	4
RESOLUTION	384
CLK_DEF	384
COMPATIBLE_CODE	MA2

BPM	0	0	160.000
MET	0	0	4	4

EXTAP	1	0	2
EXTAP	1	0	3
EXTAP	1	72	4
EXTAP	1	72	5
EXTAP	1	144	3
EXTAP	1	144	4
EXHLD	1	192	3	96
EXHLD	1	192	4	96
NMHLD	2	0	2	96
NMTAP	2	96	3
NMTAP	2	192	2
NMTAP	2	240	2
NMTAP	2	288	3
NMHLD	3	0	5	96
NMTAP	3	96	4
NMTAP	3	192	5
NMTAP	3	240	5
NMTAP	3	288	4
NMHLD	4	0	1	96
NMTAP	4	96	3
NMTAP	4	192	2
NMTAP	4	240	2
NMTAP	4	288	4
NMHLD	5	0	6	96
NMTAP	5	96	4
NMTAP	5	192	5
NMTAP	5	240	5
NMTAP	5	288	3
NMTAP	6	0	2
NMTAP	6	96	2
NMTAP	6	96	3
NMTAP	6	192	1
NMTAP	6	240	1
NMTAP	6	288	0
NMTAP	6	288	1
NMTAP	7	0	5
NMTAP	7	96	4
NMTAP	7	96	5
NMTAP	7	192	6
NMTAP	7	240	6
NMTAP	7	288	6
NMTAP	7	288	7
NMTAP	8	0	2
NMTAP	8	96	1
NMTAP	8	96	3
NMTAP	8	192	5
NMTAP	8	288	4
NMTAP	8	288	6
NMTAP	9	0	0
NMTAP	9	0	7
NMTAP	9	96	1
NMTAP	9	96	3
NMTAP	9	192	2
NMTAP	9	192	5
NMTAP	9	288	4
NMTAP	9	288	6
EXSTR	10	0	0
NMSCR	10	0	0	96	216	3
EXHLD	10	0	7	576
CNSUL	10	312	3	0	264	5
EXTAP	12	0	5
EXHLD	12	96	4	480
EXSTR	12	96	6
NMSCL	12	96	6	96	216	3
CNSV_	13	24	3	0	168	0
EXTAP	14	0	0
EXSTR	14	96	1
NMSCR	14	96	1	96	192	4
EXHLD	14	96	7	480
CNSUL	15	0	4	0	192	6
EXTAP	16	0	7
EXHLD	16	96	0	480
EXSTR	16	96	6
NMSI_	16	96	6	96	144	2
CNSLR	16	336	2	0	240	7
NMHLD	18	0	1	96
NMHLD	18	96	2	96
NMHLD	18	192	3	96
NMHLD	18	288	2	96
NMHLD	19	0	1	96
NMHLD	19	96	2	96
NMHLD	19	192	3	96
NMHLD	19	288	4	96
NMHLD	20	0	5	96
NMHLD	20	96	6	96
NMHLD	20	192	5	96
NMHLD	20	288	4	96
NMHLD	21	0	5	96
NMHLD	21	96	6	96
NMTAP	21	192	7
NMTAP	21	288	0
NMTAP	21	288	7
NMTAP	22	0	1
NMTAP	22	48	1
NMTAP	22	96	3
NMTAP	22	144	3
NMTAP	22	192	2
NMTAP	22	240	2
NMTAP	22	288	6
NMTAP	22	336	6
NMTAP	23	0	4
NMTAP	23	48	4
NMTAP	23	96	5
NMTAP	23	144	5
NMTAP	23	192	1
NMTAP	23	240	1
NMTAP	23	288	6
NMTAP	23	336	6
NMTAP	24	0	0
NMTAP	24	24	7
NMTAP	24	48	0
NMTAP	24	72	7
NMTAP	24	96	0
NMTAP	24	120	7
NMTAP	24	144	0
NMTAP	24	168	7
EXTAP	24	192	0
EXTAP	24	216	7
EXTAP	24	240	0
EXTAP	24	264	7
EXTAP	24	288	0
NMTAP	25	0	1
NMTAP	25	0	6
NMTAP	25	96	2
NMTAP	25	96	3
NMTAP	25	192	4
NMTAP	25	192	5
NMTAP	25	288	0
NMTAP	25	288	7
BXTAP	26	0	2
BXHLD	26	0	4	288
NMTAP	26	96	5
NMTAP	26	144	5
NMTAP	26	192	5
NMTAP	26	240	5
NMTAP	26	288	5
BXHLD	27	0	3	288
BXTAP	27	0	6
NMTAP	27	96	2
NMTAP	27	144	2
NMTAP	27	192	2
NMTAP	27	240	2
NMTAP	27	288	2
BXTAP	28	0	1
BXHLD	28	0	7	288
NMTAP	28	96	6
NMTAP	28	144	6
NMTAP	28	192	6
NMTAP	28	240	6
NMTAP	28	288	6
NMTAP	29	0	0
NMTAP	29	48	0
NMTAP	29	96	2
NMTAP	29	144	2
NMTAP	29	192	4
NMTAP	29	240	4
NMTAP	29	288	3
NMTAP	29	288	5
NMHLD	30	0	4	48
NMHLD	30	0	6	48
NMHLD	30	96	5	48
NMHLD	30	192	1	48
NMHLD	30	192	7	48
NMHLD	30	288	0	48
NMHLD	31	0	2	48
NMHLD	31	0	4	48
NMHLD	31	96	3	48
NMTAP	31	192	5
NMTAP	31	240	5
NMTAP	31	288	4
NMTAP	31	288	6
NMHLD	32	0	1	48
NMHLD	32	0	3	48
NMHLD	32	96	2	48
NMHLD	32	192	4	48
NMHLD	32	192	6	48
NMHLD	32	288	5	48
NMTAP	33	0	4
NMSTR	33	0	6
NMSLR	33	0	6	96	192	4
NMHLD	34	0	4	240
NMTAP	34	0	5
NMTAP	34	96	2
NMTAP	34	144	2
NMTAP	34	192	2
NMTAP	34	240	2
BRTAP	34	288	2
BRTAP	34	288	4
NMHLD	35	0	0	240
NMTAP	35	0	1
NMTAP	35	96	6
NMTAP	35	144	6
NMTAP	35	192	6
NMTAP	35	240	6
BRTAP	35	288	0
BRTAP	35	288	6
NMTAP	36	0	2
NMHLD	36	0	3	240
NMTAP	36	96	5
NMTAP	36	144	5
NMTAP	36	192	5
NMTAP	36	240	5
BRTAP	36	288	3
BRTAP	36	288	5
NMSTR	37	0	6
NMSI_	37	0	6	96	48	3
NMTAP	37	96	1
BXTAP	37	192	0
BXTAP	37	216	7
BXTAP	37	240	0
BXTAP	37	264	7
BXTAP	37	288	0
NMTAP	38	0	2
NMTAP	38	48	2
NMTAP	38	96	3
NMTAP	38	144	1
NMTAP	38	192	7
NMTAP	38	240	7
NMTAP	38	288	0
NMTAP	38	288	6
NMTAP	39	0	5
NMTAP	39	48	5
NMTAP	39	96	4
NMTAP	39	144	6
NMTAP	39	192	0
NMTAP	39	240	0
NMTAP	39	288	1
NMTAP	39	288	7
NMTAP	40	0	1
NMTAP	40	48	1
NMTAP	40	96	0
NMTAP	40	144	2
NMTAP	40	192	4
NMTAP	40	240	4
NMTAP	40	288	3
NMTAP	40	288	5
BRTAP	41	0	1
BRTAP	41	0	4
NMTAP	41	96	3
NMTAP	41	96	6
NMTAP	41	192	4
NMTAP	41	192	5
NMTAP	41	240	4
NMTAP	41	240	5
NMTTP	41	288	0	B	0	M1
NMTTP	41	288	0	C	1	M1
NMTTP	41	288	1	B	0	M1
NMTTP	41	288	6	B	0	M1
NMTTP	41	288	7	B	0	M1
EXTAP	43	288	3
EXTAP	43	288	4
NMTAP	44	0	4
NMSTR	44	0	5
NMSCR	44	0	5	96	96	0
NMSTR	44	192	1
NMSCR	44	192	1	96	96	4
NMSTR	45	0	6
NMSCR	45	0	6	96	96	1
NMSTR	45	192	2
NMSCR	45	192	2	96	96	5
NMSTR	46	0	6
NMSI_	46	0	6	96	96	1
NMSTR	46	192	2
NMSI_	46	192	2	96	96	5
NMSTR	47	0	6
NMSV_	47	0	6	96	96	3
NMTAP	47	192	2
NMTAP	47	288	2
NMTAP	47	288	3
NMHLD	48	0	1	672
NMTAP	48	0	4
NMTAP	48	96	4
NMTAP	48	192	3
NMTAP	48	288	3
NMTAP	49	0	2
NMTAP	49	96	0
NMTAP	49	192	7
NMTAP	49	288	6
NMTAP	50	0	5
NMTAP	50	48	5
NMTAP	50	96	3
NMTAP	50	144	3
NMTAP	50	192	4
NMTAP	50	240	4
NMTAP	50	288	2
NMTAP	50	336	2
NMSTR	51	0	3
NMSI_	51	0	3	96	48	6
NMHLD	51	192	0	96
NMTAP	51	288	4
BXTAP	52	0	2
BXTAP	52	0	6
EXHLD	53	0	2	96
EXHLD	53	96	3	96
EXHLD	53	192	4	96
BRTAP	53	288	5
EXTAP	54	0	4
EXTAP	54	0	6
NMTAP	54	96	6
NMTAP	54	144	6
NMTAP	54	192	4
NMTAP	54	240	4
NMTAP	54	288	5
NMTAP	54	336	5
EXTAP	55	0	3
EXTAP	55	0	5
NMTAP	55	96	3
NMTAP	55	144	3
NMTAP	55	192	5
NMTAP	55	240	5
NMTAP	55	288	4
NMTAP	55	336	4
EXTAP	56	0	4
EXTAP	56	0	6
NMTAP	56	96	7
NMTAP	56	144	7
NMTAP	56	192	6
NMTAP	56	240	6
NMTAP	56	288	5
NMTAP	56	336	5
NMSTR	57	0	4
NMSCL	57	0	4	96	48	1
NMSTR	57	192	0
NMSCL	57	192	0	96	48	5
EXTAP	58	0	2
EXTAP	58	0	4
NMTAP	58	96	1
NMTAP	58	144	1
NMTAP	58	192	3
NMTAP	58	240	3
NMTAP	58	288	0
NMTAP	58	336	0
NMTAP	59	0	0
NMTAP	59	0	2
NMTAP	59	96	1
NMTAP	59	144	1
NMTAP	59	192	2
NMTAP	59	240	2
NMTAP	59	288	3
NMTAP	59	336	3
NMTAP	60	0	2
NMSTR	60	0	4
NMSCR	60	0	4	96	48	7
NMSTR	60	192	0
NMSCR	60	192	0	96	48	3
NMTTP	61	0	6	B	0	M1
NMTTP	61	32	5	B	0	M1
NMTTP	61	64	5	E	0	M1
NMTTP	61	96	1	B	0	M1
NMTTP	61	128	2	B	0	M1
NMTTP	61	160	3	E	0	M1
NMTHO	61	192	0	96	C	0	M1
NMTAP	62	0	2
NMTAP	62	96	1
NMTAP	62	96	3
NMTAP	62	192	0
NMTAP	62	240	0
NMTAP	62	288	1
NMTAP	62	288	7
NMTAP	63	0	6
NMTAP	63	48	6
NMTAP	63	96	4
NMTAP	63	144	4
NMSTR	63	192	5
NMSI_	63	192	5	96	48	0
NMTAP	63	288	4
NMTAP	64	0	1
NMTAP	64	96	0
NMTAP	64	96	2
NMTAP	64	192	3
NMTAP	64	240	3
NMTAP	64	288	2
NMTAP	64	288	4
NMTAP	65	0	6
NMTAP	65	48	6
NMTAP	65	96	0
NMTAP	65	144	0
NMSTR	65	192	7
NMSI_	65	192	7	96	48	3
NMTAP	65	288	0
NMTAP	66	0	1
NMTAP	66	48	1
NMTAP	66	96	2
NMTAP	66	144	2
NMSTR	66	192	3
NMSI_	66	192	3	96	48	0
NMTAP	66	240	3
NMTAP	67	0	6
NMTAP	67	48	6
NMTAP	67	96	5
NMTAP	67	144	5
NMSTR	67	192	4
NMSI_	67	192	4	96	48	7
NMTAP	67	240	4
NMTAP	68	0	1
NMTAP	68	48	1
NMTAP	68	96	6
NMTAP	68	144	6
NMTAP	68	192	0
NMTAP	68	216	7
NMTAP	68	240	0
NMTAP	68	264	7
NMTAP	68	288	0
NMTAP	68	312	7
NMTAP	68	336	0
NMTAP	68	360	7
EXSTR	69	0	0
NMSI_	69	0	0	96	48	4
NMSTR	69	96	6
BRSI_	69	96	6	96	48	2
NMTAP	69	192	1
NMTAP	69	288	1
NMTAP	69	288	3
NMHLD	70	0	4	96
NMHLD	70	0	5	96
NMHLD	70	192	2	96
NMHLD	70	192	3	96
NMTAP	71	0	4
NMTAP	71	0	6
NMTAP	71	96	1
NMTAP	71	96	3
BRSTR	71	192	0
NMSI_	71	192	0	96	48	4
BRSTR	71	192	7
NMSI_	71	192	7	96	48	3
NMSTR	72	0	2
NMSI_	72	0	2	96	48	7
NMTAP	72	0	5
NMSTR	72	96	6
NMSI_	72	96	6	96	48	3
NMSTR	72	192	2
NMSI_	72	192	2	96	48	7
NMSTR	72	288	6
NMSI_	72	288	6	96	48	3
NMSTR	73	0	2
NMSCL	73	0	2	96	48	7
NMSTR	73	96	6
NMSCL	73	96	6	96	48	3
NMSTR	73	192	2
BRSI_	73	192	2	96	48	6
NMTAP	74	0	3
NMSTR	74	0	5
NMSI_	74	0	5	96	48	0
NMSTR	74	96	1
NMSI_	74	96	1	96	48	4
NMSTR	74	192	5
NMSI_	74	192	5	96	48	0
NMSTR	74	288	1
NMSI_	74	288	1	96	48	4
NMSTR	75	0	5
NMSCR	75	0	5	96	48	0
NMSTR	75	96	1
NMSCR	75	96	1	96	48	4
NMSTR	75	192	5
BRSI_	75	192	5	96	48	1
BRTAP	76	0	0
BRTAP	76	0	2
BRTAP	76	96	3
BRTAP	76	96	4
BRTAP	76	192	5
BRTAP	76	192	7
BRTAP	76	288	0
BRTAP	76	288	7
BRTAP	77	0	0
BRTAP	77	0	1
BRTAP	77	96	2
BRTAP	77	96	3
BXSTR	77	192	4
NMSI_	77	192	4	96	48	1
BXSTR	77	192	5
NMSI_	77	192	5	96	48	0
BXTAP	78	0	0
BXTAP	78	0	1
BXTAP	78	48	0
BXTAP	78	48	1
BXTAP	78	96	2
BXTAP	78	96	7
BRTAP	78	192	3
BRTAP	78	192	6
BRTAP	78	288	1
BRTAP	78	288	4
NMTAP	79	0	5
NMTAP	79	0	6
NMSTR	79	96	1
BRSI_	79	96	1	96	48	5
NMTAP	79	96	3
NMTAP	79	192	6
BRTAP	79	288	3
BRTAP	79	288	4
NMSTR	80	0	4
NMSI_	80	0	4	96	48	1
NMTAP	80	0	6
NMSTR	80	96	0
NMSI_	80	96	0	96	48	5
NMSTR	80	192	4
NMSI_	80	192	4	96	48	1
NMSTR	80	288	0
NMSI_	80	288	0	96	48	5
NMSTR	81	0	4
NMSCL	81	0	4	96	48	1
NMSTR	81	96	0
NMSCL	81	96	0	96	48	5
NMSTR	81	192	4
BRSI_	81	192	4	96	48	0
NMTAP	82	0	1
NMSTR	82	0	3
NMSI_	82	0	3	96	48	6
NMSTR	82	96	7
NMSI_	82	96	7	96	48	2
NMSTR	82	192	3
NMSCR	82	192	3	96	48	6
NMSTR	82	288	7
NMSCR	82	288	7	96	48	2
NMSTR	83	0	3
BRSUR	83	0	3	96	96	5
EXTAP	83	288	4
EXTAP	83	288	6
NMHLD	84	0	4	48
NMHLD	84	0	6	48
NMHLD	84	96	0	48
NMHLD	84	96	2	48
NMHLD	84	192	1	48
NMHLD	84	192	5	48
BRTAP	84	288	2
BRTAP	84	288	3
NMHLD	85	0	1	48
NMHLD	85	0	7	48
NMHLD	85	96	3	48
NMHLD	85	96	5	48
NMHLD	85	192	0	48
NMHLD	85	192	4	48
BRTAP	85	288	2
BRTAP	85	288	3
NMTAP	86	0	4
NMTAP	86	0	5
NMTAP	86	96	1
NMTAP	86	96	6
NMTAP	86	144	1
NMTAP	86	144	6
EXTAP	86	192	0
EXTAP	86	216	7
EXTAP	86	240	0
EXTAP	86	264	7
EXTAP	86	288	1
EXTAP	86	312	6
EXTAP	86	336	1
EXTAP	86	360	6
EXHLD	87	0	1	96
NMTTP	87	96	5	B	0	M1
NMTTP	87	96	5	E	0	M1
NMTAP	87	192	3
NMTAP	87	192	6
NMTAP	87	240	0
NMTAP	87	240	7
BRHLD	87	288	1	420
BRTAP	87	288	4
NMTHO	88	168	0	156	C	0	M1

T_REC_TAP	278
T_REC_BRK	32
T_REC_XTP	34
T_REC_BXX	16
T_REC_HLD	54
T_REC_XHO	10
T_REC_BHO	1
T_REC_BXH	3
T_REC_STR	46
T_REC_BST	2
T_REC_XST	5
T_REC_XBS	2
T_REC_TTP	13
T_REC_THO	2
T_REC_SLD	49
T_REC_BSL	6
T_REC_ALL	553
T_NUM_TAP	376
T_NUM_BRK	62
T_NUM_HLD	66
T_NUM_SLD	49
T_NUM_ALL	553
T_JUDGE_TAP	428
T_JUDGE_HLD	189
T_JUDGE_SLD	55
T_JUDGE_ALL	672
TTM_EACHPAIRS	102
TTM_SCR_TAP	188000
TTM_SCR_BRK	161200
TTM_SCR_HLD	66000
TTM_SCR_SLD	73500
TTM_SCR_ALL	488700
TTM_SCR_S	468050
TTM_SCR_SS	482500
TTM_RAT_ACV	10128

