VERSION	0.00.00	1.04.00
FES_MODE	0
BPM_DEF	160.000	160.000	160.000	160.000
MET_DEF	4	4
RESOLUTION	384
CLK_DEF	384
COMPATIBLE_CODE	MA2

BPM	0	0	160.000
MET	0	0	4	4

NMHLD	3	0	1	768
NMTAP	3	96	3
NMTAP	3	288	3
NMTAP	4	96	4
NMTAP	4	288	4
NMHLD	5	0	6	576
NMTAP	5	96	4
NMTAP	5	288	4
NMTAP	6	96	3
NMTAP	6	288	3
NMTAP	6	288	5
EXHLD	7	0	2	336
EXHLD	7	0	4	336
EXHLD	8	0	2	96
EXHLD	8	0	3	96
EXTAP	8	144	2
EXTAP	8	144	3
EXTAP	8	240	0
EXTAP	8	240	7
EXTAP	8	336	4
EXTAP	8	336	5
EXHLD	9	0	4	96
EXHLD	9	0	5	96
NMTAP	9	144	4
NMTAP	9	144	6
NMTAP	9	240	1
NMTAP	9	240	3
NMTAP	9	336	2
NMTAP	9	336	5
NMHLD	10	0	2	72
NMHLD	10	0	5	72
NMTAP	10	120	2
NMTAP	10	120	5
NMTAP	10	168	3
NMSTR	10	192	4
NMSI_	10	192	4	96	48	7
EXTAP	10	288	3
BXTAP	10	288	4
NMTAP	11	0	1
NMTAP	11	96	2
NMTAP	11	96	4
NMTAP	11	168	3
NMTAP	11	192	5
NMTAP	11	240	4
NMTTP	11	288	6	E	0	M1
NMTAP	12	0	6
NMTAP	12	96	3
NMTAP	12	96	5
NMTAP	12	168	4
NMTAP	12	192	2
NMTAP	12	240	3
NMTTP	12	288	2	E	0	M1
NMTAP	13	0	1
NMTAP	13	96	2
NMTAP	13	96	4
NMTAP	13	168	3
NMTAP	13	192	5
NMTAP	13	240	4
NMTTP	13	288	6	E	0	M1
NMHLD	14	0	6	72
NMTAP	14	72	7
NMTAP	14	120	6
NMTAP	14	120	7
NMTAP	14	168	0
NMSTR	14	192	7
NMSI_	14	192	7	96	48	3
EXTAP	14	288	0
BXTAP	14	288	7
NMTAP	15	0	2
NMTAP	15	0	4
NMTAP	15	96	1
NMTAP	15	96	3
NMTAP	15	192	0
NMTAP	15	192	1
NMTAP	15	264	7
NMTAP	15	288	0
NMTAP	15	336	7
NMTAP	16	0	0
NMTAP	16	0	6
NMTAP	16	96	5
NMTAP	16	96	7
NMTAP	16	192	4
NMTAP	16	192	5
NMTAP	16	264	3
NMTAP	16	288	4
NMTAP	16	336	3
NMHLD	17	0	2	48
NMHLD	17	0	3	48
NMHLD	17	96	1	48
NMHLD	17	96	2	48
NMTAP	17	192	1
NMTAP	17	216	3
NMTAP	17	240	2
NMTAP	17	264	4
NMSTR	17	288	3
NMSCL	17	288	3	96	192	4
NMTAP	17	312	5
NMTAP	17	336	4
NMTAP	17	360	6
NMSTR	18	192	7
BRSF_	18	192	7	96	48	3
BXTAP	18	288	7
EXHLD	19	0	1	288
NMSTR	19	96	2
NMSI_	19	96	2	96	32	4
CNSV_	19	224	4	0	64	5
EXTAP	19	336	6
EXHLD	20	0	6	288
NMSTR	20	96	7
NMSI_	20	96	7	96	32	4
CNSUR	20	224	4	0	64	2
EXTAP	20	336	3
EXHLD	21	0	3	288
NMSTR	21	96	0
NMSI_	21	96	0	96	32	2
CNSI_	21	224	2	0	32	7
CNSI_	21	256	7	0	32	4
NMTAP	22	0	5
NMTAP	22	48	5
NMTAP	22	72	3
NMTAP	22	120	3
NMTAP	22	168	4
NMTAP	22	192	3
NMTAP	22	216	4
NMTAP	22	240	3
BXTAP	22	288	7
NMHLD	23	0	2	288
NMSTR	23	96	1
NMSV_	23	96	1	96	48	0
CNSI_	23	240	0	0	48	6
NMTAP	23	336	5
NMHLD	24	0	5	288
NMSTR	24	96	6
NMSI_	24	96	6	96	32	2
CNSI_	24	224	2	0	32	7
CNSI_	24	256	7	0	32	4
NMTAP	24	336	3
NMHLD	25	0	3	288
NMSTR	25	96	2
NMSI_	25	96	2	96	32	0
CNSI_	25	224	0	0	32	6
CNSI_	25	256	6	0	32	4
NMTAP	26	0	5
NMTAP	26	48	5
NMTAP	26	72	3
NMTAP	26	120	3
NMTAP	26	168	4
NMTAP	26	192	3
NMTAP	26	216	4
NMTAP	26	240	3
BXTAP	26	288	1
BXTAP	26	288	6
NMSTR	27	0	2
NMSI_	27	0	2	96	48	0
NMTAP	27	48	3
NMTAP	27	96	2
NMTAP	27	96	4
NMTAP	27	168	5
NMSTR	27	192	5
NMSI_	27	192	5	96	48	7
NMTAP	27	240	4
NMTAP	27	288	3
NMTAP	27	288	5
NMSTR	28	0	2
NMSI_	28	0	2	96	48	0
NMTAP	28	48	3
NMTAP	28	96	2
NMTAP	28	96	4
NMTAP	28	168	5
NMSTR	28	192	5
NMSI_	28	192	5	96	48	7
NMTAP	28	240	4
NMTAP	28	288	3
NMTAP	28	288	5
NMTAP	28	336	2
NMSTR	29	0	1
NMSI_	29	0	1	96	48	3
NMTAP	29	48	0
NMTAP	29	96	1
NMTAP	29	96	7
NMTAP	29	168	6
NMSTR	29	192	6
NMSI_	29	192	6	96	48	4
NMTAP	29	240	7
NMTAP	29	288	0
NMTAP	29	288	6
NMHLD	30	0	2	72
NMHLD	30	0	3	72
NMTAP	30	120	1
NMTAP	30	120	5
NMTAP	30	168	6
NMSTR	30	192	0
NMSI_	30	192	0	96	48	4
BXTAP	30	288	0
NMTAP	30	288	7
NMTAP	31	0	3
NMTAP	31	0	5
NMTAP	31	96	4
NMTAP	31	96	6
NMTAP	31	192	6
NMTAP	31	192	7
NMTAP	31	264	0
NMTAP	31	288	7
NMTAP	31	336	0
NMTAP	32	0	1
NMTAP	32	0	7
NMTAP	32	96	0
NMTAP	32	96	2
NMTAP	32	192	1
NMTAP	32	192	3
NMTAP	32	264	2
NMTAP	32	288	3
NMTAP	32	336	2
NMTAP	33	0	3
NMTAP	33	0	4
NMTAP	33	48	3
NMTAP	33	48	4
NMTAP	33	96	2
NMTAP	33	96	5
NMTAP	33	144	2
NMTAP	33	144	5
NMTAP	33	192	1
NMTAP	33	216	6
NMTAP	33	240	1
NMTAP	33	264	6
EXSTR	33	288	0
BRSSL	33	288	0	96	48	4
EXSTR	33	288	7
BRSSR	33	288	7	96	48	3
BXTAP	34	0	0
BXTAP	34	0	7
NMTTP	34	192	4	E	0	M1
NMTHO	35	0	0	576	C	0	M1
NMTTP	35	0	1	A	0	M1
NMTTP	35	0	2	E	0	M1
NMTTP	35	0	2	A	0	M1
NMTTP	35	0	2	D	0	M1
NMTTP	35	192	2	B	0	M1
NMTTP	35	288	3	B	0	M1
NMTTP	36	0	4	B	0	M1
NMTTP	36	96	4	A	0	M1
NMTTP	36	192	3	A	0	M1
NMTTP	36	288	2	A	0	M1
NMTHO	37	0	0	576	C	0	M1
NMTTP	37	0	5	A	0	M1
NMTTP	37	0	6	E	0	M1
NMTTP	37	0	6	A	0	M1
NMTTP	37	0	6	D	0	M1
NMTTP	37	96	5	E	0	M1
NMTTP	37	192	4	E	0	M1
NMTTP	37	288	4	A	0	M1
NMTTP	38	0	5	A	0	M1
NMTTP	38	96	6	A	0	M1
NMSTR	38	192	7
NMSI_	38	192	7	96	48	4
BXTAP	38	288	7
NMHLD	39	0	1	48
NMHLD	39	96	2	48
NMHLD	39	96	3	48
NMHLD	39	192	2	72
NMHLD	39	264	3	72
NMTAP	39	336	4
NMHLD	40	0	3	48
NMHLD	40	0	5	48
NMHLD	40	96	4	48
NMHLD	40	96	6	48
NMHLD	40	192	5	72
NMHLD	40	264	4	72
NMTAP	40	336	3
NMTAP	41	0	2
NMTAP	41	0	4
NMTAP	41	48	2
NMTAP	41	48	4
NMTAP	41	96	1
NMTAP	41	96	5
NMTAP	41	144	1
NMTAP	41	144	5
NMTAP	41	192	0
NMTAP	41	216	6
NMTAP	41	240	0
NMTAP	41	264	6
NMTAP	41	288	7
NMTAP	41	312	7
NMTAP	41	336	7
NMTAP	41	360	7
EXTAP	42	0	7
EXTAP	42	96	1
NMTTP	42	96	4	B	0	M1
NMTTP	42	96	5	B	0	M1
NMTTP	42	192	3	E	0	M1
NMTTP	42	192	3	A	0	M1
NMTTP	42	192	3	D	0	M1
EXTAP	42	192	6
EXSTR	42	288	0
BRSI_	42	288	0	96	48	3
EXTAP	42	288	7
BRSTR	43	0	0
BRSI_	43	0	0	96	48	5
EXTAP	43	0	7
BRSTR	43	96	0
BRSI_	43	96	0	96	48	2
EXTAP	43	96	1
BRSTR	43	192	0
BRSI_	43	192	0	96	48	6
EXTAP	43	192	7
BRSTR	43	288	0
BRSI_	43	288	0	96	48	3
EXTAP	43	288	1
BRSTR	44	0	0
BRSI_	44	0	0	96	48	5
EXTAP	44	0	7
BRSTR	44	96	0
BRSI_	44	96	0	96	48	2
EXTAP	44	96	1
BRSTR	44	192	0
BRSI_	44	192	0	96	48	6
EXTAP	44	192	7
BRSTR	44	288	0
BRSI_	44	288	0	96	48	3
EXTAP	44	288	1
BRSTR	45	0	0
BRSI_	45	0	0	96	48	5
EXTAP	45	0	7
BRSTR	45	96	0
BRSI_	45	96	0	96	48	2
EXTAP	45	96	1
BRSTR	45	192	0
BRSI_	45	192	0	96	48	4
EXTAP	45	192	7
BRSTR	45	288	0
BRSF_	45	288	0	96	48	4
EXTAP	45	288	1
BRTAP	46	0	0
NMTAP	46	96	3
NMTAP	46	96	5
NMTAP	46	144	2
NMTAP	46	144	6
BRTAP	46	192	7
BRTAP	46	216	1
BRTAP	46	240	5
BRTAP	46	264	3
BRSTR	46	288	7
BRSI_	46	288	7	96	48	4
EXTAP	47	0	0
BRSTR	47	0	7
BRSI_	47	0	7	96	48	2
EXTAP	47	96	6
BRSTR	47	96	7
BRSI_	47	96	7	96	48	5
EXTAP	47	192	0
BRSTR	47	192	7
BRSI_	47	192	7	96	48	1
EXTAP	47	288	6
BRSTR	47	288	7
BRSI_	47	288	7	96	48	4
EXTAP	48	0	0
BRSTR	48	0	7
BRSI_	48	0	7	96	48	2
EXTAP	48	96	6
BRSTR	48	96	7
BRSI_	48	96	7	96	48	5
EXTAP	48	192	0
BRSTR	48	192	7
BRSI_	48	192	7	96	48	1
EXTAP	48	288	6
BRSTR	48	288	7
BRSI_	48	288	7	96	48	4
EXTAP	49	0	0
BRSTR	49	0	7
BRSI_	49	0	7	96	48	2
EXTAP	49	96	6
BRSTR	49	96	7
BRSI_	49	96	7	96	48	5
EXTAP	49	192	0
BRSTR	49	192	7
BRSI_	49	192	7	96	48	3
EXTAP	49	288	6
BRSTR	49	288	7
NMSCL	49	288	7	96	60	5
CNSI_	50	60	5	0	72	2
CNSCL	50	132	2	0	60	0
CNSSL	50	192	0	0	96	4
BRTAP	50	288	0
BRSTR	51	0	1
BRSI_	51	0	1	96	48	4
BRSTR	51	0	5
BRSI_	51	0	5	96	48	0
BRTAP	51	96	1
BRTAP	51	96	5
NMTAP	51	192	3
BRSTR	51	192	7
BRSI_	51	192	7	96	48	1
NMTAP	51	264	3
BRSTR	51	288	7
BRSI_	51	288	7	96	48	5
NMTAP	51	336	3
BRSTR	52	0	3
BRSI_	52	0	3	96	48	1
BRSTR	52	0	7
BRSI_	52	0	7	96	48	3
BRTAP	52	96	3
BRTAP	52	96	7
BRSTR	52	192	0
BRSI_	52	192	0	96	48	6
NMTAP	52	192	4
NMTAP	52	264	4
BRSTR	52	288	0
BRSI_	52	288	0	96	48	2
NMTAP	52	336	4
BRSTR	53	0	0
BRSI_	53	0	0	96	48	4
BRSTR	53	0	4
BRSI_	53	0	4	96	48	6
BRTAP	53	96	0
BRTAP	53	96	4
NMTAP	53	192	3
BRSTR	53	192	7
BRSI_	53	192	7	96	48	1
NMTAP	53	264	3
BRSTR	53	288	7
BRSF_	53	288	7	96	48	3
NMTAP	53	336	3
BRTAP	54	0	7
NMTAP	54	96	2
NMTAP	54	96	4
NMTAP	54	144	1
NMTAP	54	144	5
BRTAP	54	192	1
BRTAP	54	216	7
BRTAP	54	240	3
BRTAP	54	264	5
BRSTR	54	288	1
BRSI_	54	288	1	96	72	4
BRTAP	55	0	1
BRSTR	55	0	6
BRSI_	55	0	6	96	48	3
BRSTR	55	96	2
BRSI_	55	96	2	96	48	7
BRTAP	55	96	6
BRTAP	55	192	2
BRSTR	55	192	5
BRSI_	55	192	5	96	48	0
BRTAP	55	288	5
BRSTR	55	288	7
BRSF_	55	288	7	96	48	3
BRTAP	56	0	7
NMTAP	56	96	1
NMTAP	56	96	5
NMTAP	56	144	2
NMTAP	56	144	6
NMTAP	56	192	3
NMTAP	56	192	7
NMTAP	56	216	2
NMTAP	56	216	6
NMTAP	56	240	1
NMTAP	56	240	5
NMTAP	56	264	0
NMTAP	56	264	4
BRTAP	56	288	3
BRTAP	56	288	7
NMTAP	57	0	7
NMTAP	57	24	3
NMTAP	57	48	0
NMTAP	57	72	4
NMTAP	57	96	1
NMTAP	57	120	5
NMTAP	57	144	2
NMTAP	57	168	6
EXTAP	57	192	3
NMTAP	57	204	4
NMTAP	57	216	5
NMTAP	57	228	6
NMTAP	57	240	7
NMTAP	57	252	0
NMTAP	57	264	1
NMTAP	57	276	2
NMTAP	57	288	3
NMTAP	57	300	4
NMTAP	57	312	5
NMTAP	57	324	6
NMTAP	57	336	7
NMTAP	57	348	0
NMTAP	57	360	1
NMTAP	57	372	2
NMTHO	58	0	0	288	C	1	M1
NMTAP	58	0	3
NMSTR	58	192	0
NMSI_	58	192	0	96	48	4
BRTAP	58	288	0
EXHLD	59	0	6	1392
NMTTP	59	96	2	E	0	M1
NMTTP	59	108	2	B	0	M1
NMTTP	59	288	3	B	0	M1
NMTTP	59	300	4	E	0	M1
NMTTP	60	96	3	D	0	M1
NMTTP	60	108	3	A	0	M1
NMTTP	60	288	2	E	0	M1
NMTTP	60	300	2	B	0	M1
NMTTP	61	96	3	B	0	M1
NMTTP	61	108	4	E	0	M1
NMTTP	61	288	3	D	0	M1
NMTTP	61	300	3	A	0	M1
NMTTP	62	96	2	E	0	M1
NMTTP	62	108	2	B	0	M1
NMTTP	62	192	4	D	0	M1
NMTTP	62	208	4	A	0	M1
NMTTP	62	224	5	D	0	M1
NMTTP	62	240	5	A	0	M1
EXTAP	62	288	0
EXTAP	62	288	6
NMTAP	63	0	4
NMTAP	63	96	0
NMTAP	63	96	4
NMTAP	63	192	5
NMTAP	63	288	4
NMTAP	63	288	5
NMTAP	64	0	6
NMTAP	64	96	1
NMTAP	64	96	6
NMTAP	64	192	7
NMTAP	64	288	4
NMTAP	64	288	7
NMTAP	65	0	3
NMTAP	65	0	4
NMTAP	65	48	3
NMTAP	65	96	2
NMTAP	65	96	7
NMTAP	65	144	2
EXHLD	65	192	1	24
NMTAP	65	192	3
EXHLD	65	240	1	24
EXHLD	65	288	0	24
NMTAP	65	288	5
EXHLD	65	336	0	24
NMTTP	66	0	7	A	0	M1
NMTTP	66	12	7	D	0	M1
NMTTP	66	24	6	A	0	M1
NMTTP	66	36	6	D	0	M1
NMTTP	66	48	5	A	0	M1
NMTTP	66	60	5	D	0	M1
NMTTP	66	72	4	A	0	M1
NMTTP	66	84	4	D	0	M1
NMTTP	66	96	3	A	0	M1
NMTTP	66	108	3	D	0	M1
NMTTP	66	120	2	A	0	M1
NMTTP	66	132	2	D	0	M1
NMTTP	66	144	1	A	0	M1
NMTTP	66	156	1	D	0	M1
NMTTP	66	168	0	A	0	M1
NMTTP	66	180	0	D	0	M1
NMTTP	66	192	7	A	0	M1
NMTTP	66	204	7	D	0	M1
NMTTP	66	216	6	A	0	M1
NMTTP	66	228	6	D	0	M1
NMTTP	66	240	5	A	0	M1
NMTTP	66	252	5	D	0	M1
NMTTP	66	264	4	A	0	M1
NMTTP	66	276	4	D	0	M1
NMTTP	66	288	0	C	0	M1
NMTTP	66	288	3	A	1	M1
NMHLD	67	0	0	96
NMHLD	67	0	6	96
NMTAP	67	192	2
NMTAP	67	192	3
NMTAP	67	264	4
NMTAP	67	264	5
NMTAP	67	336	2
NMTAP	67	336	6
NMHLD	68	0	2	96
NMHLD	68	0	6	96
NMTAP	68	192	4
NMTAP	68	192	5
NMTAP	68	264	2
NMTAP	68	264	3
NMTAP	68	336	1
NMTAP	68	336	5
NMHLD	69	0	1	96
NMHLD	69	0	5	96
NMTAP	69	192	6
NMTAP	69	192	7
NMTAP	69	264	0
NMTAP	69	264	7
NMTAP	69	336	0
NMTAP	69	336	1
NMHLD	70	0	2	72
NMHLD	70	72	3	72
NMHLD	70	144	4	72
NMTAP	70	216	5
BXTAP	70	288	1
BXTAP	70	288	6
NMTAP	71	0	0
NMHLD	71	0	7	384
NMTAP	71	96	6
NMTAP	71	192	1
NMTAP	71	288	5
NMHLD	72	0	3	384
NMTAP	72	96	1
NMTAP	72	192	5
NMTAP	72	288	2
NMTAP	73	0	4
NMTAP	73	48	4
NMTAP	73	96	5
NMTAP	73	96	7
NMTAP	73	144	5
NMTAP	73	192	3
EXHLD	73	192	6	24
EXHLD	73	240	6	24
NMSTR	73	288	0
NMSLR	73	288	0	96	96	4
NMSTR	73	288	7
NMSLL	73	288	7	96	96	3
CNSV_	74	96	3	0	96	6
CNSV_	74	96	4	0	96	1
BXTAP	74	288	0
BXTAP	74	288	7
NMSTR	75	0	1
NMSI_	75	0	1	96	48	4
NMTAP	75	0	4
NMTAP	75	48	2
NMTAP	75	72	3
NMTAP	75	96	1
NMTAP	75	144	5
NMSTR	75	192	6
NMSI_	75	192	6	96	48	2
NMTAP	75	216	3
NMTAP	75	240	7
NMTAP	75	288	2
NMTAP	75	288	6
NMTAP	75	336	1
CNSI_	75	336	2	0	48	5
NMSTR	76	0	0
NMSI_	76	0	0	96	48	3
NMTAP	76	48	7
NMTAP	76	72	6
NMTAP	76	96	0
NMTAP	76	144	7
NMSTR	76	192	0
NMSI_	76	192	0	96	48	5
NMSTR	76	192	4
NMSI_	76	192	4	96	48	1
NMTAP	76	240	3
NMTAP	76	240	7
NMTAP	76	288	0
NMTAP	76	288	4
NMTAP	77	0	2
NMSTR	77	0	6
NMSI_	77	0	6	96	48	3
NMTAP	77	48	5
NMTAP	77	72	4
NMTAP	77	96	6
NMTAP	77	144	2
NMSTR	77	192	1
NMSI_	77	192	1	96	48	5
NMTAP	77	216	4
NMTAP	77	240	0
NMTAP	77	288	1
NMTAP	77	288	5
CNSI_	77	336	5	0	48	2
NMTAP	77	336	6
NMSTR	78	0	7
NMSI_	78	0	7	96	48	4
NMTAP	78	48	0
NMTAP	78	72	1
NMTAP	78	96	7
NMTAP	78	144	0
NMSTR	78	192	7
NMSUR	78	192	7	96	48	3
NMSV_	78	192	7	96	48	4
NMTAP	78	240	0
NMTAP	78	240	6
BXTAP	78	288	7
NMSTR	79	0	2
NMSI_	79	0	2	96	48	5
NMSTR	79	0	5
NMSI_	79	0	5	96	48	0
NMTAP	79	48	1
NMTAP	79	48	4
NMTAP	79	96	2
NMTAP	79	96	5
NMSTR	79	192	4
NMSI_	79	192	4	96	48	1
NMSTR	79	192	7
NMSI_	79	192	7	96	48	4
NMTAP	79	240	3
NMTAP	79	240	6
NMTAP	79	288	4
NMTAP	79	288	7
NMSTR	80	0	0
NMSI_	80	0	0	96	48	3
NMSTR	80	0	5
NMSI_	80	0	5	96	48	3
NMTAP	80	48	6
NMTAP	80	48	7
NMTAP	80	96	0
NMTAP	80	96	5
NMSTR	80	192	2
NMSI_	80	192	2	96	48	7
NMSTR	80	192	4
NMSI_	80	192	4	96	48	7
NMTAP	80	240	1
NMTAP	80	240	5
NMTAP	80	288	2
NMTAP	80	288	4
NMTAP	81	0	0
NMTAP	81	24	6
NMTAP	81	48	1
NMTAP	81	72	6
NMTAP	81	96	2
NMTAP	81	120	6
NMTAP	81	144	3
NMTAP	81	168	6
NMTAP	81	192	4
NMTAP	81	216	6
NMTAP	81	240	5
NMTAP	81	264	6
NMTAP	81	288	7
NMTAP	81	312	6
NMTAP	81	336	0
NMTAP	82	0	1
NMTAP	82	0	7
NMTAP	82	48	2
NMTAP	82	72	3
NMTAP	82	120	5
NMTAP	82	144	4
NMTAP	82	192	3
NMTAP	82	192	4
NMTAP	82	240	0
NMTAP	82	240	7
BRTAP	82	288	1
BRTAP	82	288	6
NMHLD	83	0	2	480
NMTAP	83	96	3
NMTAP	83	192	4
NMTAP	83	264	4
NMTAP	83	336	4
NMTAP	84	0	4
NMTAP	84	96	3
NMTAP	84	192	2
NMTAP	84	192	3
NMTAP	84	264	3
NMTAP	84	264	4
NMTAP	84	336	4
NMTAP	84	336	5
NMTAP	85	0	4
NMHLD	85	0	5	480
NMTAP	85	96	4
NMTAP	85	192	3
NMTAP	85	264	3
NMTAP	85	336	3
NMTAP	86	0	3
NMTAP	86	96	4
NMTAP	86	192	4
NMTAP	86	192	5
NMTAP	86	264	3
NMTAP	86	264	4
NMTAP	86	336	2
NMTAP	86	336	3
NMHLD	87	0	2	192
NMTAP	87	0	3
NMTAP	87	96	1
NMTAP	87	192	3
NMTAP	87	264	3
NMTAP	87	264	4
NMTAP	87	336	4
NMTAP	87	336	5
NMTAP	88	0	4
NMHLD	88	0	5	192
NMTAP	88	96	6
NMTAP	88	192	4
NMTAP	88	264	3
NMTAP	88	264	4
NMTAP	88	336	2
NMTAP	88	336	5
NMHLD	89	0	2	48
NMHLD	89	0	5	48
NMHLD	89	96	1	48
NMHLD	89	96	6	48
NMTAP	89	192	0
NMTAP	89	216	7
NMTAP	89	240	0
NMTAP	89	264	7
NMSTR	89	288	0
NMSF_	89	288	0	96	48	4
NMTAP	89	336	1
NMTAP	89	336	7
BRTAP	90	0	0
NMSTR	90	192	2
NMSI_	90	192	2	96	48	6
NMSTR	90	240	5
NMSI_	90	240	5	96	48	1
EXTAP	90	288	2
EXTAP	90	336	5

T_REC_TAP	382
T_REC_BRK	28
T_REC_XTP	43
T_REC_BXX	15
T_REC_HLD	44
T_REC_XHO	16
T_REC_BHO	0
T_REC_BXH	0
T_REC_STR	41
T_REC_BST	42
T_REC_XST	3
T_REC_XBS	0
T_REC_TTP	72
T_REC_THO	3
T_REC_SLD	42
T_REC_BSL	45
T_REC_ALL	776
T_NUM_TAP	541
T_NUM_BRK	130
T_NUM_HLD	63
T_NUM_SLD	42
T_NUM_ALL	776
T_JUDGE_TAP	626
T_JUDGE_HLD	246
T_JUDGE_SLD	87
T_JUDGE_ALL	959
TTM_EACHPAIRS	171
TTM_SCR_TAP	270500
TTM_SCR_BRK	338000
TTM_SCR_HLD	63000
TTM_SCR_SLD	63000
TTM_SCR_ALL	734500
TTM_SCR_S	699900
TTM_SCR_SS	721500
TTM_RAT_ACV	10180

