VERSION	0.00.00	1.04.00
FES_MODE	0
BPM_DEF	160.000	160.000	160.000	160.000
MET_DEF	4	4
RESOLUTION	384
CLK_DEF	384
COMPATIBLE_CODE	MA2

BPM	0	0	160.000
MET	0	0	4	4

NMHLD	3	0	2	672
NMTAP	3	96	4
NMTAP	3	288	4
NMTAP	4	96	3
NMTAP	4	288	3
NMHLD	5	0	5	672
NMTAP	5	96	3
NMTAP	5	288	3
NMTAP	6	96	4
NMTAP	6	288	4
NMHLD	7	0	2	288
NMTAP	7	96	4
NMTAP	7	192	3
NMTAP	7	288	3
NMHLD	8	0	5	288
NMTAP	8	96	3
NMTAP	8	192	4
NMTAP	8	288	4
NMSTR	9	0	2
NMSXR	9	0	2	96	192	6
EXHLD	10	0	0	96
EXHLD	10	0	7	96
NMTTP	10	192	3	B	0	M1
NMTTP	10	192	4	B	0	M1
NMTTP	10	192	4	E	0	M1
NMTAP	10	288	1
NMTAP	10	288	6
NMHLD	11	0	2	96
NMTAP	11	96	0
NMTAP	11	192	6
NMTAP	11	240	6
NMTAP	11	288	7
NMHLD	12	0	1	96
NMTAP	12	96	0
NMTAP	12	192	6
NMTAP	12	288	5
NMTAP	12	288	7
NMHLD	13	0	1	96
NMTAP	13	96	0
NMTAP	13	192	5
NMTAP	13	240	5
NMTAP	13	288	7
NMHLD	14	0	2	96
NMTAP	14	96	0
NMTAP	14	192	6
BRTAP	14	288	5
BRTAP	14	288	7
NMTAP	15	0	0
NMTAP	15	0	1
NMTAP	15	96	2
NMTAP	15	192	3
NMTAP	15	192	4
NMTAP	15	288	5
NMTAP	16	0	6
NMTAP	16	0	7
NMTAP	16	96	5
NMTAP	16	192	3
NMTAP	16	192	4
NMTAP	16	288	2
NMTAP	17	0	0
NMTAP	17	0	1
NMTAP	17	96	7
NMTAP	17	144	7
NMSTR	17	192	0
BRSCR	17	192	0	96	96	4
NMTAP	17	192	6
NMTAP	18	192	0
NMTAP	18	192	7
EXTAP	18	288	2
EXTAP	18	288	5
BRHLD	19	0	1	96
BRHLD	19	0	3	96
EXTAP	19	192	1
EXTAP	19	192	3
EXTAP	19	264	1
EXTAP	19	264	3
EXTAP	19	336	1
EXTAP	19	336	3
EXSTR	20	0	1
NMSCR	20	0	1	96	48	3
NMTAP	20	192	4
NMTAP	20	240	4
NMTAP	20	288	3
NMHLD	21	0	4	96
NMHLD	21	0	6	96
EXTAP	21	192	4
EXTAP	21	192	6
EXTAP	21	264	4
EXTAP	21	264	6
EXTAP	21	336	4
EXTAP	21	336	6
EXSTR	22	0	6
NMSCL	22	0	6	96	96	4
NMTAP	22	192	3
NMTAP	22	288	1
NMTAP	22	288	4
EXHLD	23	0	1	96
EXHLD	23	0	3	96
EXTAP	23	192	2
EXTAP	23	192	3
EXTAP	23	264	2
EXTAP	23	264	3
EXTAP	23	336	2
EXTAP	23	336	3
EXSTR	24	0	2
NMSI_	24	0	2	96	48	4
NMTAP	24	192	5
NMTAP	24	240	5
NMTAP	24	288	4
NMHLD	25	0	4	96
NMHLD	25	0	6	96
EXTAP	25	192	4
EXTAP	25	192	5
EXTAP	25	264	4
EXTAP	25	264	5
EXTAP	25	336	4
EXTAP	25	336	5
EXSTR	26	0	5
NMSI_	26	0	5	96	48	3
NMTAP	26	192	2
NMTAP	26	240	2
NMTAP	26	288	1
NMTAP	26	288	3
NMTAP	27	0	0
NMTAP	27	0	7
NMTAP	27	96	1
NMTAP	27	96	3
NMTAP	27	192	4
NMHLD	27	192	5	96
NMTAP	27	288	7
NMTAP	28	0	6
NMTAP	28	0	7
NMTAP	28	96	4
NMTAP	28	96	5
NMTAP	28	192	2
NMTAP	28	240	2
NMTAP	28	288	0
NMTAP	29	0	0
NMTAP	29	0	1
NMTAP	29	96	2
NMTAP	29	96	3
NMTAP	29	192	4
NMHLD	29	192	5	96
NMTAP	29	288	7
NMTAP	30	0	6
NMTAP	30	0	7
NMTAP	30	96	5
NMSTR	30	192	3
NMSI_	30	192	3	96	48	1
NMSTR	30	192	4
NMSI_	30	192	4	96	48	0
NMTAP	31	0	7
NMTAP	31	96	4
NMTAP	31	96	6
NMTAP	31	192	2
NMTAP	31	192	3
NMTAP	31	288	0
NMTAP	31	288	1
NMTAP	32	0	0
NMTAP	32	96	1
NMTAP	32	96	3
NMTAP	32	192	5
NMTAP	32	240	5
NMTAP	32	288	7
NMTAP	33	0	6
NMTAP	33	48	6
NMTAP	33	96	7
NMTAP	33	144	7
NMTAP	33	192	5
NMTAP	33	240	5
NMTAP	33	288	0
BXTAP	34	0	1
BXTAP	34	0	4
NMTAP	35	0	3
NMHLD	35	0	5	768
EXTAP	35	96	4
NMTAP	35	192	6
EXTAP	35	288	7
NMTAP	36	0	0
EXTAP	36	96	1
NMTAP	36	192	2
EXTAP	36	288	3
NMHLD	37	0	4	672
EXTAP	37	96	5
NMTAP	37	192	3
EXTAP	37	288	2
NMTAP	38	0	1
EXTAP	38	96	0
NMTAP	38	192	7
EXTAP	38	288	6
NMHLD	39	0	6	96
NMTAP	39	96	5
EXTAP	39	192	4
EXTAP	39	192	5
EXTAP	39	264	3
EXTAP	39	264	4
EXTAP	39	336	2
EXTAP	39	336	3
NMHLD	40	0	1	96
NMTAP	40	96	2
EXTAP	40	192	2
EXTAP	40	192	3
EXTAP	40	264	3
EXTAP	40	264	4
EXTAP	40	336	4
EXTAP	40	336	5
NMTAP	41	0	6
NMSTR	41	96	6
NMSI_	41	96	6	96	96	2
NMSTR	41	96	7
NMSI_	41	96	7	96	96	3
NMTTP	42	0	0	E	0	M1
NMTTP	42	96	0	C	0	M1
NMTTP	42	192	4	E	0	M1
NMTAP	43	0	2
NMTAP	43	0	3
NMTAP	43	96	0
NMTAP	43	96	1
NMHLD	43	192	1	72
NMHLD	43	264	3	72
NMTAP	43	336	4
NMTAP	44	0	4
NMTAP	44	96	6
NMTAP	44	96	7
NMHLD	44	192	6	72
NMHLD	44	264	4	72
NMTAP	44	336	3
NMTAP	45	0	3
NMTAP	45	96	0
NMTAP	45	96	1
NMHLD	45	192	2	72
NMHLD	45	264	3	72
NMTAP	45	336	4
NMTAP	46	0	4
NMTAP	46	96	6
NMTAP	46	96	7
EXTAP	46	192	0
EXTAP	46	216	7
EXTAP	46	240	0
EXTAP	46	264	7
EXTAP	46	288	0
NMTAP	47	0	0
NMTAP	47	0	1
NMTAP	47	96	2
NMTAP	47	96	3
NMHLD	47	192	2	72
NMHLD	47	264	0	72
NMTAP	47	336	7
NMTAP	48	0	7
NMTAP	48	96	4
NMTAP	48	96	5
NMHLD	48	192	5	72
NMHLD	48	264	7	72
NMTAP	48	336	0
NMTAP	49	0	0
NMTAP	49	96	2
NMTAP	49	96	3
NMHLD	49	192	2	72
NMHLD	49	264	0	72
NMTAP	49	336	7
NMSTR	50	0	7
NMSCR	50	0	7	96	144	4
NMSTR	51	0	2
NMSI_	51	0	2	96	48	0
NMHLD	51	0	3	576
NMSTR	51	192	2
NMSI_	51	192	2	96	48	0
NMSTR	52	0	2
NMSI_	52	0	2	96	48	0
NMTAP	52	192	1
NMTAP	52	288	2
NMTAP	52	288	4
NMHLD	53	0	4	480
NMSTR	53	0	5
NMSI_	53	0	5	96	48	7
NMSTR	53	192	5
NMSI_	53	192	5	96	48	7
NMSTR	54	0	5
NMSI_	54	0	5	96	48	7
EXTAP	54	192	0
EXTAP	54	216	7
EXTAP	54	240	0
EXTAP	54	264	7
EXTAP	54	288	0
NMSTR	55	0	2
NMSI_	55	0	2	96	48	7
NMHLD	55	0	3	480
NMSTR	55	192	2
NMSI_	55	192	2	96	48	7
NMSTR	56	0	2
NMSI_	56	0	2	96	24	7
EXTAP	56	192	1
EXTAP	56	216	0
EXTAP	56	240	1
EXTAP	56	264	0
EXTAP	56	288	1
NMTAP	57	0	2
NMTAP	57	48	2
NMTAP	57	96	3
NMTAP	57	144	3
NMTAP	57	192	1
NMTAP	57	240	1
NMSTR	57	288	3
NMSF_	57	288	3	96	96	7
BRTAP	58	288	1
BRTAP	58	288	5
NMTHO	59	0	0	864	C	0	M1
NMTTP	61	96	4	A	0	M1
NMTTP	61	288	5	A	0	M1
NMTTP	62	96	1	A	0	M1
NMTTP	62	96	6	A	0	M1
EXTAP	62	192	0
EXTAP	62	192	7
EXTAP	62	288	1
EXTAP	62	288	6
NMTAP	63	0	2
NMTAP	63	0	3
NMTAP	63	96	4
NMTAP	63	96	5
NMTAP	63	192	6
NMTAP	63	192	7
NMTAP	63	288	0
NMTAP	63	288	1
NMTAP	64	0	2
NMTAP	64	0	4
NMTAP	64	96	5
NMTAP	64	192	6
NMTAP	64	192	7
NMTAP	64	288	0
NMTAP	64	288	7
EXTAP	65	0	0
EXTAP	65	48	1
EXTAP	65	96	2
EXTAP	65	144	3
EXTAP	65	192	4
EXTAP	65	240	5
EXTAP	65	288	6
EXTAP	65	336	7
EXSTR	66	0	0
NMSI_	66	0	0	96	48	4
BRTAP	66	288	1
BRTAP	66	288	6
NMHLD	67	0	0	96
NMHLD	67	0	1	96
NMTAP	67	192	1
NMTAP	67	192	3
NMTAP	67	264	3
NMTAP	67	264	4
NMTAP	67	336	4
NMTAP	67	336	6
NMHLD	68	0	4	96
NMHLD	68	0	6	96
NMTAP	68	192	4
NMTAP	68	192	6
NMTAP	68	264	3
NMTAP	68	264	4
NMTAP	68	336	1
NMTAP	68	336	3
NMHLD	69	0	1	96
NMHLD	69	0	3	96
NMTAP	69	192	1
NMTAP	69	192	3
NMTAP	69	264	3
NMTAP	69	264	4
NMTAP	69	336	4
NMTAP	69	336	6
EXTAP	70	0	4
EXTAP	70	0	6
EXTAP	70	72	6
EXTAP	70	72	7
EXTAP	70	144	1
EXTAP	70	144	7
EXTAP	70	216	2
EXTAP	70	216	3
BRTAP	70	288	0
BRTAP	70	288	5
NMTAP	71	0	1
NMTAP	71	0	3
NMTAP	71	96	1
NMTAP	71	96	2
NMTAP	71	192	0
NMTAP	71	240	0
NMTAP	71	288	1
NMTAP	71	288	7
NMTAP	72	0	4
NMTAP	72	0	6
NMTAP	72	96	5
NMTAP	72	96	6
NMTAP	72	192	7
NMTAP	72	240	7
NMTAP	72	288	0
NMTAP	72	288	6
NMTAP	73	0	2
NMTAP	73	48	2
NMTAP	73	96	3
NMTAP	73	144	3
NMSTR	73	192	1
BRSCR	73	192	1	96	96	5
BXTAP	74	0	7
NMHLD	75	0	1	72
NMTAP	75	0	4
NMHLD	75	72	3	72
NMSTR	75	144	5
NMSUL	75	144	5	96	48	1
NMTAP	75	240	7
NMTAP	75	288	7
NMHLD	76	0	6	72
NMHLD	76	72	4	72
NMSTR	76	144	2
NMSUR	76	144	2	96	48	6
NMTAP	76	240	0
NMTAP	76	288	0
EXTAP	77	0	0
EXTAP	77	0	1
EXTAP	77	72	3
EXTAP	77	72	4
EXSTR	77	144	0
NMSI_	77	144	0	96	48	4
EXSTR	77	144	1
NMSI_	77	144	1	96	48	3
EXTAP	78	0	6
EXTAP	78	0	7
EXTAP	78	72	3
EXTAP	78	72	4
EXSTR	78	144	6
NMSI_	78	144	6	96	48	2
EXSTR	78	144	7
NMSI_	78	144	7	96	48	3
NMTAP	79	0	0
NMHLD	79	0	6	72
NMHLD	79	72	4	72
NMSTR	79	144	2
NMSUR	79	144	2	96	48	6
NMTAP	79	240	0
NMTAP	79	288	0
NMHLD	80	0	1	72
NMHLD	80	72	3	72
NMSTR	80	144	5
NMSUL	80	144	5	96	48	1
NMTAP	80	240	6
NMTAP	80	288	6
EXTAP	81	0	7
EXTAP	81	48	0
EXTAP	81	96	1
EXTAP	81	144	2
EXTAP	81	192	3
EXTAP	81	240	4
EXTAP	81	288	5
EXTAP	81	336	6
NMSTR	82	0	3
NMSCL	82	0	3	96	96	0
NMSTR	82	0	7
NMSCL	82	0	7	96	96	4
BXTAP	82	288	1
BXTAP	82	288	5
NMTAP	83	0	2
NMHLD	83	48	2	192
NMTAP	83	144	3
NMTAP	83	240	1
NMTAP	83	336	6
NMTAP	83	336	7
NMTAP	84	48	4
NMTAP	84	48	5
NMTAP	84	144	2
NMTAP	84	144	3
NMTAP	84	240	0
NMTAP	84	240	5
NMTAP	84	288	0
NMTAP	84	288	5
NMTAP	85	0	4
NMHLD	85	48	4	192
NMTAP	85	144	3
NMTAP	85	240	5
NMTAP	85	336	6
NMTAP	85	336	7
NMTAP	86	48	0
NMTAP	86	48	1
NMTAP	86	144	2
NMTAP	86	144	3
NMTAP	86	240	0
NMTAP	86	240	5
NMTAP	86	288	0
NMTAP	86	288	5
NMTAP	87	0	6
NMTAP	87	0	7
NMTAP	87	96	2
NMTAP	87	96	3
NMTAP	87	192	0
NMTAP	87	192	1
NMTAP	87	288	4
NMTAP	87	288	5
NMTAP	88	0	6
NMTAP	88	0	7
NMTAP	88	96	2
NMTAP	88	96	3
NMSTR	88	192	0
NMSI_	88	192	0	96	48	5
NMSTR	88	192	1
NMSI_	88	192	1	96	48	4
NMTAP	89	0	3
NMTAP	89	48	3
NMTAP	89	96	6
NMTAP	89	144	6
EXTAP	89	192	1
EXTAP	89	216	0
EXTAP	89	240	1
EXTAP	89	264	0
EXTAP	89	288	1
BXTAP	90	0	2
BXTAP	90	0	7
EXTAP	90	192	0
EXSTR	90	192	1
NMSCR	90	192	1	96	48	4

T_REC_TAP	257
T_REC_BRK	8
T_REC_XTP	103
T_REC_BXX	7
T_REC_HLD	49
T_REC_XHO	4
T_REC_BHO	2
T_REC_BXH	0
T_REC_STR	26
T_REC_BST	0
T_REC_XST	10
T_REC_XBS	0
T_REC_TTP	10
T_REC_THO	1
T_REC_SLD	34
T_REC_BSL	2
T_REC_ALL	513
T_NUM_TAP	406
T_NUM_BRK	19
T_NUM_HLD	54
T_NUM_SLD	34
T_NUM_ALL	513
T_JUDGE_TAP	421
T_JUDGE_HLD	216
T_JUDGE_SLD	36
T_JUDGE_ALL	673
TTM_EACHPAIRS	129
TTM_SCR_TAP	203000
TTM_SCR_BRK	49400
TTM_SCR_HLD	54000
TTM_SCR_SLD	51000
TTM_SCR_ALL	357400
TTM_SCR_S	344850
TTM_SCR_SS	355500
TTM_RAT_ACV	10053

