VERSION	0.00.00	1.04.00
FES_MODE	0
BPM_DEF	155.000	155.000	155.000	155.000
MET_DEF	4	4
RESOLUTION	384
CLK_DEF	384
COMPATIBLE_CODE	MA2

BPM	0	0	155.000
MET	0	0	4	4

NMTAP	1	192	3
NMTAP	1	288	3
NMHLD	2	0	2	192
NMHLD	2	0	4	192
NMTAP	2	288	2
NMTAP	3	0	2
NMTAP	3	0	4
NMTAP	3	96	3
NMTAP	3	96	5
NMTAP	3	144	3
NMTAP	3	144	5
NMTAP	3	240	4
NMTAP	3	240	6
NMHLD	4	0	6	480
NMTAP	4	192	4
NMTAP	4	288	3
NMHLD	4	336	3	144
NMTAP	5	192	6
NMTAP	5	288	3
NMTAP	5	288	5
NMTAP	6	0	2
NMSTR	6	0	4
NMSI_	6	0	4	96	192	7
NMTAP	6	192	2
NMTAP	6	288	1
NMSTR	7	0	0
NMSUR	7	0	0	96	288	7
NMTAP	8	144	0
NMTAP	8	192	0
NMTAP	8	288	1
NMHLD	8	336	1	432
NMTAP	9	192	7
NMTAP	9	288	0
NMTAP	10	0	2
NMTAP	10	96	1
NMTAP	10	96	3
NMTAP	10	144	1
NMTAP	10	144	3
NMTAP	10	240	2
NMTAP	10	240	4
NMHLD	10	336	3	96
NMHLD	10	336	5	96
EXTAP	11	144	3
EXTAP	11	144	5
EXTAP	11	240	2
EXTAP	11	240	4
EXTAP	11	336	1
EXTAP	11	336	3
NMTAP	12	48	1
NMTAP	12	96	1
NMTAP	12	144	3
NMTAP	12	240	1
NMTAP	12	240	4
NMHLD	12	336	0	96
NMHLD	12	336	6	96
EXTAP	13	144	0
EXTAP	13	144	6
EXTAP	13	240	1
EXTAP	13	240	5
EXTAP	13	336	2
EXTAP	13	336	4
NMTAP	14	48	3
NMTAP	14	96	3
NMTAP	14	144	5
NMTAP	14	240	3
NMTAP	14	240	6
NMHLD	14	336	1	96
NMHLD	14	336	7	96
NMTAP	15	144	3
NMTAP	15	144	5
NMTAP	15	240	1
NMTAP	15	240	7
NMTAP	15	336	2
NMTAP	15	336	6
NMTTP	16	48	1	A	0	M1
NMTTP	16	96	2	A	0	M1
NMTTP	16	144	3	A	0	M1
NMTTP	16	192	4	A	0	M1
NMTTP	16	240	5	A	0	M1
NMTTP	16	288	6	A	0	M1
NMTAP	17	0	0
NMTAP	17	0	7
NMTAP	17	48	0
NMTAP	17	48	7
NMHLD	17	144	2	144
NMHLD	17	144	5	96
NMTAP	18	0	3
NMTAP	18	96	3
NMTAP	18	192	2
NMTAP	18	192	4
NMTAP	18	288	2
NMTAP	18	288	4
NMTAP	19	0	1
NMTAP	19	0	3
NMTAP	19	96	1
NMTAP	19	144	3
NMTAP	19	192	2
NMTAP	19	240	4
NMTAP	19	288	3
NMTAP	19	336	5
NMTAP	20	0	4
NMTAP	20	0	6
NMTAP	20	96	6
NMTAP	20	192	4
NMTAP	20	192	5
NMTAP	20	288	4
NMTAP	20	288	5
NMTAP	21	0	4
NMTAP	21	0	6
NMTAP	21	96	6
NMTAP	21	144	4
NMTAP	21	192	5
NMTAP	21	240	3
NMTAP	21	288	4
NMTAP	21	336	2
NMTAP	22	0	1
NMTAP	22	0	3
NMTAP	22	48	2
NMTAP	22	96	2
NMTAP	22	192	4
NMTAP	22	192	6
NMTAP	22	240	5
NMTAP	22	288	5
NMTAP	23	0	0
NMTAP	23	0	3
NMTAP	23	48	1
NMTAP	23	96	1
NMTAP	23	192	4
NMTAP	23	192	7
NMTAP	23	240	6
NMTAP	23	288	6
NMTAP	24	0	1
NMTAP	24	0	4
NMTAP	24	48	2
NMTAP	24	96	3
NMTAP	24	96	6
NMTAP	24	144	5
NMTAP	24	192	0
NMTAP	24	192	4
NMTAP	24	240	0
NMTAP	24	240	4
EXTAP	24	288	1
EXTAP	24	312	3
EXTAP	24	336	1
EXTAP	24	360	3
EXTAP	25	0	1
NMTAP	25	96	4
NMTAP	25	96	5
NMTAP	25	192	6
NMTAP	25	216	7
NMTAP	25	240	6
NMSTR	25	288	0
NMSLR	25	288	0	96	48	4
NMHLD	25	288	4	48
BRTAP	26	0	0
BRSTR	26	0	6
NMSI_	26	0	6	96	48	2
NMSTR	26	96	4
NMSI_	26	96	4	96	48	0
NMTAP	26	96	6
NMTAP	26	192	4
NMSTR	26	192	6
NMSI_	26	192	6	96	48	4
NMSTR	26	288	0
NMSLR	26	288	0	96	48	4
NMTAP	26	288	6
NMTAP	27	0	0
NMSTR	27	0	6
NMSI_	27	0	6	96	48	0
NMSTR	27	96	4
NMSI_	27	96	4	96	48	0
NMTAP	27	96	6
NMTAP	27	192	4
NMSTR	27	192	6
NMSI_	27	192	6	96	48	2
NMSTR	27	288	0
NMSLR	27	288	0	96	48	4
EXTAP	27	288	6
EXTAP	27	336	7
EXTAP	28	0	0
EXSTR	28	0	6
NMSI_	28	0	6	96	48	0
NMSTR	28	96	4
NMSI_	28	96	4	96	48	0
NMTAP	28	96	6
NMTAP	28	192	4
NMSTR	28	192	6
NMSI_	28	192	6	96	48	4
NMSTR	28	288	0
NMSLR	28	288	0	96	48	4
NMTAP	28	288	6
NMTAP	29	0	0
NMSTR	29	0	6
BRSI_	29	0	6	96	48	2
BRTAP	29	96	0
BRTAP	29	96	6
NMTAP	29	192	1
NMTAP	29	192	3
NMTAP	29	240	0
NMTAP	29	288	4
NMTAP	29	288	6
NMTAP	29	336	7
NMSTR	30	0	1
NMSI_	30	0	1	96	48	3
NMTAP	30	0	3
NMTAP	30	96	1
NMSTR	30	96	7
NMSLL	30	96	7	96	48	3
NMSTR	30	192	1
NMSI_	30	192	1	96	48	7
NMTAP	30	192	7
NMTAP	30	288	1
NMSTR	30	288	3
NMSI_	30	288	3	96	48	7
NMSTR	31	0	1
NMSI_	31	0	1	96	48	5
NMTAP	31	0	3
NMTAP	31	96	1
NMSTR	31	96	7
NMSLL	31	96	7	96	48	3
NMSTR	31	192	1
NMSI_	31	192	1	96	48	7
NMTAP	31	192	7
NMTAP	31	288	1
NMSTR	31	288	3
NMSI_	31	288	3	96	48	7
NMSTR	32	0	1
BRSI_	32	0	1	96	48	5
NMTAP	32	0	3
NMTAP	32	96	1
NMTAP	32	96	7
NMSTR	32	192	6
NMSLL	32	192	6	96	48	2
NMTAP	32	240	7
NMTAP	32	288	0
NMTAP	32	288	6
NMTTP	33	0	1	B	0	M1
NMTTP	33	0	1	E	0	M1
NMTTP	33	72	3	B	0	M1
NMTTP	33	72	3	E	0	M1
NMTTP	33	144	5	B	0	M1
NMTTP	33	144	5	E	0	M1
NMTAP	33	240	6
NMTAP	33	288	7
NMTAP	33	336	0
NMHLD	34	0	1	144
NMHLD	34	0	5	144
NMTAP	34	192	2
NMTAP	34	216	4
NMTAP	34	240	3
NMTAP	34	288	1
NMTAP	34	288	5
BRTAP	35	0	2
BRTAP	35	0	4
NMTAP	35	48	0
NMTAP	35	96	3
NMTAP	35	96	5
NMTAP	35	144	7
NMHLD	35	192	1	48
NMHLD	35	192	3	48
NMTAP	35	264	0
NMSTR	35	288	0
NMSI_	35	288	0	96	48	4
NMTAP	36	0	0
NMSTR	36	0	6
NMSI_	36	0	6	96	48	3
NMTAP	36	48	7
NMSTR	36	96	1
NMSI_	36	96	1	96	48	3
NMTAP	36	96	6
NMTAP	36	144	0
NMTAP	36	192	1
NMSTR	36	192	6
NMSI_	36	192	6	96	48	4
NMTAP	36	240	7
NMSTR	36	288	1
NMSI_	36	288	1	96	48	5
NMTAP	36	288	6
NMTAP	36	336	0
NMTAP	37	0	1
NMSTR	37	0	6
NMSI_	37	0	6	96	48	2
NMTAP	37	48	7
NMTAP	37	96	1
NMTAP	37	96	6
NMHLD	37	144	0	96
EXTAP	37	216	7
EXTAP	37	240	7
NMSTR	37	288	1
NMSI_	37	288	1	96	48	4
NMTAP	37	288	5
NMTAP	37	336	4
NMTAP	38	0	1
NMSTR	38	0	6
NMSI_	38	0	6	96	48	2
NMTAP	38	48	7
NMSTR	38	96	1
NMSI_	38	96	1	96	48	7
NMTAP	38	96	6
NMTAP	38	144	0
NMTAP	38	192	1
NMSTR	38	192	5
NMSI_	38	192	5	96	48	1
NMTAP	38	240	6
EXSTR	38	288	3
NMSI_	38	288	3	96	48	0
NMTAP	38	288	5
EXTAP	38	336	2
EXTAP	39	0	3
NMSTR	39	0	6
NMSI_	39	0	6	96	48	4
NMTAP	39	48	4
NMSTR	39	96	2
NMSI_	39	96	2	96	48	0
NMTAP	39	96	6
NMTAP	39	144	1
NMTAP	39	192	2
EXSTR	39	192	6
NMSI_	39	192	6	96	48	2
EXTAP	39	240	7
NMSTR	39	288	1
NMSI_	39	288	1	96	48	4
EXTAP	39	288	6
NMTAP	39	336	0
NMTAP	40	0	1
NMSTR	40	0	5
NMSI_	40	0	5	96	48	0
NMTAP	40	48	6
NMSTR	40	96	2
NMSI_	40	96	2	96	48	7
NMTAP	40	96	5
NMTAP	40	144	1
NMTAP	40	192	2
NMSTR	40	192	6
BRSI_	40	192	6	96	48	3
NMTAP	40	240	5
NMHLD	40	288	2	96
NMTAP	40	288	6
EXTAP	41	0	0
EXTAP	41	72	4
EXTAP	41	72	6
EXTAP	41	144	1
EXSTR	41	144	3
BRSCL	41	144	3	96	144	4
NMTTP	42	0	0	C	1	M1
EXSTR	43	0	1
NMSLR	43	0	1	96	288	5
NMSTR	44	192	6
NMSCL	44	192	6	96	288	2
NMSTR	46	0	1
NMSUL	46	0	1	96	192	4
NMSTR	47	0	5
NMSUL	47	0	5	96	192	0
NMSTR	48	0	1
NMSLL	48	0	1	96	192	3
NMSTR	49	0	5
NMSI_	49	0	5	96	96	7
NMTAP	49	288	0
NMTAP	49	288	1
NMSTR	50	0	1
NMSCR	50	0	1	96	192	4
NMTTP	50	96	0	C	0	M1
NMTTP	50	288	3	E	0	M1
NMSTR	51	0	6
NMSCL	51	0	6	96	192	3
NMTTP	51	96	0	C	0	M1
NMTTP	51	288	5	E	0	M1
NMSTR	52	0	2
NMSLR	52	0	2	96	192	1
NMTTP	52	96	0	C	0	M1
NMTTP	52	288	7	E	0	M1
NMSTR	53	0	5
NMSLL	53	0	5	96	192	6
NMTTP	53	96	0	C	0	M1
NMTTP	53	288	1	E	0	M1
EXTAP	54	0	3
EXTAP	54	0	6
NMTAP	54	48	6
NMTAP	54	96	6
NMTAP	54	144	6
EXTAP	54	192	4
NMTAP	54	240	4
NMTAP	54	288	4
NMTAP	54	336	4
EXTAP	55	0	3
NMTAP	55	48	3
NMTAP	55	96	3
NMTAP	55	144	3
EXTAP	55	192	1
NMTAP	55	240	1
NMTAP	55	288	1
NMTAP	55	336	1
NMTAP	56	0	2
NMTAP	56	24	3
NMTAP	56	48	2
NMTAP	56	72	3
NMTAP	56	96	1
NMTAP	56	120	4
NMTAP	56	144	1
NMTAP	56	168	4
NMTAP	56	192	0
NMTAP	56	216	5
NMTAP	56	240	0
NMTAP	56	264	5
NMTAP	56	288	7
NMTAP	56	312	6
NMTAP	56	336	7
NMTAP	56	360	6
NMTAP	57	0	7
NMSTR	57	96	0
BRSI_	57	96	0	96	48	4
NMSTR	57	96	7
BRSI_	57	96	7	96	48	3
BXHLD	58	0	6	24
BXHLD	58	0	7	24
NMHLD	58	48	6	24
NMHLD	58	48	7	24
NMHLD	58	96	0	24
NMHLD	58	96	5	24
NMHLD	58	144	0	24
NMHLD	58	144	5	24
NMTAP	58	192	6
NMTAP	58	216	7
NMTAP	58	240	6
NMHLD	58	288	4	24
NMHLD	58	288	5	24
NMHLD	58	336	4	24
NMHLD	58	336	5	24
BXHLD	59	0	2	24
BXHLD	59	0	3	24
NMHLD	59	48	2	24
NMHLD	59	48	3	24
NMHLD	59	96	1	24
NMHLD	59	96	4	24
NMHLD	59	144	1	24
NMHLD	59	144	4	24
NMTAP	59	192	2
NMTAP	59	216	3
NMTAP	59	240	2
NMHLD	59	288	2	24
NMHLD	59	288	3	24
NMHLD	59	336	3	24
NMHLD	59	336	4	24
BXHLD	60	0	4	24
BXHLD	60	0	5	24
NMHLD	60	48	4	24
NMHLD	60	48	5	24
NMHLD	60	96	3	24
NMHLD	60	96	6	24
NMHLD	60	144	3	24
NMHLD	60	144	6	24
NMTAP	60	192	5
NMTAP	60	216	4
NMTAP	60	240	5
NMHLD	60	288	6	24
NMHLD	60	288	7	24
NMHLD	60	336	6	24
NMHLD	60	336	7	24
BXHLD	61	0	0	24
BXHLD	61	0	1	24
NMHLD	61	48	0	24
NMHLD	61	48	1	24
NMHLD	61	96	2	24
NMHLD	61	96	7	24
NMHLD	61	144	2	24
NMHLD	61	144	7	24
NMSTR	61	192	3
NMSI_	61	192	3	96	48	1
NMSTR	61	192	6
NMSI_	61	192	6	96	48	4
NMTAP	61	240	3
NMTAP	61	240	6
BXHLD	62	0	1	24
BXHLD	62	0	3	24
EXHLD	62	48	1	24
EXHLD	62	48	3	24
NMHLD	62	96	2	24
NMHLD	62	96	4	24
NMHLD	62	144	2	24
NMHLD	62	144	4	24
NMTAP	62	192	6
NMTAP	62	216	7
NMTAP	62	240	6
NMHLD	62	288	0	24
NMHLD	62	288	5	24
NMHLD	62	336	0	24
NMHLD	62	336	5	24
BXHLD	63	0	4	24
BXHLD	63	0	6	24
NMHLD	63	48	4	24
NMHLD	63	48	6	24
NMHLD	63	96	3	24
NMHLD	63	96	5	24
NMHLD	63	144	3	24
NMHLD	63	144	5	24
NMTAP	63	192	1
NMTAP	63	216	0
NMTAP	63	240	1
NMHLD	63	288	2	24
NMHLD	63	288	7	24
NMHLD	63	336	2	24
NMHLD	63	336	7	24
BXHLD	64	0	1	24
BXHLD	64	0	4	24
NMHLD	64	48	1	24
NMHLD	64	48	4	24
NMHLD	64	96	3	24
NMHLD	64	96	6	24
NMHLD	64	144	3	24
NMHLD	64	144	6	24
NMTAP	64	192	5
NMTAP	64	216	4
NMTAP	64	240	5
NMHLD	64	288	1	24
NMHLD	64	288	7	24
NMHLD	64	336	1	24
NMHLD	64	336	7	24
BXHLD	65	0	3	24
BXHLD	65	0	6	24
NMHLD	65	48	3	24
NMHLD	65	48	6	24
NMHLD	65	96	1	24
NMHLD	65	96	4	24
NMHLD	65	144	1	24
NMHLD	65	144	4	24
NMTAP	65	192	2
NMTAP	65	216	3
NMTAP	65	240	2
NMTAP	65	264	3
NMTAP	65	288	1
NMTAP	65	312	4
NMTAP	65	336	1
NMTAP	65	360	4
NMSTR	66	0	0
NMSCR	66	0	0	96	96	4
NMSTR	66	96	4
NMSCR	66	96	4	96	96	0
NMSTR	66	192	0
NMSCR	66	192	0	96	96	4
NMSTR	66	288	4
NMSCR	66	288	4	96	96	0
NMSTR	67	0	0
NMSLR	67	0	0	96	96	6
BRSTR	67	192	7
BRSI_	67	192	7	96	48	3
BRHLD	68	0	0	24
BRHLD	68	0	6	24
NMHLD	68	48	0	24
NMHLD	68	48	6	24
NMHLD	68	96	2	24
NMHLD	68	96	3	24
NMHLD	68	144	2	24
NMHLD	68	144	3	24
NMTAP	68	192	5
NMTAP	68	216	4
NMTAP	68	240	5
NMHLD	68	288	1	24
NMHLD	68	288	7	24
NMHLD	68	336	1	24
NMHLD	68	336	7	24
BRHLD	69	0	2	24
BRHLD	69	0	4	24
NMHLD	69	48	2	24
NMHLD	69	48	4	24
NMHLD	69	96	6	24
NMHLD	69	96	7	24
NMHLD	69	144	6	24
NMHLD	69	144	7	24
NMTAP	69	192	1
NMTAP	69	216	0
NMTAP	69	240	1
NMHLD	69	288	3	24
NMHLD	69	288	5	24
NMHLD	69	336	3	24
NMHLD	69	336	5	24
BRHLD	70	0	0	24
BRHLD	70	0	6	24
NMHLD	70	48	0	24
NMHLD	70	48	6	24
NMHLD	70	96	1	24
NMHLD	70	96	7	24
NMHLD	70	144	1	24
NMHLD	70	144	7	24
NMHLD	70	192	1	24
NMHLD	70	192	3	24
NMHLD	70	240	2	24
NMHLD	70	240	4	24
NMHLD	70	288	3	24
NMHLD	70	288	5	24
NMHLD	70	336	4	24
NMHLD	70	336	6	24
BRHLD	71	0	0	24
BRHLD	71	0	1	24
NMHLD	71	48	2	24
NMHLD	71	48	3	24
NMHLD	71	96	4	24
NMHLD	71	96	5	24
NMHLD	71	144	6	24
NMHLD	71	144	7	24
NMHLD	71	192	0	24
NMHLD	71	192	1	24
NMHLD	71	240	2	24
NMHLD	71	240	4	24
NMHLD	71	288	5	24
NMHLD	71	288	7	24
NMHLD	71	336	0	24
NMHLD	71	336	2	24
BRHLD	72	0	3	24
BRHLD	72	0	5	24
NMHLD	72	48	0	24
NMHLD	72	48	6	24
NMHLD	72	96	1	24
NMHLD	72	96	3	24
NMHLD	72	144	5	24
NMHLD	72	144	7	24
NMTTP	72	192	1	E	0	M1
NMTTP	72	204	2	E	0	M1
NMTTP	72	216	3	E	0	M1
NMTTP	72	228	4	E	0	M1
NMTTP	72	240	5	E	0	M1
NMTTP	72	252	6	E	0	M1
NMTTP	72	264	7	E	0	M1
NMTTP	72	276	0	E	0	M1
NMTTP	72	288	1	E	0	M1
NMTTP	72	300	2	E	0	M1
NMTTP	72	312	3	E	0	M1
NMTTP	72	324	4	E	0	M1
NMTTP	72	336	5	E	0	M1
NMTTP	72	348	6	E	0	M1
NMTTP	72	360	7	E	0	M1
NMTTP	72	372	0	E	0	M1
NMTTP	73	0	0	C	1	M1
NMTTP	73	0	1	E	0	M1
NMSTR	74	0	1
NMSUR	74	0	1	96	192	5
NMSTR	75	0	5
NMSUR	75	0	5	96	192	1
NMSTR	76	0	1
NMSCR	76	0	1	96	192	4
NMTTP	77	0	5	E	0	M1
NMTTP	77	3	4	B	0	M1
NMTTP	77	6	3	B	0	M1
NMTTP	77	9	3	E	0	M1
NMSTR	77	192	0
NMSI_	77	192	0	96	48	4
NMSTR	77	192	7
NMSI_	77	192	7	96	48	3
NMTAP	77	240	1
NMTAP	77	240	6
BRTAP	77	288	0
BRTAP	77	288	7
NMSTR	78	0	1
NMSI_	78	0	1	96	48	5
NMTAP	78	48	1
NMSTR	78	96	0
NMSI_	78	96	0	96	48	4
NMTAP	78	144	0
NMSTR	78	192	7
NMSI_	78	192	7	96	48	3
NMTAP	78	240	7
NMSTR	78	288	6
NMSI_	78	288	6	96	48	2
NMTAP	78	336	6
NMSTR	79	0	5
NMSI_	79	0	5	96	48	1
NMTAP	79	48	5
NMSTR	79	96	4
NMSI_	79	96	4	96	48	0
NMTAP	79	144	4
NMSTR	79	192	3
NMSI_	79	192	3	96	48	7
NMTAP	79	240	3
NMSTR	79	288	2
NMSI_	79	288	2	96	48	6
NMTAP	79	336	2
NMSTR	80	0	1
NMSI_	80	0	1	96	48	5
NMTAP	80	48	1
NMSTR	80	96	7
NMSI_	80	96	7	96	48	3
NMTAP	80	144	7
NMSTR	80	192	5
NMSI_	80	192	5	96	48	1
NMTAP	80	240	5
NMSTR	80	288	3
NMSI_	80	288	3	96	48	7
NMTAP	80	336	3
NMHLD	81	0	1	48
NMSTR	81	96	0
NMSI_	81	96	0	96	48	4
NMSTR	81	96	7
NMSI_	81	96	7	96	48	3
NMTAP	81	144	1
NMTAP	81	144	6
NMTAP	81	192	0
NMTAP	81	192	7
CNSI_	81	240	3	0	48	1
CNSI_	81	240	4	0	48	6
NMHLD	82	0	2	144
NMHLD	82	0	4	144
NMTAP	82	192	2
NMTAP	82	192	4
NMHLD	82	240	2	96
NMHLD	82	240	4	96
NMHLD	83	0	3	144
NMHLD	83	0	5	144
NMTAP	83	192	3
NMTAP	83	192	5
NMHLD	83	240	3	96
NMHLD	83	240	5	96
NMHLD	84	0	2	144
NMHLD	84	0	4	144
NMTAP	84	192	2
NMTAP	84	192	4
NMHLD	84	240	2	96
NMHLD	84	240	4	96
NMHLD	85	0	3	144
NMHLD	85	0	4	144
NMTAP	85	192	3
NMTAP	85	192	4
NMTAP	85	240	3
NMTAP	85	240	4
BRTAP	85	288	3
BRTAP	85	288	4
NMSTR	86	0	1
NMSI_	86	0	1	96	48	3
NMSTR	86	48	0
NMSI_	86	48	0	96	48	4
NMTAP	86	96	1
NMTAP	86	144	0
NMSTR	86	192	7
NMSI_	86	192	7	96	48	3
NMSTR	86	240	6
NMSI_	86	240	6	96	48	4
NMTAP	86	288	7
NMTAP	86	336	6
NMSTR	87	0	0
NMSI_	87	0	0	96	48	2
NMSTR	87	48	7
NMSI_	87	48	7	96	48	3
NMSTR	87	96	0
NMSI_	87	96	0	96	48	4
NMSTR	87	144	7
NMSI_	87	144	7	96	48	5
NMSTR	87	192	0
NMSCR	87	192	0	96	48	3
NMTAP	87	240	7
NMTAP	87	288	0
NMTAP	87	336	6
NMTAP	88	0	2
NMTAP	88	24	4
NMTAP	88	48	2
NMTAP	88	72	4
NMTAP	88	96	3
NMTAP	88	120	5
NMTAP	88	144	3
NMTAP	88	168	5
NMTAP	88	192	4
NMTAP	88	216	6
NMTAP	88	240	4
NMTAP	88	264	6
NMTAP	88	288	3
NMTAP	88	312	7
NMTAP	88	336	3
NMTAP	88	360	7
NMTAP	89	0	2
NMTAP	89	24	6
NMTAP	89	48	1
NMTAP	89	72	5
NMTAP	89	96	0
NMTAP	89	120	4
NMTAP	89	144	7
NMTAP	89	168	3
EXTAP	89	192	0
EXTAP	89	204	1
EXTAP	89	216	2
EXTAP	89	228	3
EXTAP	89	240	4
EXTAP	89	252	5
EXTAP	89	264	6
EXTAP	89	276	7
NMTTP	89	288	0	A	0	M1
NMTTP	89	294	1	D	0	M1
NMTTP	89	300	1	A	0	M1
NMTTP	89	306	2	D	0	M1
NMTTP	89	312	2	A	0	M1
NMTTP	89	318	3	D	0	M1
NMTTP	89	324	3	A	0	M1
NMTTP	89	330	4	D	0	M1
NMTTP	89	336	4	A	0	M1
NMTTP	89	342	5	D	0	M1
NMTTP	89	348	5	A	0	M1
NMTTP	89	354	6	D	0	M1
NMTTP	89	360	6	A	0	M1
NMTTP	89	366	7	D	0	M1
NMTTP	89	372	7	A	0	M1
NMTTP	89	378	0	D	0	M1
NMTTP	90	0	0	A	0	M1
NMTHO	90	0	0	384	C	0	M1

T_REC_TAP	311
T_REC_BRK	9
T_REC_XTP	43
T_REC_BXX	0
T_REC_HLD	159
T_REC_XHO	2
T_REC_BHO	10
T_REC_BXH	16
T_REC_STR	86
T_REC_BST	2
T_REC_XST	5
T_REC_XBS	0
T_REC_TTP	60
T_REC_THO	1
T_REC_SLD	86
T_REC_BSL	7
T_REC_ALL	797
T_NUM_TAP	505
T_NUM_BRK	44
T_NUM_HLD	162
T_NUM_SLD	86
T_NUM_ALL	797
T_JUDGE_TAP	516
T_JUDGE_HLD	257
T_JUDGE_SLD	93
T_JUDGE_ALL	866
TTM_EACHPAIRS	197
TTM_SCR_TAP	252500
TTM_SCR_BRK	114400
TTM_SCR_HLD	162000
TTM_SCR_SLD	129000
TTM_SCR_ALL	657900
TTM_SCR_S	633900
TTM_SCR_SS	653500
TTM_RAT_ACV	10067

