VERSION	0.00.00	1.04.00
FES_MODE	0
BPM_DEF	155.000	155.000	155.000	155.000
MET_DEF	4	4
RESOLUTION	384
CLK_DEF	384
COMPATIBLE_CODE	MA2

BPM	0	0	155.000
MET	0	0	4	4

NMSTR	2	0	0
NMSI_	2	0	0	96	288	3
NMSTR	3	0	5
BRSCL	3	0	5	96	288	2
NMSTR	4	0	0
NMSI_	4	0	0	96	288	3
NMSTR	5	0	7
NMSI_	5	0	7	96	288	4
NMSTR	6	0	3
NMSCL	6	0	3	96	288	0
NMSTR	7	0	7
NMSCL	7	0	7	96	288	4
NMSTR	8	0	3
NMSCL	8	0	3	96	288	0
NMTHO	9	0	0	384	C	1	M1
NMHLD	10	0	0	384
NMHLD	11	0	1	384
NMHLD	12	0	2	384
NMHLD	13	0	3	384
NMTAP	14	0	4
NMTAP	14	96	4
NMHLD	14	192	3	96
NMHLD	14	192	5	96
NMTAP	15	0	3
NMTAP	15	96	3
NMHLD	15	192	2	96
NMHLD	15	192	4	96
NMTAP	16	0	4
NMTAP	16	96	4
NMTAP	16	192	3
NMHLD	16	192	5	384
BRHLD	17	0	4	192
NMTAP	17	288	3
NMTAP	17	288	4
NMHLD	18	0	2	192
NMTAP	18	0	3
NMTAP	18	96	3
NMTAP	18	192	3
NMTAP	18	288	3
NMTAP	19	0	3
NMHLD	19	0	4	192
NMTAP	19	96	3
NMTAP	19	192	3
NMTAP	19	288	3
NMHLD	20	0	1	192
NMTAP	20	0	3
NMTAP	20	96	3
NMTAP	20	192	3
NMTAP	20	288	3
NMTAP	21	0	3
NMHLD	21	0	5	192
NMTAP	21	96	3
NMTAP	21	192	3
NMTAP	21	288	3
NMTAP	22	0	2
NMTAP	22	48	2
NMTAP	22	96	4
NMTAP	22	144	4
NMTAP	22	192	3
NMTAP	22	240	3
NMTAP	22	288	5
NMTAP	22	336	5
NMTAP	23	0	1
NMTAP	23	48	1
NMTAP	23	96	6
NMTAP	23	144	6
NMTAP	23	192	0
NMTAP	23	240	0
NMTAP	23	288	7
NMTAP	23	336	7
NMTAP	24	0	0
NMTAP	24	24	7
NMTAP	24	48	0
NMTAP	24	72	7
NMTAP	24	96	0
NMTAP	24	120	7
NMTAP	24	144	0
NMTAP	24	168	7
NMTAP	24	192	0
NMTAP	24	216	7
NMTAP	24	240	0
NMTAP	24	264	7
NMTAP	24	288	0
NMTAP	24	312	7
NMTAP	24	336	0
NMTAP	24	360	7
NMHLD	25	0	0	288
NMSTR	25	192	7
NMSI_	25	192	7	96	48	3
BXTAP	26	0	2
BXTAP	26	0	4
NMTAP	26	96	0
NMTAP	26	96	1
NMTAP	26	192	2
NMTAP	26	192	3
NMTAP	26	288	6
NMTAP	26	288	7
NMTAP	27	0	4
NMTAP	27	0	5
NMTAP	27	96	1
NMTAP	27	96	3
NMTAP	27	192	6
NMTAP	27	192	7
EXTAP	27	288	3
NMTAP	27	288	5
NMTAP	27	336	3
EXTAP	27	336	5
EXTAP	28	0	3
NMTAP	28	0	5
NMTAP	28	96	0
NMTAP	28	96	1
NMTAP	28	192	6
NMTAP	28	192	7
NMTAP	28	288	2
NMTAP	28	288	3
NMTAP	29	0	4
NMTAP	29	0	6
NMTAP	29	96	0
NMTAP	29	96	1
EXTAP	29	192	2
NMTAP	29	192	3
NMTAP	29	240	2
EXTAP	29	240	3
EXTAP	29	288	2
NMTAP	29	288	3
NMTAP	30	0	0
NMTAP	30	0	5
NMTAP	30	96	4
NMTAP	30	96	6
NMTAP	30	192	2
NMTAP	30	192	3
NMTAP	30	288	0
NMTAP	30	288	5
NMTAP	31	0	1
NMTAP	31	0	3
NMTAP	31	96	4
NMTAP	31	96	6
NMTAP	31	192	0
NMTAP	31	192	7
NMTAP	31	288	2
NMTAP	31	288	4
NMTAP	32	0	1
NMTAP	32	0	5
NMTAP	32	96	6
NMTAP	32	96	7
NMTAP	32	192	4
EXTAP	32	192	5
EXTAP	32	240	4
NMTAP	32	240	5
NMTAP	32	288	4
EXTAP	32	288	5
NMHLD	33	0	3	72
NMHLD	33	72	2	72
NMTAP	33	144	1
NMTAP	33	240	0
NMTAP	33	240	7
NMSTR	33	288	0
NMSF_	33	288	0	96	192	4
NMTAP	33	288	7
BRTAP	34	288	2
BRTAP	34	288	6
NMTAP	35	0	0
NMTAP	35	0	1
NMTAP	35	96	3
NMTAP	35	96	5
NMHLD	35	192	6	72
NMHLD	35	192	7	72
NMTAP	35	288	6
NMTAP	35	288	7
NMTAP	36	0	0
NMTAP	36	0	5
NMTAP	36	96	1
NMTAP	36	96	3
NMTAP	36	192	4
NMTAP	36	192	5
NMTAP	36	288	6
NMTAP	36	288	7
NMTAP	37	0	0
NMTAP	37	0	1
NMSTR	37	96	2
NMSI_	37	96	2	96	96	5
NMTAP	37	96	7
BXTAP	37	288	6
NMTAP	38	0	6
NMTAP	38	0	7
NMTAP	38	96	0
NMTAP	38	96	2
NMTAP	38	192	5
NMTAP	38	192	6
NMTAP	38	288	2
NMTAP	38	288	3
NMTAP	38	336	2
NMTAP	38	336	3
NMTAP	39	0	2
NMTAP	39	0	3
NMTAP	39	96	1
NMTAP	39	96	4
NMTAP	39	192	0
NMTAP	39	240	0
NMTAP	39	288	1
NMTAP	39	288	7
NMTAP	40	0	4
NMTAP	40	0	5
NMTAP	40	96	6
NMTAP	40	96	7
NMTAP	40	192	0
NMTAP	40	192	1
NMTAP	40	288	2
NMTAP	40	288	3
NMHLD	41	0	4	72
NMHLD	41	0	5	72
NMTAP	41	144	3
NMTAP	41	144	6
EXTAP	41	240	7
EXTAP	41	288	7
BRSTR	42	0	0
NMSXL	42	0	0	96	432	7
BRSTR	42	0	6
NMSXR	42	0	6	96	432	7
NMSTR	44	0	0
NMSCR	44	0	0	96	288	3
NMSTR	45	0	7
NMSXR	45	0	7	96	288	7
NMHLD	46	0	1	384
NMTAP	46	192	0
NMHLD	47	0	6	384
NMTAP	47	192	5
NMHLD	48	0	2	384
NMTAP	48	192	3
NMHLD	49	0	4	384
NMTAP	49	192	3
NMTTP	50	0	3	B	0	M1
NMTTP	50	96	2	B	0	M1
NMTTP	50	192	2	E	0	M1
NMTTP	50	288	0	B	0	M1
NMTTP	50	288	1	E	0	M1
NMTTP	51	0	4	B	0	M1
NMTTP	51	96	5	B	0	M1
NMTTP	51	192	6	E	0	M1
NMTTP	51	288	7	B	0	M1
NMTTP	51	288	7	E	0	M1
NMTTP	52	0	1	A	0	M1
NMTTP	52	96	2	E	0	M1
NMTTP	52	192	3	E	0	M1
NMTTP	52	288	3	A	0	M1
NMTTP	52	288	4	E	0	M1
NMTTP	53	0	6	A	0	M1
NMTTP	53	96	6	E	0	M1
NMTTP	53	192	5	E	0	M1
NMTTP	53	288	4	E	0	M1
NMTTP	53	288	4	A	0	M1
NMHLD	54	0	1	192
NMTAP	54	96	3
NMHLD	54	192	3	192
NMTAP	54	288	4
NMHLD	55	0	4	192
NMTAP	55	96	6
NMHLD	55	192	6	192
NMTAP	55	288	7
NMTHO	56	0	0	384	C	0	M1
NMHLD	57	0	7	192
BRTAP	57	192	0
NMTAP	58	0	0
NMTAP	58	0	1
NMTAP	58	48	0
NMTAP	58	48	1
NMTAP	58	96	0
NMTAP	58	96	1
NMTAP	58	144	0
NMTAP	58	144	1
NMTAP	58	192	2
NMTAP	58	192	3
NMTAP	58	240	2
NMTAP	58	240	3
NMTAP	58	288	4
NMTAP	58	288	5
NMTAP	58	336	4
NMTAP	58	336	5
NMTAP	59	0	6
NMTAP	59	0	7
NMTAP	59	48	6
NMTAP	59	48	7
NMTAP	59	96	6
NMTAP	59	96	7
NMTAP	59	144	6
NMTAP	59	144	7
NMTAP	59	192	4
NMTAP	59	192	5
NMTAP	59	240	4
NMTAP	59	240	5
NMTAP	59	288	2
NMTAP	59	288	3
NMTAP	59	336	2
NMTAP	59	336	3
NMTAP	60	0	1
NMTAP	60	0	4
NMTAP	60	48	1
NMTAP	60	48	4
NMTAP	60	96	1
NMTAP	60	96	4
NMTAP	60	144	1
NMTAP	60	144	4
NMTAP	60	192	2
NMTAP	60	192	5
NMTAP	60	240	2
NMTAP	60	240	5
NMTAP	60	288	3
NMTAP	60	288	6
NMTAP	60	336	3
NMTAP	60	336	6
NMTAP	61	0	2
NMTAP	61	0	7
NMTAP	61	48	2
NMTAP	61	48	7
NMTAP	61	96	1
NMTAP	61	96	6
NMTAP	61	144	1
NMTAP	61	144	6
NMTAP	61	192	0
NMTAP	61	192	5
NMTAP	61	240	0
NMTAP	61	240	5
BRTAP	61	288	6
BRTAP	61	288	7
NMTAP	62	0	4
NMTAP	62	0	5
NMTAP	62	48	4
NMTAP	62	48	5
NMTAP	62	96	4
NMTAP	62	96	5
NMTAP	62	144	4
NMTAP	62	144	5
NMTAP	62	192	6
NMTAP	62	192	7
NMTAP	62	240	6
NMTAP	62	240	7
NMTAP	62	288	0
NMTAP	62	288	1
NMTAP	62	336	0
NMTAP	62	336	1
NMTAP	63	0	2
NMTAP	63	0	3
NMTAP	63	48	2
NMTAP	63	48	3
NMTAP	63	96	2
NMTAP	63	96	3
NMTAP	63	144	2
NMTAP	63	144	3
NMTAP	63	192	0
NMTAP	63	192	1
NMTAP	63	240	0
NMTAP	63	240	1
NMTAP	63	288	6
NMTAP	63	288	7
NMTAP	63	336	6
NMTAP	63	336	7
NMTAP	64	0	0
NMTAP	64	0	5
NMTAP	64	48	0
NMTAP	64	48	5
NMTAP	64	96	0
NMTAP	64	96	5
NMTAP	64	144	0
NMTAP	64	144	5
NMTAP	64	192	1
NMTAP	64	192	6
NMTAP	64	240	1
NMTAP	64	240	6
NMTAP	64	288	2
NMTAP	64	288	7
NMTAP	64	336	2
NMTAP	64	336	7
NMTAP	65	0	3
NMTAP	65	0	6
NMTAP	65	48	3
NMTAP	65	48	6
NMTAP	65	96	2
NMTAP	65	96	5
NMTAP	65	144	2
NMTAP	65	144	5
NMTAP	65	192	3
NMTAP	65	192	4
NMTAP	65	240	2
NMTAP	65	240	5
BRTAP	65	288	1
BRSTR	65	288	6
BRSCL	65	288	6	96	576	1
NMTTP	66	0	0	C	1	M1
NMSTR	67	192	0
NMSI_	67	192	0	96	48	4
BRTAP	68	0	3
BRTAP	68	0	5
NMTAP	68	48	3
NMTAP	68	48	5
NMTAP	68	96	2
NMTAP	68	96	6
NMTAP	68	144	2
NMTAP	68	144	6
NMTAP	68	192	1
NMTAP	68	192	7
NMTAP	68	240	1
NMTAP	68	240	7
NMTAP	68	288	0
NMTAP	68	288	6
NMTAP	68	336	0
NMTAP	68	336	6
BRTAP	69	0	1
BRTAP	69	0	5
NMTAP	69	48	1
NMTAP	69	48	5
NMTAP	69	96	2
NMTAP	69	96	4
NMTAP	69	144	2
NMTAP	69	144	4
NMTAP	69	192	3
NMTAP	69	192	5
NMTAP	69	240	3
NMTAP	69	240	5
BRTAP	69	288	2
BRTAP	69	288	6
NMTAP	70	0	0
NMTAP	70	0	7
NMTAP	70	48	0
NMTAP	70	48	7
NMTAP	70	96	1
NMTAP	70	96	3
NMTAP	70	144	1
NMTAP	70	144	3
NMTAP	70	192	3
NMTAP	70	192	4
NMTAP	70	240	3
NMTAP	70	240	4
NMTAP	70	288	4
NMTAP	70	288	6
NMTAP	70	336	4
NMTAP	70	336	6
NMTAP	71	0	0
NMTAP	71	0	7
NMTAP	71	48	0
NMTAP	71	48	7
NMTAP	71	96	1
NMTAP	71	96	3
NMTAP	71	144	1
NMTAP	71	144	3
NMTAP	71	192	3
NMTAP	71	192	4
NMTAP	71	240	3
NMTAP	71	240	4
EXTAP	71	288	2
EXTAP	71	288	5
NMTAP	72	0	3
NMTAP	72	24	4
NMTAP	72	48	3
NMTAP	72	72	4
NMTAP	72	96	3
NMTAP	72	120	4
NMTAP	72	144	3
NMTAP	72	168	4
NMTAP	72	192	2
NMTAP	72	216	5
NMTAP	72	240	2
NMTAP	72	264	5
NMTAP	72	288	1
NMTAP	72	312	6
NMTAP	72	336	1
NMTAP	72	360	6
BRHLD	73	0	0	288
NMTAP	73	288	7
NMHLD	74	0	6	96
NMTAP	74	96	4
NMHLD	74	192	2	96
NMTAP	74	288	3
NMHLD	75	0	5	96
NMTAP	75	96	4
NMHLD	75	192	1	96
NMTAP	75	288	3
NMHLD	76	0	6	96
NMTAP	76	96	7
NMHLD	76	192	1	96
NMTAP	76	288	2
NMTTP	77	0	0	C	1	M1
NMTTP	77	0	1	B	0	M1
NMTTP	77	0	2	B	0	M1
NMTTP	77	0	3	B	0	M1
NMTTP	77	0	4	B	0	M1
NMTTP	77	0	5	B	0	M1
NMSTR	77	192	7
NMSI_	77	192	7	96	48	3
EXTAP	78	0	2
EXTAP	78	0	3
EXTAP	78	48	2
EXTAP	78	48	3
NMTAP	78	96	0
NMTAP	78	96	1
NMTAP	78	144	0
NMTAP	78	144	1
NMTAP	78	192	6
NMTAP	78	192	7
NMTAP	78	240	6
NMTAP	78	240	7
NMTAP	78	288	4
NMTAP	78	288	5
NMTAP	78	336	4
NMTAP	78	336	5
NMTAP	79	0	2
NMTAP	79	0	3
NMTAP	79	48	2
NMTAP	79	48	3
NMTAP	79	96	0
NMTAP	79	96	1
NMTAP	79	144	0
NMTAP	79	144	1
NMTAP	79	192	6
NMTAP	79	192	7
NMTAP	79	240	6
NMTAP	79	240	7
NMTAP	79	288	4
NMTAP	79	288	5
NMTAP	79	336	4
NMTAP	79	336	5
EXTAP	80	0	2
NMTAP	80	48	1
NMTAP	80	48	3
NMTAP	80	96	5
NMTAP	80	144	4
NMTAP	80	144	6
NMTAP	80	192	1
NMTAP	80	240	0
NMTAP	80	240	2
NMTAP	80	288	6
NMTAP	80	336	5
NMTAP	80	336	7
BRSTR	81	0	1
NMSI_	81	0	1	96	48	4
NMSTR	81	96	5
NMSI_	81	96	5	96	48	1
NMSTR	81	192	0
NMSI_	81	192	0	96	48	4
BRTAP	81	288	7
NMHLD	82	0	6	384
NMTTP	82	192	5	B	0	M1
NMTTP	82	192	5	E	0	M1
NMTTP	82	288	2	B	0	M1
NMTTP	82	288	3	E	0	M1
NMHLD	83	0	1	384
NMTTP	83	192	2	B	0	M1
NMTTP	83	192	2	E	0	M1
NMTTP	83	192	3	E	0	M1
NMTTP	83	288	5	B	0	M1
NMTTP	83	288	5	E	0	M1
NMTTP	83	288	6	E	0	M1
NMHLD	84	0	6	384
NMTTP	84	192	3	B	0	M1
NMTTP	84	192	4	B	0	M1
NMTTP	84	192	4	E	0	M1
NMTTP	84	288	0	B	0	M1
NMTTP	84	288	0	E	0	M1
NMTTP	84	288	7	B	0	M1
NMTHO	85	0	0	192	C	1	M1
BRTAP	85	192	7
NMTAP	86	0	0
NMTAP	86	0	7
NMTAP	86	48	0
NMTAP	86	48	7
NMTAP	86	96	5
NMTAP	86	96	6
NMTAP	86	144	5
NMTAP	86	144	6
NMTAP	86	192	3
NMTAP	86	192	4
NMTAP	86	240	3
NMTAP	86	240	4
NMTAP	86	288	1
NMTAP	86	288	2
NMTAP	86	336	1
NMTAP	86	336	2
NMTAP	87	0	0
NMTAP	87	0	7
NMTAP	87	48	0
NMTAP	87	48	7
NMTAP	87	96	5
NMTAP	87	96	6
NMTAP	87	144	5
NMTAP	87	144	6
NMTAP	87	192	3
NMTAP	87	192	4
NMTAP	87	240	3
NMTAP	87	240	4
BRTAP	87	288	2
BRTAP	87	288	5
NMTAP	88	0	6
NMTAP	88	0	7
NMTAP	88	48	5
NMTAP	88	96	0
NMTAP	88	96	1
NMTAP	88	144	2
NMTAP	88	192	6
NMTAP	88	192	7
NMTAP	88	240	4
NMTAP	88	288	0
NMTAP	88	288	1
NMTAP	88	336	3
NMTAP	89	0	6
NMTAP	89	0	7
NMTAP	89	48	4
NMTAP	89	48	5
NMTAP	89	96	2
NMTAP	89	96	3
NMTAP	89	144	0
NMTAP	89	144	1
BRTAP	89	192	2
BRTAP	89	192	3
BRTAP	89	240	4
BRTAP	89	240	5
BRTAP	89	288	6
BRSTR	89	288	7
NMSI_	89	288	7	96	192	5
CNSI_	90	192	5	0	48	3
CNSCL	90	240	3	0	48	2
CNSV_	90	288	2	0	48	0
CNSCL	90	336	0	0	48	7

T_REC_TAP	447
T_REC_BRK	21
T_REC_XTP	18
T_REC_BXX	3
T_REC_HLD	38
T_REC_XHO	0
T_REC_BHO	2
T_REC_BXH	0
T_REC_STR	16
T_REC_BST	5
T_REC_XST	0
T_REC_XBS	0
T_REC_TTP	43
T_REC_THO	3
T_REC_SLD	19
T_REC_BSL	2
T_REC_ALL	617
T_NUM_TAP	524
T_NUM_BRK	33
T_NUM_HLD	41
T_NUM_SLD	19
T_NUM_ALL	617
T_JUDGE_TAP	553
T_JUDGE_HLD	200
T_JUDGE_SLD	21
T_JUDGE_ALL	774
TTM_EACHPAIRS	205
TTM_SCR_TAP	262000
TTM_SCR_BRK	85800
TTM_SCR_HLD	41000
TTM_SCR_SLD	28500
TTM_SCR_ALL	417300
TTM_SCR_S	401600
TTM_SCR_SS	414000
TTM_RAT_ACV	10079

