VERSION	0.00.00	1.04.00
FES_MODE	0
BPM_DEF	180.000	180.000	180.000	180.000
MET_DEF	4	4
RESOLUTION	384
CLK_DEF	384
COMPATIBLE_CODE	MA2

BPM	0	0	180.000
MET	0	0	4	4
MET	1	0	4	4
MET	2	0	4	2
MET	2	192	4	4
MET	3	192	4	2
MET	4	0	4	4
MET	5	0	4	2
MET	5	192	4	4
MET	6	192	4	2
MET	7	0	4	4

NMTAP	1	0	1
NMTAP	1	0	5
NMTAP	1	48	1
NMTAP	1	48	5
NMTAP	1	96	1
NMTAP	1	96	5
NMTAP	1	144	1
NMTAP	1	144	5
NMTAP	1	240	2
NMTAP	1	288	2
NMTAP	1	336	4
NMTAP	2	0	4
NMTAP	2	48	3
NMTAP	2	48	5
NMTAP	2	96	3
NMTAP	2	96	5
NMTAP	2	192	2
NMTAP	2	192	6
NMTAP	2	240	2
NMTAP	2	240	6
NMTAP	2	288	2
NMTAP	2	288	6
NMTAP	2	336	2
NMTAP	2	336	6
NMTAP	3	48	4
NMTAP	3	96	4
NMTAP	3	144	3
NMHLD	3	192	2	96
NMTAP	3	288	4
NMTAP	4	0	1
NMTAP	4	0	5
NMTAP	4	48	1
NMTAP	4	48	5
NMTAP	4	96	1
NMTAP	4	96	5
NMTAP	4	144	1
NMTAP	4	144	5
NMTAP	4	240	2
NMTAP	4	288	2
NMTAP	4	336	4
NMTAP	5	0	4
NMTAP	5	48	3
NMTAP	5	48	5
NMTAP	5	96	3
NMTAP	5	96	5
NMTAP	5	192	2
NMTAP	5	192	6
NMTAP	5	240	2
NMTAP	5	240	6
NMTAP	5	288	2
NMTAP	5	288	6
NMTAP	5	336	2
NMTAP	5	336	6
NMTAP	6	48	3
NMTAP	6	48	5
NMTAP	6	96	3
NMTAP	6	96	5
NMTAP	6	144	2
NMTAP	6	192	2
NMTAP	6	192	4
NMSTR	6	240	2
NMSCL	6	240	2	96	192	4
NMTAP	6	240	4
BXTAP	6	336	3
NMSTR	7	48	4
NMSCR	7	48	4	96	192	2
EXTAP	7	144	3
NMSTR	7	240	2
NMSCL	7	240	2	96	192	4
BXTAP	7	336	3
NMSTR	8	48	4
NMSCR	8	48	4	96	192	2
EXTAP	8	144	3
NMSTR	8	240	2
NMSCL	8	240	2	96	192	4
BXTAP	8	336	3
NMSTR	9	48	4
NMSCR	9	48	4	96	192	2
EXTAP	9	144	3
NMSTR	9	240	2
NMSCL	9	240	2	96	192	4
BXTAP	9	336	3
NMSTR	10	48	4
BRSI_	10	48	4	96	96	0
EXTAP	10	144	3
NMSTR	10	240	5
NMSCR	10	240	5	96	192	3
BXTAP	10	336	4
NMSTR	11	48	3
NMSCL	11	48	3	96	192	5
EXTAP	11	144	4
NMSTR	11	240	5
NMSCR	11	240	5	96	192	3
BXTAP	11	336	4
NMSTR	12	48	3
NMSCL	12	48	3	96	192	5
EXTAP	12	144	4
NMSTR	12	240	5
NMSCR	12	240	5	96	192	3
BXTAP	12	336	4
NMSTR	13	48	3
NMSCL	13	48	3	96	192	5
EXTAP	13	144	4
NMSTR	13	240	5
NMSCR	13	240	5	96	192	3
BXTAP	13	336	4
NMSTR	14	48	3
BRSI_	14	48	3	96	96	7
EXTAP	14	144	4
NMSTR	14	240	2
NMSCL	14	240	2	96	192	4
BXTAP	14	336	3
NMSTR	15	48	4
NMSCR	15	48	4	96	192	2
EXTAP	15	144	3
NMSTR	15	240	2
NMSCL	15	240	2	96	192	4
BXTAP	15	336	3
NMSTR	16	48	4
NMSCR	16	48	4	96	192	2
EXTAP	16	144	3
NMSTR	16	240	2
NMSCL	16	240	2	96	192	4
BXTAP	16	336	3
NMSTR	17	48	4
NMSCR	17	48	4	96	192	2
EXTAP	17	144	3
NMSTR	17	240	2
NMSCL	17	240	2	96	192	4
BXTAP	17	336	3
NMSTR	18	48	4
BRSI_	18	48	4	96	96	0
EXTAP	18	144	3
NMTAP	18	240	5
BXTAP	18	336	0
BXHLD	18	336	7	768
NMTAP	19	48	2
NMSTR	19	96	1
NMSI_	19	96	1	96	48	5
NMTAP	19	192	1
NMTAP	19	288	6
NMTAP	19	336	6
NMTAP	20	48	5
NMSTR	20	96	6
NMSI_	20	96	6	96	48	2
NMTAP	20	192	6
NMTAP	20	288	1
NMTAP	20	336	1
NMTAP	21	48	2
NMSTR	21	96	1
NMSI_	21	96	1	96	48	4
NMTAP	21	96	5
NMTAP	21	192	1
NMTAP	21	192	6
NMTAP	21	288	7
NMTAP	21	336	7
NMTAP	22	48	5
NMTAP	22	96	4
NMTAP	22	96	6
NMTAP	22	144	2
NMTAP	22	192	1
NMTAP	22	192	3
NMTAP	22	240	4
NMTAP	22	288	3
NMTAP	22	288	5
NMTAP	23	0	1
NMTAP	23	48	0
NMSTR	23	96	7
NMSI_	23	96	7	96	48	3
NMTAP	23	192	3
NMTAP	23	192	7
NMTAP	23	288	1
NMTAP	23	288	5
NMTAP	24	0	6
NMTAP	24	48	7
NMSTR	24	96	0
NMSI_	24	96	0	96	48	4
NMTAP	24	192	0
NMTAP	24	192	4
NMTAP	24	288	2
NMTAP	24	288	6
NMSTR	25	0	7
NMSCL	25	0	7	96	288	3
NMTAP	25	96	3
NMTAP	25	192	2
NMTAP	25	288	2
NMTAP	26	0	2
NMTAP	26	96	2
NMTAP	26	192	2
NMTAP	26	192	3
NMTAP	26	288	1
NMTAP	26	288	3
NMSTR	27	0	0
NMSCR	27	0	0	96	288	4
NMTAP	27	96	4
NMTAP	27	192	5
NMTAP	27	288	5
NMTAP	28	0	5
NMTAP	28	96	5
NMTAP	28	192	4
NMTAP	28	192	5
NMTAP	28	288	4
NMTAP	28	288	6
NMSTR	29	0	7
NMSSR	29	0	7	96	288	3
NMTAP	29	96	3
NMTAP	29	192	2
NMTAP	29	288	2
NMTAP	30	0	2
NMTAP	30	96	2
NMTAP	30	192	2
NMTAP	30	192	3
NMTAP	30	288	1
NMTAP	30	288	3
NMSTR	31	0	0
NMSSL	31	0	0	96	288	4
NMTAP	31	96	4
NMTAP	31	192	5
NMTAP	31	288	5
NMTAP	32	0	5
NMTAP	32	96	3
NMTAP	32	96	6
NMTAP	32	192	2
NMTAP	32	288	1
NMTAP	32	288	4
NMHLD	33	0	5	384
NMTTP	33	96	5	E	0	M1
NMTTP	33	192	6	E	0	M1
NMTTP	33	288	7	E	0	M1
NMHLD	34	0	1	384
NMTTP	34	96	2	E	0	M1
NMTTP	34	192	3	E	0	M1
NMTTP	34	288	4	E	0	M1
NMSTR	35	0	5
NMSXL	35	0	5	96	288	3
NMTTP	35	96	3	E	0	M1
NMTTP	35	192	2	E	0	M1
NMTTP	35	288	1	E	0	M1
NMSTR	36	0	1
NMSXL	36	0	1	96	288	7
NMTTP	36	96	7	E	0	M1
NMTTP	36	192	6	E	0	M1
NMTTP	36	288	5	E	0	M1
NMHLD	37	0	5	384
NMTTP	37	96	6	E	0	M1
NMTTP	37	192	7	E	0	M1
NMTTP	37	288	0	E	0	M1
NMHLD	38	0	1	384
NMTTP	38	96	1	E	0	M1
NMTTP	38	192	2	E	0	M1
NMTTP	38	288	3	E	0	M1
NMHLD	39	0	3	192
NMHLD	39	192	4	192
NMHLD	40	0	6	192
NMTAP	40	192	2
NMSTR	40	288	0
BRSI_	40	288	0	96	48	5
NMSTR	40	288	1
BRSI_	40	288	1	96	48	4
BRTAP	41	0	0
BRTAP	41	0	1
NMTAP	41	96	3
NMTAP	41	96	6
NMTAP	41	192	2
NMTAP	41	240	2
NMTAP	41	288	1
NMTAP	41	288	4
NMTAP	42	0	3
NMTAP	42	0	5
NMTAP	42	48	3
NMSTR	42	48	5
BRSCR	42	48	5	96	96	2
NMTTP	42	144	0	C	1	M1
NMTAP	43	0	3
NMTAP	43	48	3
NMTAP	43	96	5
NMTAP	43	144	5
NMSTR	43	192	1
NMSCR	43	192	1	96	48	3
NMSTR	43	192	6
NMSCL	43	192	6	96	48	4
NMTAP	44	0	5
NMTAP	44	48	5
NMSTR	44	96	3
NMSI_	44	96	3	96	48	0
NMSI_	44	96	3	96	48	6
EXSTR	44	288	6
BRSI_	44	288	6	96	48	3
EXSTR	44	288	7
BRSI_	44	288	7	96	48	2
BRTAP	45	0	6
BRTAP	45	0	7
NMTAP	45	96	1
NMTAP	45	96	4
NMTAP	45	192	5
NMTAP	45	240	5
NMTAP	45	288	3
NMTAP	45	288	6
NMTAP	46	0	2
NMTAP	46	0	4
NMSTR	46	48	2
BRSLL	46	48	2	96	96	6
NMTAP	46	48	4
NMTTP	46	144	0	C	1	M1
CNSLL	46	240	6	0	96	1
NMTAP	47	0	6
NMTAP	47	48	6
NMTAP	47	96	0
NMTAP	47	144	0
NMTAP	47	192	1
NMTAP	47	192	7
NMSTR	47	288	0
NMSCR	47	288	0	96	96	4
NMSTR	48	0	4
NMSCR	48	0	4	96	96	0
NMSTR	48	96	0
NMSCR	48	96	0	96	96	4
NMTAP	48	192	4
NMTAP	48	288	0
NMTAP	49	0	4
NMTAP	49	0	6
NMTAP	49	48	5
NMTAP	49	96	1
NMTAP	49	96	3
NMTAP	49	144	2
NMTAP	49	192	4
NMTAP	49	192	6
NMTAP	49	240	5
NMTAP	49	288	1
NMTAP	49	288	3
NMTAP	49	336	2
NMTAP	50	0	3
NMTAP	50	0	5
NMTAP	50	48	3
NMTAP	50	48	5
NMSTR	50	96	2
NMSI_	50	96	2	96	48	7
NMSTR	50	96	6
NMSI_	50	96	6	96	48	3
BRTAP	50	192	2
BRTAP	50	192	6
EXTAP	50	288	1
EXTAP	50	288	5
EXSTR	50	336	1
NMSI_	50	336	1	96	48	5
EXTAP	50	336	5
NMTAP	51	48	1
EXSTR	51	48	4
NMSI_	51	48	4	96	48	7
EXSTR	51	144	0
NMSI_	51	144	0	96	48	3
NMTAP	51	144	4
EXTAP	51	240	7
EXSTR	51	288	7
NMSCL	51	288	7	96	96	2
NMTAP	52	0	2
NMTAP	52	96	0
NMTAP	52	192	1
NMTAP	52	192	3
NMTAP	52	240	4
NMTAP	52	288	5
NMTAP	52	336	2
EXSTR	52	336	6
NMSI_	52	336	6	96	48	2
EXSTR	53	48	3
NMSI_	53	48	3	96	48	0
NMTAP	53	48	6
NMTAP	53	144	3
EXSTR	53	144	7
NMSI_	53	144	7	96	48	4
EXTAP	53	240	0
EXSTR	53	288	0
NMSCR	53	288	0	96	96	5
NMTAP	54	0	5
NMSTR	54	96	6
NMSI_	54	96	6	96	48	4
NMTAP	54	192	2
CNSI_	54	240	4	0	48	7
NMTAP	54	288	1
CNSI_	54	288	7	0	48	3
NMSTR	55	0	0
NMSI_	55	0	0	96	48	4
NMSTR	55	0	1
NMSI_	55	0	1	96	48	3
NMTAP	55	96	0
NMTAP	55	96	1
NMTAP	55	192	2
NMTAP	55	192	5
NMTAP	55	240	3
NMTAP	55	288	4
NMTAP	55	288	6
NMTAP	55	336	5
NMSTR	56	0	6
NMSI_	56	0	6	96	48	4
NMSTR	56	0	7
NMSI_	56	0	7	96	48	3
NMTAP	56	96	6
NMTAP	56	96	7
NMTAP	56	192	2
NMTAP	56	192	5
NMTAP	56	240	4
NMTAP	56	288	1
NMTAP	56	288	3
NMTAP	56	336	0
NMSTR	57	0	7
NMSLL	57	0	7	96	96	3
NMSTR	57	96	3
NMSLL	57	96	3	96	96	7
NMTAP	57	192	7
NMTAP	57	288	3
BXHLD	58	0	1	96
BXHLD	58	0	5	96
NMTAP	58	192	2
NMTAP	58	192	4
NMTAP	58	240	3
NMTAP	58	288	5
EXTAP	58	336	2
EXSTR	58	336	6
NMSI_	58	336	6	96	48	2
EXSTR	59	48	3
NMSI_	59	48	3	96	48	0
NMTAP	59	48	6
NMTAP	59	144	3
EXSTR	59	144	7
NMSI_	59	144	7	96	48	4
EXTAP	59	240	0
EXSTR	59	288	0
NMSCR	59	288	0	96	96	5
NMTAP	60	0	5
NMTAP	60	96	7
NMTAP	60	192	4
NMTAP	60	192	6
NMTAP	60	240	3
NMTAP	60	288	2
EXSTR	60	336	1
NMSI_	60	336	1	96	48	5
NMTAP	60	336	5
NMTAP	61	48	1
EXSTR	61	48	7
NMSI_	61	48	7	96	48	4
EXSTR	61	144	3
NMSI_	61	144	3	96	48	0
NMTAP	61	144	7
EXTAP	61	240	4
EXSTR	61	288	4
NMSCR	61	288	4	96	96	1
NMTAP	62	0	2
NMSTR	62	96	3
BRSXL	62	96	3	96	96	3
BRSXR	62	96	3	96	96	3
NMSTR	63	0	6
NMSI_	63	0	6	96	48	4
NMSTR	63	0	7
NMSI_	63	0	7	96	48	3
NMTAP	63	96	6
NMTAP	63	96	7
NMTAP	63	192	2
NMTAP	63	192	5
NMTAP	63	240	4
NMTAP	63	288	1
NMTAP	63	288	3
NMTAP	63	336	2
NMSTR	64	0	0
NMSI_	64	0	0	96	48	4
NMSTR	64	0	1
NMSI_	64	0	1	96	48	3
NMTAP	64	96	0
NMTAP	64	96	1
NMTAP	64	192	2
NMTAP	64	192	5
NMTAP	64	240	3
NMTAP	64	288	4
NMTAP	64	288	6
NMTAP	64	336	7
NMSTR	65	0	0
BRSLR	65	0	0	96	96	4
NMSTR	65	96	4
BRSLR	65	96	4	96	96	0
NMTAP	65	192	0
NMSTR	65	288	4
BRSF_	65	288	4	96	96	0
BRTAP	66	192	1
BRTAP	66	192	7
NMTAP	66	240	5
NMTAP	66	264	4
NMSTR	66	288	6
NMSI_	66	288	6	96	48	1
NMSTR	67	0	2
NMSI_	67	0	2	96	48	5
NMTAP	67	0	6
NMTAP	67	96	2
NMSTR	67	96	7
NMSI_	67	96	7	96	48	4
NMSTR	67	192	3
NMSI_	67	192	3	96	48	0
NMTAP	67	192	7
NMTAP	67	288	3
NMSTR	67	288	6
NMSI_	67	288	6	96	48	1
NMSTR	68	0	2
NMSI_	68	0	2	96	48	5
NMTAP	68	0	6
NMTAP	68	96	2
NMSTR	68	96	7
NMSI_	68	96	7	96	48	4
NMSTR	68	192	3
NMSI_	68	192	3	96	48	0
NMTAP	68	192	7
NMTAP	68	288	3
NMSTR	68	288	6
BRSI_	68	288	6	96	48	1
NMSTR	69	0	2
BRSI_	69	0	2	96	48	5
NMTAP	69	0	6
NMTAP	69	96	2
NMSTR	69	96	7
BRSI_	69	96	7	96	48	4
NMSTR	69	192	3
BRSI_	69	192	3	96	48	0
NMTAP	69	192	7
NMSTR	69	288	4
BRSCR	69	288	4	96	96	3
BRTAP	70	0	3
NMTAP	70	192	2
NMTAP	70	216	3
NMTAP	70	240	2
NMTAP	70	264	3
NMTAP	70	288	1
NMTAP	70	312	4
NMTAP	70	336	1
NMTAP	70	360	4
NMSTR	71	0	0
NMSI_	71	0	0	96	48	3
NMSI_	71	0	0	96	48	5
NMTAP	71	96	0
NMTAP	71	192	2
NMTAP	71	192	6
NMTAP	71	240	3
NMTAP	71	288	4
NMTAP	71	288	5
NMTAP	71	336	6
NMSTR	72	0	7
NMSCL	72	0	7	96	48	4
NMSCR	72	0	7	96	48	2
NMTAP	72	96	7
NMTAP	72	192	1
NMTAP	72	192	5
NMTAP	72	240	4
NMTAP	72	288	2
NMTAP	72	288	3
NMTAP	72	336	1
NMSTR	73	0	0
NMSCL	73	0	0	96	48	4
NMTAP	73	0	1
NMTAP	73	96	1
NMSTR	73	192	7
NMSCR	73	192	7	96	48	3
NMSTR	73	288	4
BRSF_	73	288	4	96	48	0
BRTAP	74	0	4
EXTAP	74	96	2
EXTAP	74	96	6
BRTAP	74	192	1
BRTAP	74	192	5
NMTAP	74	240	2
NMTAP	74	264	3
NMSTR	74	288	1
NMSI_	74	288	1	96	48	4
NMTAP	75	0	1
NMSTR	75	0	5
NMSI_	75	0	5	96	48	0
NMSTR	75	96	2
NMSI_	75	96	2	96	48	7
NMTAP	75	96	5
NMTAP	75	192	2
NMSTR	75	192	6
NMSI_	75	192	6	96	48	3
NMSTR	75	288	1
NMSI_	75	288	1	96	48	4
NMTAP	75	288	6
NMTAP	76	0	1
NMSTR	76	0	5
NMSI_	76	0	5	96	48	0
NMSTR	76	96	2
NMSI_	76	96	2	96	48	7
NMTAP	76	96	5
NMTAP	76	192	2
NMSTR	76	192	6
NMSI_	76	192	6	96	48	3
NMSTR	76	288	1
BRSI_	76	288	1	96	48	4
NMTAP	76	288	6
NMTAP	77	0	1
NMSTR	77	0	5
BRSI_	77	0	5	96	48	0
NMSTR	77	96	2
BRSI_	77	96	2	96	48	7
NMTAP	77	96	5
NMTAP	77	192	2
NMSTR	77	192	6
BRSI_	77	192	6	96	48	3
NMSTR	77	288	0
BRSCR	77	288	0	96	96	7
BRTAP	78	0	7
NMTAP	78	192	5
NMTAP	78	216	4
NMTAP	78	240	5
NMTAP	78	264	4
NMTAP	78	288	6
NMTAP	78	312	3
NMTAP	78	336	6
NMTAP	78	360	3
NMSTR	79	0	7
NMSV_	79	0	7	96	48	2
NMSV_	79	0	7	96	48	4
NMTAP	79	96	7
NMTAP	79	192	1
NMTAP	79	192	5
NMTAP	79	240	0
NMTAP	79	288	6
NMTAP	79	288	7
NMTAP	79	336	5
NMSTR	80	0	3
NMSI_	80	0	3	96	48	0
NMSTR	80	0	4
NMSI_	80	0	4	96	48	7
NMTAP	80	96	3
NMTAP	80	96	4
NMTAP	80	192	2
NMTAP	80	192	6
NMTAP	80	240	3
NMTAP	80	288	4
NMTAP	80	288	5
NMTAP	80	336	6
NMSTR	81	0	7
NMSCL	81	0	7	96	48	4
NMSTR	81	96	2
NMSCL	81	96	2	96	48	7
NMSTR	81	192	5
NMSCL	81	192	5	96	48	2
NMSTR	81	288	0
NMSUL	81	288	0	96	96	7
CNSCL	82	96	7	0	96	2
EXTAP	82	288	1
EXSTR	82	288	3
NMSCR	82	288	3	96	96	7
NMTAP	83	0	2
NMSTR	83	96	4
NMSCL	83	96	4	96	96	0
NMTAP	83	192	6
NMSTR	83	288	3
NMSCR	83	288	3	96	96	7
NMTAP	84	0	1
NMSTR	84	96	4
NMSCL	84	96	4	96	96	0
NMTAP	84	192	6
EXSTR	84	288	7
NMSI_	84	288	7	96	48	5
EXSTR	85	0	1
NMSI_	85	0	1	96	48	3
NMTAP	85	0	7
EXSTR	85	96	0
NMSI_	85	96	0	96	48	4
NMTAP	85	96	1
NMTAP	85	192	0
NMTAP	85	192	2
NMSTR	85	288	1
NMSCR	85	288	1	96	96	7
NMHLD	86	0	5	192
BRTAP	86	192	7
NMSTR	86	288	4
NMSCL	86	288	4	96	96	0
NMTAP	86	288	6
NMTAP	87	0	5
NMSTR	87	96	3
NMSCR	87	96	3	96	96	7
NMTAP	87	192	1
NMSTR	87	288	4
NMSCL	87	288	4	96	96	0
NMTAP	88	0	6
NMSTR	88	96	3
NMSCR	88	96	3	96	96	7
NMTAP	88	192	1
EXSTR	88	288	0
NMSCR	88	288	0	96	96	3
NMSTR	89	0	3
NMSI_	89	0	3	96	96	7
NMSTR	89	96	7
NMSCL	89	96	7	96	96	4
NMSTR	89	192	4
NMSI_	89	192	4	96	96	0
NMTAP	89	288	0
BRHLD	90	0	6	192
NMTAP	90	192	4
NMTAP	90	288	1
NMTAP	90	288	3
NMSTR	91	0	1
NMSI_	91	0	1	96	48	4
NMTAP	91	0	7
NMTAP	91	96	6
NMHLD	91	144	6	96
NMTAP	91	240	7
NMSTR	91	288	7
NMSCR	91	288	7	96	48	2
NMTAP	92	0	3
NMTAP	92	96	5
NMSTR	92	144	5
NMSCL	92	144	5	96	48	2
NMTAP	92	240	1
NMSTR	92	288	0
NMSI_	92	288	0	96	48	4
NMSTR	93	0	3
NMSI_	93	0	3	96	48	6
NMTAP	93	96	1
NMHLD	93	144	1	96
NMTAP	93	240	7
NMTAP	93	288	7
NMSTR	94	0	2
NMSI_	94	0	2	96	48	7
NMSTR	94	0	6
NMSI_	94	0	6	96	48	3
NMTAP	94	96	2
NMTAP	94	96	6
NMSTR	94	192	1
NMSCR	94	192	1	96	48	4
NMSTR	94	192	5
NMSCR	94	192	5	96	48	0
NMTAP	94	288	1
NMTAP	94	288	5
EXTAP	95	0	3
EXSTR	95	0	6
NMSI_	95	0	6	96	48	3
NMTAP	95	96	1
NMHLD	95	144	1	96
NMTAP	95	240	0
NMSTR	95	288	0
NMSCL	95	288	0	96	48	5
NMTAP	96	0	4
NMTAP	96	96	2
NMSTR	96	144	2
NMSCR	96	144	2	96	48	5
NMTAP	96	240	6
NMSTR	96	288	7
NMSI_	96	288	7	96	48	3
NMSTR	97	0	4
NMSI_	97	0	4	96	48	1
NMTAP	97	96	6
NMHLD	97	144	6	96
NMTAP	97	240	0
NMTAP	97	288	0
NMSTR	98	0	2
NMSI_	98	0	2	96	48	0
NMSTR	98	0	3
NMSI_	98	0	3	96	48	7
NMTAP	98	96	2
NMTAP	98	96	3
NMSTR	98	192	4
NMSI_	98	192	4	96	48	0
NMSTR	98	192	5
NMSI_	98	192	5	96	48	7
NMTAP	98	288	4
NMTAP	98	288	5
NMSTR	99	0	1
NMSI_	99	0	1	96	48	4
NMTAP	99	0	6
NMTAP	99	96	5
NMHLD	99	144	5	96
NMTAP	99	240	7
NMSTR	99	288	7
NMSCR	99	288	7	96	48	2
NMTAP	100	0	3
NMTAP	100	96	5
NMSTR	100	144	5
NMSCL	100	144	5	96	48	2
NMTAP	100	240	2
NMSTR	100	288	1
NMSI_	100	288	1	96	48	6
NMSTR	101	0	4
NMSI_	101	0	4	96	48	7
NMTAP	101	96	2
NMHLD	101	144	2	96
NMTAP	101	240	0
NMSTR	101	288	7
NMSI_	101	288	7	96	48	3
NMSTR	102	0	7
NMSCR	102	0	7	96	48	2
NMSTR	102	96	7
NMSCL	102	96	7	96	48	4
NMSTR	102	192	7
NMSF_	102	192	7	96	48	3
NMTAP	102	288	7
EXTAP	103	0	1
EXTAP	103	0	5
NMTAP	103	48	6
NMTAP	103	96	3
NMHLD	103	96	7	96
NMSTR	103	192	4
NMSI_	103	192	4	96	48	0
NMTAP	103	288	4
NMTAP	103	288	5
EXTAP	104	0	2
EXTAP	104	0	6
NMTAP	104	48	1
NMTAP	104	96	0
NMTAP	104	96	4
NMSTR	104	192	0
NMSI_	104	192	0	96	48	4
NMSTR	104	192	1
NMSI_	104	192	1	96	48	5
BRTAP	104	288	0
BRTAP	104	288	1

T_REC_TAP	377
T_REC_BRK	16
T_REC_XTP	28
T_REC_BXX	13
T_REC_HLD	16
T_REC_XHO	0
T_REC_BHO	1
T_REC_BXH	3
T_REC_STR	140
T_REC_BST	0
T_REC_XST	24
T_REC_XBS	0
T_REC_TTP	20
T_REC_THO	0
T_REC_SLD	144
T_REC_BSL	25
T_REC_ALL	807
T_NUM_TAP	589
T_NUM_BRK	58
T_NUM_HLD	16
T_NUM_SLD	144
T_NUM_ALL	807
T_JUDGE_TAP	618
T_JUDGE_HLD	88
T_JUDGE_SLD	169
T_JUDGE_ALL	875
TTM_EACHPAIRS	157
TTM_SCR_TAP	294500
TTM_SCR_BRK	150800
TTM_SCR_HLD	16000
TTM_SCR_SLD	216000
TTM_SCR_ALL	677300
TTM_SCR_S	651400
TTM_SCR_SS	671500
TTM_RAT_ACV	10086

