VERSION	0.00.00	1.04.00
FES_MODE	0
BPM_DEF	180.000	180.000	180.000	180.000
MET_DEF	4	4
RESOLUTION	384
CLK_DEF	384
COMPATIBLE_CODE	MA2

BPM	0	0	180.000
MET	0	0	4	4
MET	1	0	4	4
MET	2	0	4	2
MET	2	192	4	4
MET	3	192	4	2
MET	4	0	4	4
MET	5	0	4	2
MET	5	192	4	4
MET	6	192	4	2
MET	7	0	4	4

EXTAP	1	0	2
EXTAP	1	0	4
EXTAP	1	48	2
EXTAP	1	48	4
EXTAP	1	96	2
EXTAP	1	96	4
EXTAP	1	144	2
EXTAP	1	144	4
EXTAP	2	192	3
EXTAP	2	192	5
EXTAP	2	240	3
EXTAP	2	240	5
EXTAP	2	288	3
EXTAP	2	288	5
EXTAP	2	336	3
EXTAP	2	336	5
NMTAP	3	288	0
NMTAP	3	288	7
EXTAP	4	0	1
EXTAP	4	0	4
EXTAP	4	48	1
EXTAP	4	48	4
EXTAP	4	96	1
EXTAP	4	96	4
EXTAP	4	144	1
EXTAP	4	144	4
NMTAP	4	288	2
NMTAP	4	288	3
NMTAP	5	0	3
NMTAP	5	0	4
NMTAP	5	96	4
NMTAP	5	96	5
EXTAP	5	192	3
EXTAP	5	192	6
EXTAP	5	240	3
EXTAP	5	240	6
EXTAP	5	288	3
EXTAP	5	288	6
EXTAP	5	336	3
EXTAP	5	336	6
NMTAP	6	288	2
NMTAP	6	288	3
NMTAP	6	336	2
NMTAP	6	336	3
NMTAP	7	48	1
NMTAP	7	96	1
NMTAP	7	144	0
NMTAP	7	240	6
NMTAP	7	288	6
NMTAP	7	336	7
NMTAP	8	48	5
NMTAP	8	96	5
NMTAP	8	144	4
NMTAP	8	240	2
NMTAP	8	288	2
NMTAP	8	336	3
NMTAP	9	48	6
NMTAP	9	96	6
NMTAP	9	144	4
NMTAP	9	240	1
NMTAP	9	288	1
NMTAP	9	336	3
NMTAP	10	48	2
NMTAP	10	48	4
NMHLD	10	144	1	96
NMHLD	10	144	5	96
NMTAP	10	336	4
NMTAP	10	336	5
NMTAP	11	48	6
NMTAP	11	96	6
NMTAP	11	144	7
NMTAP	11	240	1
NMTAP	11	288	1
NMTAP	11	336	0
NMTAP	12	48	2
NMTAP	12	96	2
NMTAP	12	144	3
NMTAP	12	240	5
NMTAP	12	288	5
NMTAP	12	336	4
NMTAP	13	48	1
NMTAP	13	96	1
NMTAP	13	144	3
NMTAP	13	240	6
NMTAP	13	288	6
NMTAP	13	336	4
NMTAP	14	48	3
NMTAP	14	48	5
NMHLD	14	144	2	96
NMHLD	14	144	6	96
NMTAP	14	336	2
NMTAP	14	336	3
NMTAP	15	48	1
NMTAP	15	96	1
NMTAP	15	144	3
NMTAP	15	240	6
NMTAP	15	288	6
NMTAP	15	336	4
NMTAP	16	48	6
NMTAP	16	96	6
NMTAP	16	144	7
NMTAP	16	240	1
NMTAP	16	288	1
NMTAP	16	336	0
NMTAP	17	48	5
NMTAP	17	96	5
NMTAP	17	144	3
NMTAP	17	240	2
NMTAP	17	288	2
NMTAP	17	336	4
NMTAP	18	48	0
NMTAP	18	48	6
NMHLD	18	144	1	96
NMHLD	18	144	5	96
BXTAP	18	336	0
BXHLD	18	336	7	1200
EXTAP	19	96	0
EXTAP	19	192	1
EXTAP	19	288	2
EXTAP	20	0	3
EXTAP	20	96	4
EXTAP	20	192	5
EXTAP	20	288	6
EXTAP	21	0	0
EXTAP	21	96	1
EXTAP	21	192	2
EXTAP	21	288	3
EXTAP	22	0	4
NMTAP	22	96	3
NMTAP	22	96	5
NMTAP	22	192	1
NMTAP	22	192	7
NMTAP	22	288	2
NMTAP	22	288	6
NMTAP	23	0	5
NMTAP	23	48	5
NMTAP	23	96	4
NMTAP	23	192	2
NMTAP	23	240	2
NMTAP	23	288	3
NMTAP	24	0	1
NMTAP	24	0	4
NMTAP	24	96	1
NMTAP	24	96	4
NMTAP	24	192	3
NMTAP	24	192	5
NMTAP	24	288	2
NMTAP	24	288	6
NMHLD	25	0	1	768
NMTAP	25	96	3
NMTAP	25	192	3
NMTAP	25	288	3
NMTAP	26	0	4
NMTAP	26	96	4
NMTAP	26	192	3
NMTAP	26	288	5
NMHLD	27	0	6	768
NMTAP	27	96	4
NMTAP	27	192	4
NMTAP	27	288	4
NMTAP	28	0	3
NMTAP	28	96	3
NMTAP	28	192	4
NMTAP	28	288	2
NMHLD	29	0	1	768
NMTAP	29	96	3
NMTAP	29	192	3
NMTAP	29	288	3
NMTAP	30	0	4
NMTAP	30	96	4
NMTAP	30	192	3
NMTAP	30	288	5
NMHLD	31	0	6	576
NMTAP	31	96	4
NMTAP	31	192	4
NMTAP	31	288	4
NMTAP	32	0	3
NMTAP	32	96	3
NMTAP	32	192	4
NMTAP	32	288	3
NMTAP	32	288	5
NMHLD	33	0	2	768
NMTTP	33	96	1	E	0	M1
NMTTP	33	192	2	E	0	M1
NMTTP	33	288	3	E	0	M1
NMTTP	34	0	7	E	0	M1
NMTTP	34	96	6	E	0	M1
NMTTP	34	192	5	E	0	M1
NMTTP	34	288	4	E	0	M1
NMHLD	35	0	5	768
NMTTP	35	96	7	E	0	M1
NMTTP	35	192	6	E	0	M1
NMTTP	35	288	5	E	0	M1
NMTTP	36	0	1	E	0	M1
NMTTP	36	96	2	E	0	M1
NMTTP	36	192	3	E	0	M1
NMTTP	36	288	4	E	0	M1
NMHLD	37	0	2	768
NMTTP	37	96	1	E	0	M1
NMTTP	37	192	2	E	0	M1
NMTTP	37	288	3	E	0	M1
NMTTP	38	0	7	E	0	M1
NMTTP	38	96	6	E	0	M1
NMTTP	38	192	5	E	0	M1
NMTTP	38	288	4	E	0	M1
NMSTR	39	0	5
NMSCR	39	0	5	96	192	2
EXHLD	40	0	0	96
EXHLD	40	0	7	96
EXTAP	40	192	1
EXTAP	40	192	6
NMSTR	40	288	6
BRSCL	40	288	6	96	96	3
NMSTR	40	288	7
BRSCR	40	288	7	96	96	2
EXTAP	41	240	1
EXTAP	41	240	4
EXTAP	41	288	1
EXTAP	41	288	4
EXTAP	42	0	3
EXTAP	42	0	6
EXSTR	42	96	4
BRSI_	42	96	4	96	96	1
EXSTR	42	96	5
BRSI_	42	96	5	96	96	0
NMTAP	43	0	1
NMTAP	43	96	2
NMTAP	43	96	3
NMTAP	43	192	5
NMTAP	43	240	5
NMTAP	43	288	4
NMTAP	44	0	3
NMTAP	44	0	6
NMTAP	44	96	2
NMTAP	44	192	2
NMTAP	44	192	3
NMSTR	44	288	0
BRSCL	44	288	0	96	96	5
NMSTR	44	288	1
BRSCR	44	288	1	96	96	4
EXTAP	45	240	3
EXTAP	45	240	6
EXTAP	45	288	3
EXTAP	45	288	6
EXTAP	46	0	1
EXTAP	46	0	4
EXSTR	46	96	2
BRSI_	46	96	2	96	96	6
EXSTR	46	96	3
BRSI_	46	96	3	96	96	7
NMTAP	47	0	6
NMTAP	47	96	4
NMTAP	47	96	5
NMTAP	47	192	2
NMTAP	47	240	2
NMTAP	47	288	3
NMTAP	48	0	0
NMTAP	48	0	1
NMTAP	48	96	6
NMTAP	48	96	7
NMTAP	48	192	4
NMTAP	48	192	5
NMSTR	48	288	4
NMSUR	48	288	4	96	240	3
NMSTR	48	288	5
NMSCR	48	288	5	96	240	2
NMTAP	50	0	3
NMTAP	50	0	4
NMTAP	50	48	3
NMTAP	50	48	4
NMTAP	50	96	3
NMTAP	50	96	4
BRTAP	50	192	2
BRTAP	50	192	5
EXSTR	50	288	6
NMSI_	50	288	6	96	48	3
EXSTR	50	288	7
NMSI_	50	288	7	96	48	3
EXSTR	51	96	0
NMSI_	51	96	0	96	48	4
EXSTR	51	96	1
NMSI_	51	96	1	96	48	4
EXSTR	51	288	6
NMSI_	51	288	6	96	48	3
EXSTR	51	288	7
NMSI_	51	288	7	96	48	3
NMTAP	52	96	2
NMTAP	52	192	0
NMTAP	52	192	1
EXSTR	52	288	0
NMSI_	52	288	0	96	48	4
EXSTR	52	288	1
NMSI_	52	288	1	96	48	4
EXSTR	53	96	6
NMSI_	53	96	6	96	48	3
EXSTR	53	96	7
NMSI_	53	96	7	96	48	3
EXSTR	53	288	0
NMSI_	53	288	0	96	48	4
EXSTR	53	288	1
NMSI_	53	288	1	96	48	4
NMTAP	54	96	5
NMTAP	54	192	6
NMTAP	54	192	7
NMSTR	54	288	6
NMSCL	54	288	6	96	96	3
NMSTR	54	288	7
NMSUL	54	288	7	96	96	2
NMTAP	55	192	0
NMTAP	55	192	1
NMSTR	55	288	6
NMSUR	55	288	6	96	96	3
NMSTR	55	288	7
NMSCR	55	288	7	96	96	2
NMTAP	56	192	4
NMHLD	56	288	5	96
NMHLD	57	0	7	96
NMHLD	57	96	0	96
NMHLD	57	192	2	96
NMTAP	57	288	4
BRTAP	58	0	1
BRTAP	58	0	5
NMTAP	58	192	0
NMTAP	58	192	7
EXSTR	58	288	1
NMSI_	58	288	1	96	48	4
EXSTR	58	288	7
NMSI_	58	288	7	96	48	4
EXSTR	59	96	0
NMSI_	59	96	0	96	48	3
EXSTR	59	96	6
NMSI_	59	96	6	96	48	3
EXSTR	59	288	1
NMSI_	59	288	1	96	48	4
EXSTR	59	288	7
NMSI_	59	288	7	96	48	4
NMTAP	60	96	0
NMTAP	60	96	6
NMTAP	60	192	1
NMTAP	60	192	5
EXSTR	60	288	0
NMSI_	60	288	0	96	48	3
EXSTR	60	288	6
NMSI_	60	288	6	96	48	3
EXSTR	61	96	1
NMSI_	61	96	1	96	48	4
EXSTR	61	96	7
NMSI_	61	96	7	96	48	4
EXSTR	61	288	0
NMSI_	61	288	0	96	48	3
EXSTR	61	288	6
NMSI_	61	288	6	96	48	3
NMTAP	62	96	1
NMTAP	62	96	7
NMTAP	62	192	6
NMSTR	62	288	4
NMSCL	62	288	4	96	96	1
NMSTR	62	288	5
NMSUL	62	288	5	96	96	0
NMTAP	63	192	6
NMTAP	63	192	7
NMSTR	63	288	4
NMSUR	63	288	4	96	96	1
NMSTR	63	288	5
NMSCR	63	288	5	96	96	0
NMTAP	64	192	2
NMHLD	64	288	1	96
NMHLD	65	0	3	96
NMHLD	65	96	4	96
NMHLD	65	192	6	96
NMTAP	65	288	0
BRTAP	66	0	1
BRTAP	66	0	5
NMTAP	66	192	3
NMTAP	66	192	4
NMTAP	66	288	3
NMTAP	66	288	4
NMTAP	67	0	4
NMTAP	67	0	6
NMTAP	67	96	6
NMTAP	67	96	7
NMTAP	67	192	1
NMTAP	67	192	3
NMTAP	67	288	0
NMTAP	67	288	1
NMTAP	68	0	4
NMTAP	68	0	6
NMTAP	68	96	6
NMTAP	68	96	7
NMTAP	68	192	3
NMTAP	68	192	4
NMTAP	68	288	2
NMTAP	68	288	5
NMTAP	69	0	1
NMTAP	69	0	3
NMTAP	69	96	0
NMTAP	69	96	1
NMTAP	69	192	4
NMTAP	69	192	6
NMSTR	69	288	6
NMSUL	69	288	6	96	96	1
NMTAP	69	288	7
BRTAP	70	192	0
BRTAP	70	192	7
BRTAP	70	288	2
BRTAP	70	288	5
NMTAP	71	0	4
NMTAP	71	0	6
NMTAP	71	96	0
NMTAP	71	192	1
NMTAP	71	192	3
NMTAP	71	288	7
NMTAP	72	0	3
NMTAP	72	0	6
NMTAP	72	96	1
NMTAP	72	96	4
NMHLD	72	192	5	96
NMHLD	72	288	7	96
NMHLD	73	0	0	96
NMHLD	73	96	2	96
NMTAP	73	192	5
NMTAP	73	288	2
NMTAP	73	288	5
NMTTP	74	0	3	B	0	M1
NMTTP	74	0	4	B	0	M1
NMTTP	74	0	4	E	1	M1
NMTAP	74	192	1
NMTAP	74	192	7
NMTAP	74	288	1
NMTAP	74	288	7
NMTAP	75	0	0
NMTAP	75	0	6
NMTAP	75	96	4
NMTAP	75	192	1
NMTAP	75	192	7
NMTAP	75	288	3
NMTAP	76	0	0
NMTAP	76	0	6
NMTAP	76	96	4
NMTAP	76	192	1
NMTAP	76	192	7
NMTAP	76	288	3
NMTAP	77	0	0
NMTAP	77	0	6
NMTAP	77	96	2
NMTAP	77	96	4
NMSTR	77	192	1
NMSCR	77	192	1	96	96	4
NMSTR	77	192	5
NMSCR	77	192	5	96	96	0
NMTAP	78	192	0
NMTAP	78	192	7
NMTAP	78	288	2
NMTAP	78	288	5
NMHLD	79	0	1	96
NMTAP	79	96	3
NMHLD	79	192	6	96
NMTAP	79	288	4
NMHLD	80	0	2	96
NMTAP	80	96	0
NMHLD	80	192	5	96
NMTAP	80	288	7
NMHLD	81	0	1	96
NMHLD	81	96	3	96
NMHLD	81	192	4	96
NMSTR	81	288	6
BRSCL	81	288	6	96	240	7
NMTTP	82	0	0	C	1	M1
NMSTR	83	0	1
NMSCR	83	0	1	96	96	4
NMSTR	83	192	5
NMSCR	83	192	5	96	96	0
NMHLD	84	0	2	96
NMTAP	84	96	0
NMHLD	84	192	5	96
NMTAP	84	288	7
NMHLD	85	0	1	96
NMTAP	85	96	3
NMHLD	85	192	6	96
NMSTR	85	288	4
NMSLL	85	288	4	96	144	0
EXTAP	86	192	7
NMTAP	86	288	3
NMTAP	86	288	5
NMSTR	87	0	6
NMSCL	87	0	6	96	96	3
NMSTR	87	192	2
NMSCL	87	192	2	96	96	7
NMHLD	88	0	5	96
NMTAP	88	96	7
NMHLD	88	192	2	96
NMTAP	88	288	0
NMHLD	89	0	6	96
NMTAP	89	96	4
NMHLD	89	192	1	96
NMTAP	89	288	3
BRTAP	90	0	0
BRTAP	90	0	4
NMTAP	90	192	2
NMTAP	90	192	5
NMTAP	90	288	3
NMTAP	90	288	4
NMTAP	91	0	1
NMTAP	91	0	6
BXTAP	91	96	0
BXHLD	91	96	7	960
NMTAP	91	288	4
NMTAP	92	0	4
NMTAP	92	96	5
NMTAP	92	192	5
NMTAP	92	288	6
NMTAP	93	0	6
NMTAP	93	96	0
NMTAP	93	192	0
NMTAP	93	288	1
NMTAP	94	0	2
NMTAP	94	96	3
NMTAP	94	96	5
NMTAP	94	192	3
NMTAP	94	192	5
NMTAP	94	288	2
NMTAP	94	288	4
NMTAP	95	0	1
NMTAP	95	0	5
BXHLD	95	96	0	960
BXTAP	95	96	6
NMTAP	95	288	3
NMTAP	96	0	3
NMTAP	96	96	2
NMTAP	96	192	2
NMTAP	96	288	1
NMTAP	97	0	1
NMTAP	97	96	7
NMTAP	97	192	7
NMTAP	97	288	6
NMTAP	98	0	6
NMTAP	98	96	5
NMTAP	98	192	4
NMTAP	98	192	5
NMTAP	98	288	3
NMTAP	98	288	4
NMSTR	99	0	2
NMSCL	99	0	2	96	96	7
NMSTR	99	0	3
NMSCR	99	0	3	96	96	6
EXTAP	99	288	6
EXTAP	99	288	7
NMSTR	100	0	4
NMSCL	100	0	4	96	96	1
NMSTR	100	0	5
NMSCR	100	0	5	96	96	0
EXTAP	100	288	0
EXTAP	100	288	1
NMTAP	101	0	0
NMTAP	101	0	1
NMTAP	101	96	3
NMTAP	101	96	6
NMTAP	101	192	6
NMTAP	101	192	7
NMTAP	101	288	1
NMTAP	101	288	4
NMTAP	102	0	2
NMTAP	102	0	3
NMTAP	102	96	0
NMTAP	102	96	5
NMTAP	102	192	4
NMTAP	102	192	5
NMTAP	102	288	2
NMTAP	102	288	7
NMTAP	103	0	6
NMTAP	103	48	6
NMTAP	103	96	7
NMTAP	103	192	4
NMTAP	103	192	5
NMTAP	103	288	2
NMTAP	103	288	3
NMTAP	104	0	1
NMTAP	104	48	1
NMTAP	104	96	0
NMSTR	104	192	2
BRSI_	104	192	2	96	96	7
NMSTR	104	192	3
BRSI_	104	192	3	96	96	6

T_REC_TAP	319
T_REC_BRK	12
T_REC_XTP	63
T_REC_BXX	3
T_REC_HLD	40
T_REC_XHO	2
T_REC_BHO	0
T_REC_BXH	3
T_REC_STR	30
T_REC_BST	0
T_REC_XST	28
T_REC_XBS	0
T_REC_TTP	25
T_REC_THO	0
T_REC_SLD	47
T_REC_BSL	11
T_REC_ALL	583
T_NUM_TAP	465
T_NUM_BRK	29
T_NUM_HLD	42
T_NUM_SLD	47
T_NUM_ALL	583
T_JUDGE_TAP	480
T_JUDGE_HLD	243
T_JUDGE_SLD	58
T_JUDGE_ALL	781
TTM_EACHPAIRS	149
TTM_SCR_TAP	232500
TTM_SCR_BRK	75400
TTM_SCR_HLD	42000
TTM_SCR_SLD	70500
TTM_SCR_ALL	420400
TTM_SCR_S	405000
TTM_SCR_SS	417500
TTM_RAT_ACV	10069

