VERSION	0.00.00	1.04.00
FES_MODE	0
BPM_DEF	180.000	180.000	180.000	180.000
MET_DEF	4	4
RESOLUTION	384
CLK_DEF	384
COMPATIBLE_CODE	MA2

BPM	0	0	180.000
MET	0	0	4	4
MET	1	0	4	4
MET	2	0	4	2
MET	2	192	4	4
MET	3	192	4	2
MET	4	0	4	4
MET	5	0	4	2
MET	5	192	4	4
MET	6	192	4	2
MET	7	0	4	4

NMTAP	1	0	2
NMTAP	1	192	2
NMTAP	2	0	2
NMTAP	2	192	3
NMTAP	3	0	3
NMTAP	3	192	3
NMTAP	4	0	4
NMTAP	4	192	4
NMTAP	5	0	4
NMTAP	5	192	5
NMTAP	6	0	5
NMTAP	6	192	4
NMTAP	6	192	5
NMTAP	7	96	6
NMTAP	7	192	6
NMTAP	7	288	6
NMTAP	8	96	5
NMTAP	8	192	5
NMTAP	8	288	5
NMTAP	9	96	4
NMTAP	9	192	4
NMTAP	9	288	4
NMTAP	10	96	2
NMTAP	10	96	3
NMTAP	10	288	2
NMTAP	10	288	3
NMTAP	11	96	1
NMTAP	11	192	1
NMTAP	11	288	1
NMTAP	12	96	2
NMTAP	12	192	2
NMTAP	12	288	2
NMTAP	13	96	3
NMTAP	13	192	3
NMTAP	13	288	3
NMTAP	14	96	4
NMTAP	14	96	5
NMTAP	14	288	4
NMTAP	14	288	5
NMTAP	15	96	4
NMTAP	15	192	4
NMTAP	15	288	4
NMTAP	16	96	5
NMTAP	16	192	5
NMTAP	16	288	5
NMTAP	17	96	6
NMTAP	17	192	6
NMTAP	17	288	6
NMTAP	18	96	0
NMTAP	18	96	7
NMHLD	18	288	0	864
NMHLD	18	288	7	864
NMSTR	23	0	0
NMSXL	23	0	0	96	480	3
NMSTR	23	0	7
NMSXR	23	0	7	96	480	4
NMHLD	25	0	2	192
NMHLD	25	192	3	192
NMHLD	26	0	4	192
NMTAP	26	192	5
NMHLD	27	0	5	192
NMHLD	27	192	4	192
NMHLD	28	0	3	192
NMTAP	28	192	2
NMHLD	29	0	1	192
NMHLD	29	192	2	192
NMHLD	30	0	3	192
NMTAP	30	192	4
NMHLD	31	0	6	192
NMHLD	31	192	5	192
NMHLD	32	0	4	192
NMTAP	32	192	3
NMTAP	33	0	2
NMTAP	33	96	2
NMTAP	33	192	2
NMTAP	33	192	3
NMTAP	34	0	1
NMTAP	34	96	1
NMTAP	34	192	0
NMTAP	34	192	1
NMTAP	35	0	6
NMTAP	35	96	6
NMTAP	35	192	6
NMTAP	35	192	7
NMTAP	36	0	5
NMTAP	36	96	5
NMTAP	36	192	4
NMTAP	36	192	5
NMHLD	37	0	6	192
NMTAP	37	192	7
NMHLD	38	0	1	192
NMTAP	38	192	0
NMTAP	39	0	0
NMTAP	39	0	7
NMTAP	39	96	0
NMTAP	39	96	7
NMTAP	39	192	0
NMTAP	39	192	7
NMHLD	40	0	0	192
NMHLD	40	0	7	192
NMTTP	41	0	6	B	0	L1
NMTTP	41	96	5	B	0	L1
NMTTP	41	192	4	B	0	L1
NMTTP	41	288	3	B	0	L1
NMTTP	42	0	2	B	0	L1
NMTTP	42	96	1	B	0	L1
NMTTP	42	192	0	C	0	L1
NMTTP	43	0	7	B	0	L1
NMTTP	43	96	6	B	0	L1
NMTTP	43	192	4	B	0	L1
NMTTP	43	192	5	B	0	L1
NMTTP	44	0	0	B	0	L1
NMTTP	44	96	1	B	0	L1
NMTTP	44	192	2	B	0	L1
NMTTP	44	192	3	B	0	L1
NMTTP	45	0	5	B	0	L1
NMTTP	45	96	6	B	0	L1
NMTTP	45	192	7	B	0	L1
NMTTP	45	288	0	B	0	L1
NMTTP	46	0	1	B	0	L1
NMTTP	46	96	2	B	0	L1
NMTTP	46	192	0	C	0	L1
NMTTP	47	0	4	B	0	L1
NMTTP	47	96	5	B	0	L1
NMTTP	47	192	6	B	0	L1
NMTTP	47	192	7	B	0	L1
NMTTP	48	0	3	B	0	L1
NMTTP	48	96	2	B	0	L1
NMTTP	48	192	0	B	0	L1
NMTTP	48	192	1	B	0	L1
NMTHO	49	0	0	384	C	1	L1
NMTAP	51	0	2
NMTAP	51	96	2
NMTAP	51	192	0
NMTAP	51	192	1
NMTAP	51	288	0
NMTAP	51	288	1
NMTAP	52	0	7
NMTAP	52	96	7
NMTAP	52	192	6
NMTAP	52	192	7
NMTAP	53	0	5
NMTAP	53	96	5
NMTAP	53	192	6
NMTAP	53	192	7
NMTAP	53	288	6
NMTAP	53	288	7
NMTAP	54	0	0
NMTAP	54	96	0
NMTAP	54	192	0
NMTAP	54	192	1
NMTAP	55	0	0
NMTAP	55	0	1
NMTAP	55	96	0
NMTAP	55	96	1
NMTAP	55	192	2
NMTAP	55	192	7
NMTAP	56	0	2
NMTAP	56	0	3
NMTAP	56	96	2
NMTAP	56	96	3
NMTAP	56	192	1
NMTAP	56	192	4
NMTAP	57	0	0
NMTAP	57	96	1
NMTAP	57	192	2
NMTAP	57	288	3
BRTAP	58	0	4
BRTAP	58	0	5
NMTAP	59	0	5
NMTAP	59	96	5
NMTAP	59	192	6
NMTAP	59	192	7
NMTAP	59	288	6
NMTAP	59	288	7
NMTAP	60	0	0
NMTAP	60	96	0
NMTAP	60	192	0
NMTAP	60	192	1
NMTAP	61	0	2
NMTAP	61	96	2
NMTAP	61	192	0
NMTAP	61	192	1
NMTAP	61	288	0
NMTAP	61	288	1
NMTAP	62	0	7
NMTAP	62	96	7
NMTAP	62	192	6
NMTAP	62	192	7
NMTAP	63	0	6
NMTAP	63	0	7
NMTAP	63	96	6
NMTAP	63	96	7
NMTAP	63	192	0
NMTAP	63	192	5
NMTAP	64	0	4
NMTAP	64	0	5
NMTAP	64	96	4
NMTAP	64	96	5
NMTAP	64	192	3
NMTAP	64	192	6
NMTAP	65	0	7
NMTAP	65	96	6
NMTAP	65	192	5
NMTAP	65	288	4
BRTAP	66	0	2
BRTAP	66	0	3
NMTAP	67	0	1
NMTAP	67	96	1
NMTAP	67	192	0
NMTAP	67	192	1
NMTAP	67	288	0
NMTAP	67	288	1
NMTAP	68	0	2
NMTAP	68	96	2
NMTAP	68	192	2
NMTAP	68	192	3
NMTAP	68	288	2
NMTAP	68	288	3
NMTAP	69	0	4
NMTAP	69	96	4
NMTAP	69	192	4
NMTAP	69	192	5
NMTAP	69	288	4
NMTAP	69	288	5
NMTAP	70	0	6
NMTAP	70	0	7
NMTAP	70	96	6
NMTAP	70	96	7
NMTAP	70	192	6
NMTAP	70	192	7
NMTAP	71	0	4
NMTAP	71	0	5
NMTAP	71	96	4
NMTAP	71	96	5
NMTAP	71	192	3
NMTAP	71	192	6
NMTAP	72	0	2
NMTAP	72	0	3
NMTAP	72	96	2
NMTAP	72	96	3
NMTAP	72	192	1
NMTAP	72	192	4
NMTAP	73	0	3
NMTAP	73	96	2
NMTAP	73	192	1
NMTAP	73	288	0
BRTAP	74	0	6
BRTAP	74	0	7
NMTAP	75	0	6
NMTAP	75	96	6
NMTAP	75	192	6
NMTAP	75	192	7
NMTAP	75	288	6
NMTAP	75	288	7
NMTAP	76	0	5
NMTAP	76	96	5
NMTAP	76	192	4
NMTAP	76	192	5
NMTAP	76	288	4
NMTAP	76	288	5
NMTAP	77	0	3
NMTAP	77	96	3
NMTAP	77	192	2
NMTAP	77	192	3
NMTAP	77	288	2
NMTAP	77	288	3
NMTAP	78	0	0
NMTAP	78	0	1
NMTAP	78	96	0
NMTAP	78	96	1
NMTAP	78	192	0
NMTAP	78	192	1
NMTAP	79	0	2
NMTAP	79	0	3
NMTAP	79	96	2
NMTAP	79	96	3
NMTAP	79	192	1
NMTAP	79	192	4
NMTAP	80	0	4
NMTAP	80	0	5
NMTAP	80	96	4
NMTAP	80	96	5
NMTAP	80	192	3
NMTAP	80	192	6
NMTAP	81	0	4
NMTAP	81	96	5
NMTAP	81	192	6
NMTAP	81	288	7
BRTAP	82	0	0
BRTAP	82	0	1
NMSTR	83	0	1
NMSI_	83	0	1	96	192	4
NMSTR	84	0	6
NMSI_	84	0	6	96	192	3
NMSTR	85	0	1
NMSI_	85	0	1	96	192	5
NMSTR	86	0	6
NMSI_	86	0	6	96	192	2
NMSTR	87	0	1
NMSCR	87	0	1	96	192	4
NMSTR	88	0	5
NMSCR	88	0	5	96	192	0
NMSTR	89	0	1
NMSUR	89	0	1	96	480	4
NMTAP	91	0	5
NMTAP	91	96	5
NMTAP	91	192	4
NMTAP	91	192	5
NMTAP	92	0	6
NMTAP	92	96	6
NMTAP	92	192	6
NMTAP	92	192	7
NMTAP	93	0	0
NMTAP	93	96	0
NMTAP	93	192	0
NMTAP	93	192	1
NMHLD	94	0	2	192
NMHLD	94	0	3	192
NMTAP	95	0	2
NMTAP	95	96	2
NMTAP	95	192	2
NMTAP	95	192	3
NMTAP	96	0	1
NMTAP	96	96	1
NMTAP	96	192	0
NMTAP	96	192	1
NMTAP	97	0	7
NMTAP	97	96	7
NMTAP	97	192	6
NMTAP	97	192	7
NMHLD	98	0	4	192
NMHLD	98	0	5	192
NMTAP	99	0	6
NMTAP	99	0	7
NMTAP	99	96	6
NMTAP	99	96	7
NMTAP	99	192	6
NMTAP	99	192	7
NMTAP	100	0	4
NMTAP	100	0	5
NMTAP	100	96	4
NMTAP	100	96	5
NMTAP	100	192	4
NMTAP	100	192	5
NMTAP	101	0	2
NMTAP	101	0	3
NMTAP	101	96	2
NMTAP	101	96	3
NMTAP	101	192	2
NMTAP	101	192	3
NMTAP	102	0	0
NMTAP	102	0	1
NMTAP	102	96	0
NMTAP	102	96	1
NMTAP	102	192	0
NMTAP	102	192	1
NMTAP	103	0	0
NMTAP	103	96	1
NMTAP	103	192	2
NMTAP	103	288	3
NMTAP	104	0	4
NMTAP	104	96	5
NMTAP	104	192	6
BRTAP	104	288	0
BRTAP	104	288	7

T_REC_TAP	285
T_REC_BRK	10
T_REC_XTP	0
T_REC_BXX	0
T_REC_HLD	22
T_REC_XHO	0
T_REC_BHO	0
T_REC_BXH	0
T_REC_STR	9
T_REC_BST	0
T_REC_XST	0
T_REC_XBS	0
T_REC_TTP	30
T_REC_THO	1
T_REC_SLD	9
T_REC_BSL	0
T_REC_ALL	366
T_NUM_TAP	324
T_NUM_BRK	10
T_NUM_HLD	23
T_NUM_SLD	9
T_NUM_ALL	366
T_JUDGE_TAP	334
T_JUDGE_HLD	124
T_JUDGE_SLD	9
T_JUDGE_ALL	467
TTM_EACHPAIRS	95
TTM_SCR_TAP	162000
TTM_SCR_BRK	26000
TTM_SCR_HLD	23000
TTM_SCR_SLD	13500
TTM_SCR_ALL	224500
TTM_SCR_S	216800
TTM_SCR_SS	223500
TTM_RAT_ACV	10044

