VERSION	0.00.00	1.04.00
FES_MODE	0
BPM_DEF	220.000	220.000	220.000	220.000
MET_DEF	4	4
RESOLUTION	384
CLK_DEF	384
COMPATIBLE_CODE	MA2

BPM	0	0	220.000
MET	0	0	4	4

NMHLD	3	0	3	144
NMHLD	3	0	5	144
NMTAP	3	192	3
NMTAP	3	192	5
NMTAP	3	336	2
NMTAP	3	336	4
NMHLD	4	48	2	96
NMTAP	4	48	4
NMTAP	4	144	3
NMTAP	4	192	3
NMTAP	4	288	2
NMTAP	4	288	4
NMHLD	5	0	2	144
NMHLD	5	0	4	144
NMTAP	5	192	2
NMTAP	5	192	4
NMTAP	5	336	3
NMTAP	5	336	5
NMTAP	6	48	3
NMHLD	6	48	5	96
NMTAP	6	144	4
NMTAP	6	192	4
NMTAP	6	288	3
NMTAP	6	288	5
NMHLD	7	0	3	144
NMHLD	7	0	5	144
NMTAP	7	192	3
NMTAP	7	192	5
NMTAP	7	336	2
NMTAP	7	336	4
NMHLD	8	48	2	96
NMTAP	8	48	4
NMTAP	8	144	3
NMTAP	8	192	3
NMTAP	8	288	2
NMTAP	8	288	4
NMTAP	9	0	5
NMTAP	9	48	5
NMTAP	9	96	3
NMTAP	9	144	3
NMTAP	9	192	4
NMTAP	9	240	4
NMTAP	9	288	2
NMTAP	9	336	2
NMTAP	10	0	6
NMSTR	10	96	0
NMSI_	10	96	0	96	48	3
NMSTR	10	96	7
NMSI_	10	96	7	96	48	4
EXTAP	10	288	2
EXSTR	10	288	5
NMSCR	10	288	5	96	48	0
NMSTR	11	0	2
NMSCL	11	0	2	96	48	7
NMSTR	11	96	4
NMSV_	11	96	4	96	48	1
NMSTR	11	192	3
NMSV_	11	192	3	96	48	6
NMSTR	11	288	5
NMSCR	11	288	5	96	48	0
NMSTR	12	0	2
NMSCL	12	0	2	96	48	7
NMSTR	12	96	4
NMSV_	12	96	4	96	48	1
NMSTR	12	192	3
NMSV_	12	192	3	96	48	6
NMSTR	12	288	5
NMSCR	12	288	5	96	48	0
NMSTR	13	0	2
NMSCL	13	0	2	96	48	7
NMSTR	13	96	4
NMSV_	13	96	4	96	48	1
NMSTR	13	192	3
NMSV_	13	192	3	96	48	6
NMTAP	13	288	5
NMTAP	14	0	0
NMTAP	14	48	0
NMTAP	14	96	1
NMTAP	14	96	5
NMTAP	14	192	7
NMTAP	14	240	7
NMSTR	14	288	2
NMSCL	14	288	2	96	48	7
NMTAP	14	288	6
NMSTR	15	0	5
NMSCR	15	0	5	96	48	0
NMSTR	15	96	3
NMSV_	15	96	3	96	48	6
NMSTR	15	192	4
NMSV_	15	192	4	96	48	1
NMSTR	15	288	2
NMSCL	15	288	2	96	48	7
NMSTR	16	0	5
NMSCR	16	0	5	96	48	0
NMSTR	16	96	3
NMSV_	16	96	3	96	48	6
NMSTR	16	192	4
NMSV_	16	192	4	96	48	1
NMSTR	16	288	2
NMSCL	16	288	2	96	48	7
NMSTR	17	0	5
NMSCR	17	0	5	96	48	0
NMSTR	17	96	3
NMSV_	17	96	3	96	48	6
NMSTR	17	192	4
NMSV_	17	192	4	96	48	1
NMTAP	17	288	2
NMTAP	18	0	3
NMTAP	18	48	3
NMTAP	18	96	5
NMSTR	18	192	0
NMSI_	18	192	0	96	48	3
NMSTR	18	192	6
NMSI_	18	192	6	96	48	4
EXTAP	18	288	0
EXTAP	18	288	6
EXSTR	19	0	2
NMSCL	19	0	2	96	96	7
NMTAP	19	96	5
NMSTR	19	192	6
NMSCL	19	192	6	96	96	3
NMTAP	19	288	0
NMTAP	20	0	1
NMTAP	20	48	1
NMTAP	20	96	3
NMSTR	20	192	0
NMSV_	20	192	0	96	48	3
NMTAP	20	288	4
NMSTR	21	0	6
NMSI_	21	0	6	96	48	4
NMSTR	21	96	0
NMSI_	21	96	0	96	48	2
NMSTR	21	192	7
NMSI_	21	192	7	96	48	3
NMTAP	21	288	1
NMTAP	22	0	1
NMSTR	22	96	0
NMSI_	22	96	0	96	48	4
BRTAP	22	192	0
BRTAP	22	192	7
BRTAP	22	288	2
BRTAP	22	288	6
NMSTR	23	0	5
NMSCR	23	0	5	96	96	0
NMTAP	23	96	3
NMSTR	23	192	1
NMSCR	23	192	1	96	96	4
NMTAP	23	288	5
NMTAP	23	336	6
NMHLD	24	0	6	96
NMHLD	24	96	4	96
NMHLD	24	192	3	96
NMHLD	24	288	1	96
NMTAP	25	0	4
NMTAP	25	96	2
NMTAP	25	96	3
NMTAP	25	192	3
NMTAP	25	192	6
NMTAP	25	288	4
NMTAP	25	288	5
NMTAP	26	0	2
NMTAP	26	48	2
NMTAP	26	96	4
NMTAP	26	192	1
NMTAP	26	192	5
BRTAP	26	288	2
BRTAP	26	288	6
NMSTR	27	0	1
NMSI_	27	0	1	96	48	4
EXTAP	27	96	1
NMHLD	27	96	7	96
NMSTR	27	192	1
NMSI_	27	192	1	96	48	4
EXTAP	27	288	1
NMHLD	27	288	5	96
NMSTR	28	0	1
NMSI_	28	0	1	96	48	4
EXTAP	28	96	1
NMHLD	28	96	7	96
NMSTR	28	192	1
NMSI_	28	192	1	96	48	4
EXTAP	28	288	1
NMTAP	28	288	5
NMSTR	29	0	1
NMSI_	29	0	1	96	48	4
NMTAP	29	0	7
EXTAP	29	96	1
NMTAP	29	96	7
NMTAP	29	192	0
NMSTR	29	192	1
NMSI_	29	192	1	96	48	4
NMTAP	29	288	0
EXTAP	29	288	1
NMSTR	30	0	1
NMSI_	30	0	1	96	48	4
NMTAP	30	0	7
EXTAP	30	96	1
NMTAP	30	96	7
NMSTR	30	192	1
NMSI_	30	192	1	96	48	4
NMTAP	30	192	5
EXTAP	30	288	1
NMTAP	30	288	5
NMSTR	31	0	1
NMSI_	31	0	1	96	48	4
NMSTR	31	0	7
NMSI_	31	0	7	96	48	3
EXTAP	31	96	1
EXTAP	31	96	7
NMSTR	31	192	1
NMSI_	31	192	1	96	48	4
EXTAP	31	288	1
EXTAP	31	288	5
NMSTR	32	0	1
NMSI_	32	0	1	96	48	4
NMHLD	32	0	5	48
EXTAP	32	96	1
NMHLD	32	96	7	48
NMHLD	32	192	0	48
NMSTR	32	192	1
NMSI_	32	192	1	96	48	4
EXTAP	32	288	1
NMHLD	32	288	7	48
NMSTR	33	0	1
NMSI_	33	0	1	96	48	4
NMHLD	33	0	5	48
EXTAP	33	96	1
NMHLD	33	96	7	48
NMHLD	33	192	0	48
NMSTR	33	192	1
NMSI_	33	192	1	96	48	4
EXTAP	33	288	1
NMTAP	33	288	7
NMTTP	34	0	5	A	1	M1
NMTTP	34	0	6	B	0	M1
NMTTP	34	0	6	E	0	M1
NMTTP	34	0	6	A	0	M1
NMTTP	34	96	1	B	0	M1
NMTTP	34	96	1	A	0	M1
NMTTP	34	96	2	E	0	M1
NMTTP	34	96	2	A	1	M1
NMTTP	34	192	3	B	0	M1
NMTTP	34	192	4	B	0	M1
NMTTP	34	192	4	E	1	M1
NMTTP	34	192	4	D	0	M1
BRTAP	34	288	0
BRTAP	34	288	7
NMHLD	35	0	2	576
NMTAP	35	0	5
NMTAP	35	96	7
NMTAP	35	192	5
NMTAP	35	288	7
NMTAP	36	0	4
NMTAP	36	96	7
NMTTP	36	192	5	B	0	M1
NMTTP	36	192	5	A	0	M1
NMTTP	36	192	6	B	0	M1
NMTTP	36	192	6	E	0	M1
NMTTP	36	192	6	A	0	M1
NMTTP	36	192	6	D	0	M1
EXTAP	36	336	4
EXSTR	37	0	4
NMSF_	37	0	4	96	96	0
EXSTR	37	288	1
NMSXL	37	288	1	96	192	4
NMTAP	38	0	5
NMTAP	38	96	6
NMSTR	38	192	7
NMSI_	38	192	7	96	48	3
NMTAP	38	288	7
NMHLD	39	0	1	48
NMHLD	39	0	4	48
NMHLD	39	96	3	48
NMHLD	39	96	6	48
NMHLD	39	192	1	48
NMHLD	39	192	4	48
NMHLD	39	288	3	48
NMHLD	39	288	6	48
NMHLD	40	0	1	48
NMHLD	40	0	4	48
NMHLD	40	96	3	48
NMHLD	40	96	6	48
NMHLD	40	192	1	48
NMHLD	40	192	4	48
NMHLD	40	288	3	48
NMHLD	40	288	6	48
NMTAP	41	0	1
NMTAP	41	0	4
NMTAP	41	48	2
NMTAP	41	96	3
NMTAP	41	96	6
NMTAP	41	144	5
NMTAP	41	192	1
NMTAP	41	192	4
NMTAP	41	240	2
NMTAP	41	288	3
NMTAP	41	288	6
NMTAP	41	336	5
NMTAP	42	0	1
NMTAP	42	0	4
NMTAP	42	48	2
NMSTR	42	96	3
NMSUR	42	96	3	96	192	4
NMTAP	42	96	6
NMTAP	42	144	5
NMTAP	42	192	4
NMTAP	43	0	5
NMTAP	43	96	6
NMHLD	43	192	6	72
NMHLD	43	264	5	72
NMTAP	43	336	4
NMTAP	44	0	4
NMTAP	44	96	3
NMTAP	44	192	2
NMSTR	44	192	4
NMSSL	44	192	4	96	144	0
NMTTP	44	288	3	E	1	M1
NMTAP	45	0	1
NMTAP	45	48	1
NMTAP	45	96	1
NMTAP	45	144	1
NMTAP	45	192	7
NMTAP	45	240	7
NMTAP	45	288	7
NMTAP	45	336	7
NMTAP	46	0	2
NMTAP	46	48	2
NMTAP	46	96	2
NMTAP	46	144	2
NMSTR	46	192	0
BRSI_	46	192	0	96	48	5
NMSTR	46	192	1
BRSI_	46	192	1	96	48	4
NMTTP	46	288	0	A	0	M1
NMTTP	46	288	1	A	0	M1
NMTTP	46	288	1	D	1	M1
NMSTR	47	0	6
NMSCL	47	0	6	96	48	3
NMTAP	47	48	6
NMSTR	47	96	7
NMSV_	47	96	7	96	48	2
NMTAP	47	144	7
NMSTR	47	192	6
NMSCL	47	192	6	96	48	3
NMTAP	47	240	6
NMSTR	47	288	7
NMSV_	47	288	7	96	48	2
NMTAP	47	336	7
NMSTR	48	0	6
NMSCL	48	0	6	96	48	3
NMTAP	48	48	6
NMSTR	48	96	7
NMSV_	48	96	7	96	48	2
NMTAP	48	144	7
NMTAP	48	192	5
NMTAP	48	240	5
BRTAP	48	288	0
NMSTR	49	0	6
NMSCL	49	0	6	96	48	3
NMTAP	49	48	6
NMSTR	49	96	7
NMSV_	49	96	7	96	48	2
NMTAP	49	144	7
NMSTR	49	192	6
NMSCL	49	192	6	96	48	3
NMTAP	49	240	6
NMSTR	49	288	7
NMSV_	49	288	7	96	48	2
NMTAP	49	336	7
NMSTR	50	0	6
NMSCL	50	0	6	96	48	3
NMTAP	50	48	6
NMSTR	50	96	7
NMSV_	50	96	7	96	48	2
NMTAP	50	144	7
NMTAP	50	192	5
NMTAP	50	240	5
BRTAP	50	288	0
NMSTR	51	0	7
NMSI_	51	0	7	96	48	5
NMTAP	51	48	7
NMSTR	51	96	1
NMSI_	51	96	1	96	48	3
NMTAP	51	144	1
NMSTR	51	192	0
NMSI_	51	192	0	96	48	4
NMTAP	51	240	0
NMTAP	51	288	2
NMSTR	52	0	3
NMSV_	52	0	3	96	48	2
NMSV_	52	0	3	96	48	4
CNSI_	52	144	2	0	48	0
CNSI_	52	144	4	0	48	6
BRSTR	52	288	1
NMSI_	52	288	1	96	48	4
BRSTR	52	288	5
NMSI_	52	288	5	96	48	0
EXTAP	53	0	1
EXTAP	53	0	5
BRSTR	53	96	2
NMSI_	53	96	2	96	48	7
BRSTR	53	96	6
NMSI_	53	96	6	96	48	3
EXTAP	53	192	2
EXTAP	53	192	6
NMSTR	53	288	0
NMSI_	53	288	0	96	48	4
NMSTR	54	0	0
NMSI_	54	0	0	96	48	5
NMSI_	54	0	0	96	48	6
NMSTR	54	96	0
NMSI_	54	96	0	96	48	2
NMSI_	54	96	0	96	48	3
NMSTR	54	192	0
BRSI_	54	192	0	96	48	4
EXTAP	54	288	0
NMSTR	55	0	6
NMSCL	55	0	6	96	48	3
NMTAP	55	48	6
NMSTR	55	96	7
NMSV_	55	96	7	96	48	2
NMTAP	55	144	7
NMSTR	55	192	6
NMSCL	55	192	6	96	48	3
NMTAP	55	240	6
NMSTR	55	288	7
NMSV_	55	288	7	96	48	2
NMTAP	55	336	7
NMSTR	56	0	6
NMSCL	56	0	6	96	48	3
NMTAP	56	48	6
NMSTR	56	96	7
NMSV_	56	96	7	96	48	2
NMTAP	56	144	7
NMTAP	56	192	5
NMTAP	56	240	5
BRTAP	56	288	0
NMSTR	57	0	6
NMSCL	57	0	6	96	48	3
NMTAP	57	48	6
NMSTR	57	96	7
NMSV_	57	96	7	96	48	2
NMTAP	57	144	7
NMSTR	57	192	6
NMSCL	57	192	6	96	48	3
NMTAP	57	240	6
NMSTR	57	288	7
NMSV_	57	288	7	96	48	2
NMTAP	57	336	7
NMSTR	58	0	6
NMSCL	58	0	6	96	48	3
NMTAP	58	48	6
NMSTR	58	96	7
NMSV_	58	96	7	96	48	2
NMTAP	58	144	7
NMTAP	58	192	5
NMTAP	58	240	5
BRTAP	58	288	0
NMSTR	59	0	1
NMSV_	59	0	1	96	48	4
NMSTR	59	0	7
NMSV_	59	0	7	96	48	4
NMSTR	59	192	0
NMSV_	59	192	0	96	48	3
NMSTR	59	192	6
NMSV_	59	192	6	96	48	3
NMHLD	60	0	1	72
NMHLD	60	72	2	72
NMTAP	60	144	3
NMHLD	60	192	6	72
NMHLD	60	264	5	72
NMTAP	60	336	4
EXSTR	61	0	1
NMSI_	61	0	1	96	48	5
NMSTR	61	96	7
NMSV_	61	96	7	96	48	2
NMSV_	61	96	7	96	48	4
EXTAP	61	288	1
EXTAP	61	288	5
NMTAP	62	0	1
NMTAP	62	0	5
NMSTR	62	96	0
NMSI_	62	96	0	96	48	4
NMSTR	62	96	6
NMSI_	62	96	6	96	48	2
EXTAP	62	192	0
EXTAP	62	192	6
BXHLD	62	288	1	1440
BXHLD	62	288	5	2976
NMTAP	70	192	3
NMHLD	71	0	0	288
NMTAP	71	288	1
NMHLD	72	0	1	288
NMSTR	72	288	2
NMSI_	72	288	2	96	96	7
CNSI_	73	96	7	0	96	1
CNSI_	73	192	1	0	96	4
CNSI_	73	288	4	0	96	6
NMTTP	74	0	6	D	1	M1
NMHLD	75	0	7	288
NMTAP	75	288	6
NMHLD	76	0	6	288
NMSTR	76	288	5
NMSXL	76	288	5	96	192	4
CNSXL	77	192	4	0	192	3
CNSXL	78	0	3	0	192	2
NMHLD	79	0	0	288
NMTAP	79	288	1
NMHLD	80	0	1	288
NMTAP	80	288	3
NMHLD	81	0	3	288
NMTAP	81	288	4
NMTAP	82	0	4
NMTAP	82	192	3
NMTAP	82	192	4
NMSTR	83	0	5
BRSUL	83	0	5	96	96	7
CNSI_	83	192	7	0	96	2
CNSUR	83	288	2	0	96	6
CNSCR	84	0	6	0	96	1
CNSXR	84	96	1	0	192	2
EXHLD	85	0	0	384
EXHLD	85	192	7	192
NMSTR	86	96	1
NMSI_	86	96	1	96	48	4
NMSTR	86	96	6
NMSI_	86	96	6	96	48	3
BRTAP	86	192	1
BRTAP	86	192	6
BRSTR	86	288	0
NMSI_	86	288	0	96	48	4
BRTAP	86	288	7
EXTAP	87	0	0
NMSTR	87	96	1
NMSI_	87	96	1	96	48	4
NMTAP	87	96	5
EXTAP	87	192	1
NMTAP	87	192	5
NMSTR	87	288	1
NMSI_	87	288	1	96	48	4
NMTAP	87	288	7
EXTAP	88	0	0
EXTAP	88	0	1
EXTAP	88	48	0
EXTAP	88	96	0
NMSTR	88	96	1
NMSI_	88	96	1	96	48	4
EXTAP	88	192	1
EXTAP	88	192	7
EXTAP	88	240	7
NMSTR	88	288	1
BRSI_	88	288	1	96	48	4
EXTAP	88	288	7
EXTAP	89	0	1
BRTAP	89	0	5
NMTAP	89	96	0
NMSTR	89	96	1
NMSI_	89	96	1	96	48	4
NMTAP	89	144	0
NMTAP	89	192	0
EXTAP	89	192	1
NMTAP	89	240	0
NMTAP	89	288	0
NMSTR	89	288	1
NMSI_	89	288	1	96	48	4
NMTAP	89	336	0
NMTAP	90	0	0
EXTAP	90	0	1
NMTAP	90	48	0
NMTAP	90	96	0
NMSTR	90	96	1
NMSI_	90	96	1	96	48	4
NMTAP	90	144	0
BRTAP	90	192	0
EXTAP	90	192	1
NMSTR	90	288	1
NMSI_	90	288	1	96	48	4
NMTAP	90	288	7
EXTAP	91	0	1
NMTAP	91	0	5
NMSTR	91	96	1
NMSI_	91	96	1	96	48	4
NMTAP	91	96	7
EXTAP	91	192	0
EXTAP	91	192	1
EXTAP	91	240	0
EXTAP	91	288	0
NMSTR	91	288	1
NMSI_	91	288	1	96	48	4
EXTAP	92	0	1
NMTAP	92	0	7
NMSTR	92	96	1
NMSI_	92	96	1	96	48	4
NMTAP	92	96	5
EXTAP	92	192	1
NMTAP	92	192	5
NMSTR	92	288	1
NMSI_	92	288	1	96	48	4
NMTAP	92	288	7
BXTAP	93	0	0
EXTAP	93	0	1
BXTAP	93	48	0
BXTAP	93	96	0
NMSTR	93	96	1
NMSI_	93	96	1	96	48	4
EXTAP	93	192	1
NMTAP	93	192	7
NMTAP	93	288	2
NMTAP	93	288	6
EXTAP	94	0	0
EXTAP	94	0	7
EXTAP	94	96	0
EXTAP	94	96	7
NMTTP	94	192	0	B	0	M1
NMTTP	94	192	0	E	1	M1
NMTTP	94	192	0	D	0	M1
NMTTP	94	192	1	B	0	M1
NMTTP	94	192	2	E	0	M1
NMTTP	94	192	2	A	0	M1
NMTTP	94	192	3	D	0	M1
NMTTP	94	192	5	A	0	M1
NMTTP	94	192	5	D	0	M1
NMTTP	94	192	6	B	0	M1
NMTTP	94	192	6	E	0	M1
NMTTP	94	192	7	B	0	M1
EXHLD	94	288	3	288
EXHLD	94	288	4	96
NMTTP	95	192	5	B	0	M1
NMTTP	95	192	5	A	0	M1
NMTTP	95	192	6	B	0	M1
NMTTP	95	192	6	E	0	M1
NMTTP	95	192	6	A	0	M1
NMTTP	95	192	6	D	0	M1
BRTAP	96	0	7
BRTAP	96	48	7
BRTAP	96	96	7
BRTAP	96	144	7
BRTAP	96	192	7
BRTAP	96	288	1
BRTAP	96	288	5
NMSTR	97	0	6
NMSCL	97	0	6	96	48	3
NMSTR	97	48	7
NMSV_	97	48	7	96	48	2
NMTAP	97	96	6
NMTAP	97	144	7
NMSTR	97	192	6
NMSCL	97	192	6	96	48	3
NMSTR	97	240	7
NMSV_	97	240	7	96	48	2
NMTAP	97	288	6
NMTAP	97	336	7
NMSTR	98	0	6
NMSCL	98	0	6	96	48	3
NMSTR	98	48	7
NMSV_	98	48	7	96	48	2
NMTAP	98	96	6
NMTAP	98	144	7
NMTAP	98	192	6
NMTAP	98	240	7
BRTAP	98	288	0
BRTAP	98	288	5
NMSTR	99	0	6
NMSCL	99	0	6	96	48	3
NMSTR	99	48	7
NMSV_	99	48	7	96	48	2
NMTAP	99	96	6
NMTAP	99	144	7
NMSTR	99	192	6
NMSCL	99	192	6	96	48	3
NMSTR	99	240	7
NMSV_	99	240	7	96	48	2
NMTAP	99	288	6
NMTAP	99	336	7
NMSTR	100	0	6
NMSCL	100	0	6	96	48	3
NMSTR	100	48	7
NMSV_	100	48	7	96	48	2
NMTAP	100	96	6
NMTAP	100	144	7
NMTAP	100	192	6
NMTAP	100	240	7
BRTAP	100	288	0
BRTAP	100	288	5
NMHLD	101	0	1	48
NMHLD	101	0	6	48
NMHLD	101	96	2	48
NMHLD	101	96	7	48
NMHLD	101	192	1	48
NMHLD	101	192	6	48
NMHLD	101	288	0	48
NMHLD	101	288	5	48
NMHLD	102	0	3	48
NMHLD	102	0	6	48
NMHLD	102	96	2	48
NMHLD	102	96	5	48
NMHLD	102	192	1	48
NMHLD	102	192	4	48
NMSTR	102	288	0
NMSI_	102	288	0	96	48	4
NMSTR	102	288	5
NMSI_	102	288	5	96	48	1
EXTAP	103	0	0
EXTAP	103	0	5
NMSTR	103	96	2
NMSI_	103	96	2	96	48	6
NMSTR	103	96	7
NMSI_	103	96	7	96	48	3
EXTAP	103	192	2
EXTAP	103	192	7
EXSTR	103	288	1
NMSI_	103	288	1	96	48	6
EXTAP	103	288	4
BRTAP	104	0	1
NMSTR	104	0	5
NMSI_	104	0	5	96	48	2
NMSTR	104	96	3
NMSI_	104	96	3	96	48	0
BRTAP	104	96	5
BRTAP	104	192	3
NMSTR	104	192	4
NMSI_	104	192	4	96	48	7
BRTAP	104	288	2
BRTAP	104	288	4
EXSTR	105	0	6
NMSCL	105	0	6	96	48	3
NMSTR	105	48	7
NMSV_	105	48	7	96	48	2
NMTAP	105	96	6
NMTAP	105	144	7
NMSTR	105	192	6
NMSCL	105	192	6	96	48	3
NMSTR	105	240	7
NMSV_	105	240	7	96	48	2
NMTAP	105	288	6
NMTAP	105	336	7
NMSTR	106	0	6
NMSCL	106	0	6	96	48	3
NMSTR	106	48	7
NMSV_	106	48	7	96	48	2
NMTAP	106	96	6
NMTAP	106	144	7
NMTAP	106	192	6
NMTAP	106	240	7
BRTAP	106	288	0
BRTAP	106	288	5
NMSTR	107	0	6
NMSCL	107	0	6	96	48	3
NMSTR	107	48	7
NMSV_	107	48	7	96	48	2
NMTAP	107	96	6
NMTAP	107	144	7
NMSTR	107	192	6
NMSCL	107	192	6	96	48	3
NMSTR	107	240	7
NMSV_	107	240	7	96	48	2
NMTAP	107	288	6
NMTAP	107	336	7
NMSTR	108	0	6
NMSCL	108	0	6	96	48	3
NMSTR	108	48	7
NMSV_	108	48	7	96	48	2
NMTAP	108	96	6
NMTAP	108	144	7
NMTAP	108	192	6
NMTAP	108	240	7
BRTAP	108	288	0
BRTAP	108	288	5
NMSTR	109	0	7
NMSXR	109	0	7	96	96	7
NMSTR	109	192	0
NMSXL	109	192	0	96	96	0
NMHLD	110	0	5	72
NMHLD	110	72	6	72
NMTAP	110	144	7
NMHLD	110	192	0	72
NMHLD	110	264	1	72
NMTAP	110	336	2
NMTAP	111	0	0
NMTAP	111	0	3
NMTAP	111	96	4
NMTAP	111	96	7
NMTAP	111	192	2
NMTAP	111	192	5
NMSTR	111	288	0
NMSI_	111	288	0	96	48	4
NMSTR	111	288	7
NMSI_	111	288	7	96	48	5
NMSTR	112	0	0
NMSI_	112	0	0	96	48	2
NMSTR	112	0	7
NMSI_	112	0	7	96	48	3
NMSTR	112	96	0
NMSI_	112	96	0	96	48	4
NMSTR	112	96	7
NMSI_	112	96	7	96	48	5
NMSTR	112	192	0
NMSI_	112	192	0	96	48	2
NMSTR	112	192	7
NMSI_	112	192	7	96	48	3
NMSTR	112	288	0
NMSI_	112	288	0	96	48	4
NMSTR	112	288	7
NMSI_	112	288	7	96	48	5
EXSTR	113	0	0
NMSI_	113	0	0	96	48	2
EXSTR	113	0	7
NMSI_	113	0	7	96	48	3
EXSTR	113	96	0
NMSI_	113	96	0	96	48	4
EXSTR	113	96	7
NMSI_	113	96	7	96	48	5
EXSTR	113	192	0
NMSI_	113	192	0	96	48	2
EXSTR	113	192	7
NMSI_	113	192	7	96	48	3
EXSTR	113	288	0
NMSI_	113	288	0	96	48	4
EXSTR	113	288	7
NMSI_	113	288	7	96	48	5
BXSTR	114	0	0
NMSI_	114	0	0	96	48	2
BXSTR	114	0	7
NMSI_	114	0	7	96	48	3
BXSTR	114	96	0
NMSI_	114	96	0	96	48	4
BXSTR	114	96	7
NMSI_	114	96	7	96	48	5
BXSTR	114	192	0
NMSI_	114	192	0	96	48	2
BXSTR	114	192	7
NMSI_	114	192	7	96	48	3
BXSTR	114	288	0
NMSI_	114	288	0	96	48	4
BXSTR	114	288	7
NMSI_	114	288	7	96	48	5
NMSTR	115	0	0
NMSI_	115	0	0	96	48	2
NMSTR	115	0	7
NMSI_	115	0	7	96	48	3
NMSTR	115	96	0
BRSI_	115	96	0	96	48	4
NMSTR	115	96	7
BRSI_	115	96	7	96	48	5
NMTAP	115	192	0
NMTAP	115	192	7
BRTAP	115	288	0
BRTAP	115	288	7
BRTAP	116	0	2
BRTAP	116	0	6
NMSTR	116	96	1
NMSXL	116	96	1	96	192	4
NMTAP	116	192	5
NMTAP	116	288	6
EXSTR	117	0	7
NMSI_	117	0	7	96	48	2
EXSTR	117	48	7
NMSI_	117	48	7	96	48	4
EXSTR	117	192	3
NMSI_	117	192	3	96	48	6
EXSTR	117	240	3
NMSI_	117	240	3	96	48	0
NMTAP	118	0	7
NMSTR	118	96	6
NMSXR	118	96	6	96	192	3
NMTAP	118	192	2
NMTAP	118	288	1
EXSTR	119	0	0
NMSI_	119	0	0	96	48	5
EXSTR	119	48	0
NMSI_	119	48	0	96	48	3
EXSTR	119	192	4
NMSI_	119	192	4	96	48	1
EXSTR	119	240	4
NMSI_	119	240	4	96	48	7
NMTAP	120	0	0
NMSTR	120	96	1
NMSXL	120	96	1	96	192	4
NMTAP	120	192	5
NMTAP	120	288	6
EXSTR	121	0	7
NMSI_	121	0	7	96	48	2
EXSTR	121	48	7
NMSI_	121	48	7	96	48	4
EXSTR	121	192	3
NMSI_	121	192	3	96	48	6
EXSTR	121	240	3
NMSI_	121	240	3	96	48	0
NMTAP	122	0	7
NMTAP	122	96	1
NMTAP	122	96	5
NMSTR	122	192	2
BRSI_	122	192	2	96	96	7
NMTAP	122	192	4
NMTAP	122	288	3
NMTTP	123	0	4	B	0	M1
NMTTP	123	0	5	B	0	M1
NMTTP	123	0	5	E	1	M1
CNSI_	123	0	7	0	96	1
CNSI_	123	96	1	0	96	4
CNSI_	123	192	4	0	96	6
NMSTR	124	0	4
NMSI_	124	0	4	96	48	0
NMTAP	124	0	5
NMTAP	124	96	4
NMTAP	124	96	6
NMTAP	124	192	6
NMTAP	124	216	7
NMTAP	124	264	0
NMTAP	124	264	5
NMTAP	124	336	1
NMTAP	124	336	4
NMSTR	125	0	0
NMSI_	125	0	0	96	48	4
NMTAP	125	48	7
NMTAP	125	96	6
NMTAP	125	144	5
NMSTR	125	192	6
NMSI_	125	192	6	96	48	4
NMTAP	125	240	7
NMTAP	125	288	0
NMTAP	125	336	1
NMTAP	126	0	2
NMSTR	126	0	3
NMSI_	126	0	3	96	48	7
NMTAP	126	96	1
NMTAP	126	96	3
NMTAP	126	192	1
NMTAP	126	216	0
NMTAP	126	264	2
NMTAP	126	264	7
NMTAP	126	336	3
NMTAP	126	336	6
NMSTR	127	0	7
NMSI_	127	0	7	96	48	3
NMTAP	127	48	0
NMTAP	127	96	1
NMTAP	127	144	2
NMSTR	127	192	1
NMSI_	127	192	1	96	48	3
NMTAP	127	240	0
NMTAP	127	288	7
NMTAP	127	336	6
NMSTR	128	0	4
NMSI_	128	0	4	96	48	0
NMTAP	128	0	5
NMTAP	128	96	4
NMTAP	128	96	6
NMTAP	128	192	6
NMTAP	128	216	7
NMTAP	128	264	0
NMTAP	128	264	5
NMTAP	128	336	1
NMTAP	128	336	4
NMSTR	129	0	0
NMSCR	129	0	0	96	48	3
NMTAP	129	48	7
NMTAP	129	96	6
NMTAP	129	144	5
NMSTR	129	192	6
NMSI_	129	192	6	96	48	4
NMTAP	129	240	7
NMTAP	129	288	0
NMTAP	129	336	1
NMTAP	130	0	2
NMSTR	130	0	3
NMSI_	130	0	3	96	48	7
NMTAP	130	96	1
NMTAP	130	96	3
NMTAP	130	192	1
NMTAP	130	216	0
NMTAP	130	264	2
NMTAP	130	264	7
NMTAP	130	336	3
NMTAP	130	336	6
NMTAP	131	0	7
NMTAP	131	48	0
NMTAP	131	96	1
NMTAP	131	96	7
NMTAP	131	144	2
NMTAP	131	192	3
NMTAP	131	192	4
NMTAP	131	240	5
NMTAP	131	288	1
NMTAP	131	288	6
NMSTR	132	0	5
NMSI_	132	0	5	96	48	3
NMTTP	132	96	3	E	0	M1
NMTAP	132	96	5
NMTTP	132	192	2	E	0	M1
NMSTR	132	192	6
NMSI_	132	192	6	96	48	4
NMTTP	132	288	1	E	0	M1
NMTAP	132	288	6
NMSTR	133	0	5
NMSI_	133	0	5	96	48	3
NMTTP	133	96	3	B	0	M1
NMTAP	133	96	5
NMTTP	133	192	2	B	0	M1
NMSTR	133	192	6
NMSI_	133	192	6	96	48	4
NMTTP	133	288	1	B	0	M1
NMTAP	133	288	6
NMSTR	134	0	5
NMSI_	134	0	5	96	48	3
NMTTP	134	96	3	E	0	M1
NMTAP	134	96	5
NMTTP	134	192	2	E	0	M1
NMSTR	134	192	6
NMSI_	134	192	6	96	48	4
NMTTP	134	288	1	E	0	M1
NMTAP	134	288	6
NMSTR	135	0	5
NMSI_	135	0	5	96	48	3
NMTTP	135	96	2	B	0	M1
NMTAP	135	96	5
NMTTP	135	192	1	B	0	M1
NMSTR	135	192	6
NMSI_	135	192	6	96	48	4
NMTTP	135	288	0	B	0	M1
NMTAP	135	288	6
NMSTR	136	0	2
NMSI_	136	0	2	96	48	4
NMTAP	136	96	2
NMTTP	136	96	5	E	0	M1
NMSTR	136	192	1
NMSI_	136	192	1	96	48	3
NMTTP	136	192	6	E	0	M1
NMTAP	136	288	1
NMTTP	136	288	7	E	0	M1
NMSTR	137	0	2
NMSI_	137	0	2	96	48	4
NMTAP	137	96	2
NMTTP	137	96	4	B	0	M1
NMSTR	137	192	1
NMSI_	137	192	1	96	48	3
NMTTP	137	192	5	B	0	M1
NMTAP	137	288	1
NMTTP	137	288	6	B	0	M1
NMSTR	138	0	2
NMSI_	138	0	2	96	48	4
NMTAP	138	96	2
NMTAP	138	96	5
NMSTR	138	192	1
NMSI_	138	192	1	96	48	3
NMTAP	138	192	6
NMTAP	138	288	1
NMTAP	138	288	6
NMTAP	138	336	5
NMTAP	139	0	4
NMTAP	139	48	3
NMTAP	139	96	2
NMTAP	139	144	1
NMSTR	139	192	0
NMSI_	139	192	0	96	48	3
BRSTR	139	192	7
NMSI_	139	192	7	96	48	4
EXTAP	139	288	0
EXTAP	139	288	7

T_REC_TAP	339
T_REC_BRK	41
T_REC_XTP	63
T_REC_BXX	3
T_REC_HLD	71
T_REC_XHO	4
T_REC_BHO	0
T_REC_BXH	2
T_REC_STR	187
T_REC_BST	6
T_REC_XST	27
T_REC_XBS	8
T_REC_TTP	62
T_REC_THO	0
T_REC_SLD	224
T_REC_BSL	8
T_REC_ALL	1045
T_NUM_TAP	678
T_NUM_BRK	68
T_NUM_HLD	75
T_NUM_SLD	224
T_NUM_ALL	1045
T_JUDGE_TAP	736
T_JUDGE_HLD	261
T_JUDGE_SLD	232
T_JUDGE_ALL	1229
TTM_EACHPAIRS	182
TTM_SCR_TAP	339000
TTM_SCR_BRK	176800
TTM_SCR_HLD	75000
TTM_SCR_SLD	336000
TTM_SCR_ALL	926800
TTM_SCR_S	892400
TTM_SCR_SS	920000
TTM_RAT_ACV	10073

