VERSION	0.00.00	1.04.00
FES_MODE	0
BPM_DEF	220.000	220.000	220.000	220.000
MET_DEF	4	4
RESOLUTION	384
CLK_DEF	384
COMPATIBLE_CODE	MA2

BPM	0	0	220.000
MET	0	0	4	4

NMSTR	3	0	2
NMSI_	3	0	2	96	48	4
NMSTR	3	192	6
NMSI_	3	192	6	96	48	4
NMSTR	4	0	1
NMSI_	4	0	1	96	48	3
NMSTR	4	192	7
NMSI_	4	192	7	96	48	5
EXTAP	5	0	2
EXTAP	5	48	2
EXTAP	5	96	4
EXTAP	5	192	5
EXTAP	5	240	5
EXTAP	5	288	3
EXTAP	6	0	2
EXTAP	6	48	2
EXTAP	6	96	4
EXTAP	6	144	4
EXTAP	6	192	3
EXTAP	6	240	3
EXTAP	6	288	4
NMSTR	7	0	5
NMSI_	7	0	5	96	48	3
NMSTR	7	192	1
NMSI_	7	192	1	96	48	3
NMSTR	8	0	6
NMSI_	8	0	6	96	48	4
NMSTR	8	192	0
NMSI_	8	192	0	96	48	2
NMTAP	9	0	5
NMTAP	9	48	5
NMTAP	9	96	3
NMTAP	9	192	2
NMTAP	9	240	2
NMTAP	9	288	4
NMTAP	10	0	5
NMTAP	10	48	5
NMTAP	10	96	3
NMTAP	10	144	3
NMTAP	10	192	4
EXTAP	10	288	3
EXTAP	10	288	5
BRTAP	11	0	4
BRTAP	11	0	5
NMTAP	11	96	6
NMTAP	11	192	2
NMTAP	11	192	3
NMTAP	11	288	1
NMTAP	12	0	6
NMTAP	12	48	6
NMTAP	12	96	4
NMTAP	12	144	4
NMTAP	12	192	5
NMTAP	12	240	5
NMTAP	12	288	3
NMTAP	13	0	2
NMTAP	13	0	3
NMTAP	13	96	1
NMTAP	13	192	4
NMTAP	13	192	5
NMTAP	13	288	6
NMTAP	14	0	1
NMTAP	14	48	1
NMTAP	14	96	3
NMTAP	14	144	3
EXTAP	14	192	2
EXTAP	14	240	2
EXTAP	14	288	2
EXTAP	14	288	4
BRTAP	15	0	4
BRTAP	15	0	6
NMTAP	15	96	7
NMTAP	15	192	1
NMTAP	15	192	3
NMTAP	15	288	0
NMTAP	16	0	6
NMTAP	16	48	6
NMTAP	16	96	3
NMTAP	16	144	3
NMTAP	16	192	4
NMTAP	16	240	4
NMTAP	16	288	1
NMTAP	17	0	1
NMTAP	17	0	3
NMTAP	17	96	0
NMTAP	17	192	4
NMTAP	17	192	6
NMTAP	17	288	7
NMTAP	18	0	1
NMTAP	18	48	1
NMTAP	18	96	4
NMTAP	18	144	4
EXTAP	18	192	3
EXTAP	18	240	3
EXTAP	18	288	3
EXTAP	18	288	5
NMTAP	19	0	2
NMTAP	19	96	2
NMTAP	19	96	3
NMTAP	19	192	1
NMTAP	19	288	0
NMTAP	19	288	1
NMSTR	20	0	0
NMSV_	20	0	0	96	96	3
NMTAP	21	0	2
NMTAP	21	96	2
NMTAP	21	96	3
NMTAP	21	192	0
NMTAP	21	288	0
NMTAP	21	288	1
NMSTR	22	0	1
NMSXR	22	0	1	96	192	4
NMTAP	23	0	5
NMTAP	23	96	4
NMTAP	23	96	5
NMTAP	23	192	6
NMTAP	23	288	6
NMTAP	23	288	7
NMSTR	24	0	7
NMSCL	24	0	7	96	144	3
NMTAP	25	0	4
NMTAP	25	96	4
NMTAP	25	96	5
NMTAP	25	192	6
NMTAP	25	240	6
NMTAP	25	288	4
NMTAP	26	0	3
NMTAP	26	0	5
NMTAP	26	96	2
NMTAP	26	96	4
NMTAP	26	192	3
NMTAP	26	192	4
BRTAP	26	288	2
BRTAP	26	288	5
NMTAP	27	0	2
NMTAP	27	96	2
NMTAP	27	96	3
NMTAP	27	192	5
NMTAP	27	240	5
NMTAP	27	288	4
NMTAP	28	0	1
NMTAP	28	96	1
NMTAP	28	96	3
NMTAP	28	192	6
NMTAP	28	240	6
NMTAP	28	288	4
NMTAP	29	0	2
NMTAP	29	96	1
NMTAP	29	96	3
NMTAP	29	192	5
NMTAP	29	240	5
NMTAP	29	288	4
NMTAP	30	0	2
NMTAP	30	96	1
NMTAP	30	96	7
NMTAP	30	192	5
NMTAP	30	288	0
NMTAP	30	288	6
NMTAP	31	0	5
NMTAP	31	96	4
NMTAP	31	96	5
EXTAP	31	192	2
EXTAP	31	240	2
EXTAP	31	288	2
EXTAP	31	288	3
NMTAP	32	0	6
NMTAP	32	96	4
NMTAP	32	96	6
NMTAP	32	192	1
NMTAP	32	240	1
NMTAP	32	288	1
NMTAP	32	288	3
NMTAP	33	0	5
NMTAP	33	96	4
NMTAP	33	96	6
EXTAP	33	192	2
EXTAP	33	240	2
EXTAP	33	288	1
EXTAP	33	288	3
BRTAP	34	0	5
BRTAP	34	96	6
BRTAP	34	192	0
BRTAP	34	192	7
EXHLD	35	0	3	576
EXTAP	35	0	5
EXTAP	35	96	6
EXTAP	35	192	5
EXTAP	35	288	6
EXTAP	36	0	5
EXTAP	36	96	6
NMTHO	36	192	0	480	C	0	M1
NMTTP	36	192	3	B	0	M1
NMTTP	36	192	4	B	0	M1
NMTAP	38	0	1
NMTAP	38	96	1
NMTAP	38	192	1
NMTAP	39	0	2
NMTAP	39	0	4
NMTAP	39	96	3
NMTAP	39	96	5
NMTAP	39	192	2
NMTAP	39	192	4
NMTAP	39	288	3
NMTAP	39	288	5
NMTAP	40	0	2
NMTAP	40	0	4
NMTAP	40	96	3
NMTAP	40	96	5
NMTAP	40	192	2
NMTAP	40	192	4
NMTAP	40	288	3
NMTAP	40	288	5
NMTAP	41	0	2
NMTAP	41	0	4
NMTAP	41	96	3
NMTAP	41	96	5
NMTAP	41	192	2
NMTAP	41	192	4
NMTAP	41	288	3
NMTAP	41	288	5
NMTAP	42	0	2
NMTAP	42	0	4
NMSTR	42	96	3
NMSCL	42	96	3	96	192	5
NMTAP	42	96	5
EXTAP	43	0	4
NMTAP	43	96	4
NMTAP	43	192	2
NMTAP	43	288	4
NMSTR	44	0	3
NMSF_	44	0	3	96	144	7
EXTAP	45	0	1
EXTAP	45	48	1
EXTAP	45	96	3
EXTAP	45	144	3
NMTAP	45	192	2
NMTAP	45	240	2
NMTAP	45	288	4
NMTAP	45	336	4
NMTAP	46	0	3
NMTAP	46	48	3
NMTAP	46	96	5
NMTAP	46	144	5
EXTAP	46	192	4
BRTAP	46	288	0
BRTAP	46	288	7
EXSTR	47	0	6
NMSI_	47	0	6	96	48	4
EXSTR	47	96	7
NMSI_	47	96	7	96	48	3
EXSTR	47	192	6
NMSI_	47	192	6	96	48	4
EXSTR	47	288	7
NMSI_	47	288	7	96	48	3
EXSTR	48	0	6
NMSI_	48	0	6	96	48	4
EXSTR	48	96	7
NMSI_	48	96	7	96	48	3
EXSTR	48	192	6
NMSI_	48	192	6	96	48	4
EXSTR	48	288	7
NMSI_	48	288	7	96	48	3
EXSTR	49	0	6
NMSI_	49	0	6	96	48	4
EXSTR	49	96	7
NMSI_	49	96	7	96	48	3
EXSTR	49	192	6
NMSI_	49	192	6	96	48	4
EXSTR	49	288	7
NMSI_	49	288	7	96	48	3
EXSTR	50	0	6
NMSI_	50	0	6	96	48	4
EXSTR	50	96	7
NMSI_	50	96	7	96	48	3
EXSTR	50	192	6
NMSI_	50	192	6	96	48	4
NMTAP	50	288	0
NMSTR	51	0	1
NMSI_	51	0	1	96	48	3
NMTAP	51	96	5
NMSTR	51	192	7
NMSI_	51	192	7	96	48	5
NMTAP	51	288	4
NMSTR	52	0	3
NMSXL	52	0	3	96	96	5
NMSXR	52	0	3	96	96	1
EXTAP	52	288	1
EXTAP	52	288	5
BRTAP	53	0	2
BRHLD	53	0	3	96
NMTAP	53	96	0
BRHLD	53	192	4	96
BRTAP	53	192	5
NMTAP	53	288	7
BRTAP	54	0	1
BRTAP	54	0	3
BRTAP	54	96	4
BRTAP	54	96	6
BRTAP	54	192	3
BRTAP	54	192	4
BRTAP	54	288	0
BRTAP	54	288	7
EXSTR	55	0	6
NMSI_	55	0	6	96	48	4
EXSTR	55	96	7
NMSI_	55	96	7	96	48	3
EXSTR	55	192	6
NMSI_	55	192	6	96	48	4
EXSTR	55	288	7
NMSI_	55	288	7	96	48	3
EXSTR	56	0	6
NMSI_	56	0	6	96	48	4
EXSTR	56	96	7
NMSI_	56	96	7	96	48	3
EXSTR	56	192	6
NMSI_	56	192	6	96	48	4
EXSTR	56	288	7
NMSI_	56	288	7	96	48	3
EXSTR	57	0	6
NMSI_	57	0	6	96	48	4
EXSTR	57	96	7
NMSI_	57	96	7	96	48	3
EXSTR	57	192	6
NMSI_	57	192	6	96	48	4
EXSTR	57	288	7
NMSI_	57	288	7	96	48	3
EXSTR	58	0	6
NMSI_	58	0	6	96	48	4
EXSTR	58	96	7
NMSI_	58	96	7	96	48	3
EXSTR	58	192	6
NMSI_	58	192	6	96	48	4
NMTAP	58	288	2
EXTAP	59	0	1
NMTAP	59	96	0
NMTAP	59	96	1
NMTAP	59	192	6
NMTAP	59	192	7
NMTAP	59	288	4
NMTAP	59	288	5
NMHLD	60	0	1	72
NMHLD	60	72	3	72
NMTAP	60	144	2
NMHLD	60	192	6	72
NMHLD	60	264	4	72
NMTAP	60	336	5
EXTAP	61	48	7
EXTAP	61	96	7
NMTAP	61	192	0
NMTAP	61	192	1
NMSTR	61	288	3
NMSUR	61	288	3	96	192	4
NMTAP	61	288	4
BXTAP	62	288	1
BXTAP	62	288	6
NMHLD	71	0	6	2304
NMTAP	71	192	2
NMTAP	72	0	3
NMTAP	72	192	4
NMSTR	73	0	5
NMSLR	73	0	5	96	480	3
NMTAP	75	0	4
NMTAP	75	192	3
NMTAP	76	0	4
NMTAP	76	192	3
NMSTR	77	0	4
NMSUL	77	0	4	96	480	3
NMHLD	79	0	1	2304
NMTAP	79	192	2
NMTAP	80	0	3
NMTAP	80	192	3
NMTHO	81	0	0	576	C	0	M1
NMTAP	83	0	7
NMTAP	83	192	5
NMTAP	84	0	3
NMTAP	84	192	4
NMSTR	85	0	2
BRSI_	85	0	2	96	288	6
NMTAP	86	192	5
BRTAP	86	288	3
BRTAP	86	288	4
NMTAP	87	0	2
NMTAP	87	96	1
NMTAP	87	96	3
EXTAP	87	192	5
EXTAP	87	240	5
EXTAP	87	288	4
EXTAP	87	288	6
NMTAP	88	0	1
NMTAP	88	96	1
NMTAP	88	96	3
NMTAP	88	192	6
NMTAP	88	240	6
EXTAP	88	288	4
EXTAP	88	288	6
NMTAP	89	0	1
NMTAP	89	96	0
NMTAP	89	96	1
NMTAP	89	192	6
NMTAP	89	240	6
NMTAP	89	288	6
NMTAP	89	288	7
NMTAP	90	0	5
NMTAP	90	96	4
NMTAP	90	96	6
EXTAP	90	192	2
EXTAP	90	240	2
EXTAP	90	288	1
EXTAP	90	288	3
NMTAP	91	0	6
NMTAP	91	96	5
NMTAP	91	96	7
NMTAP	91	192	1
NMTAP	91	288	0
NMTAP	91	288	2
NMTAP	92	0	3
NMTAP	92	0	7
NMTAP	92	96	4
NMTAP	92	96	6
NMTAP	92	192	3
NMTAP	92	192	5
EXTAP	92	288	0
EXTAP	92	288	1
EXTAP	92	336	0
EXTAP	92	336	1
BXTAP	93	0	0
BXTAP	93	0	1
NMTAP	93	96	2
NMTAP	93	144	2
NMTAP	93	192	4
NMTAP	93	240	4
NMTAP	93	288	3
NMTAP	93	336	3
NMTAP	94	0	5
NMTAP	94	96	6
NMTAP	94	192	7
NMTAP	95	0	5
NMTAP	95	96	6
NMTAP	95	192	5
NMTAP	95	288	6
NMTTP	96	0	0	C	1	M1
BXTAP	96	288	2
BXTAP	96	288	5
EXSTR	97	0	6
NMSI_	97	0	6	96	48	3
NMSTR	97	96	7
NMSI_	97	96	7	96	48	2
NMSTR	97	192	6
NMSI_	97	192	6	96	48	3
NMSTR	97	288	7
NMSI_	97	288	7	96	48	2
NMSTR	98	0	6
NMSI_	98	0	6	96	48	3
NMSTR	98	96	7
NMSI_	98	96	7	96	48	2
NMSTR	98	192	6
NMSI_	98	192	6	96	48	3
NMSTR	98	288	7
NMSI_	98	288	7	96	48	2
NMSTR	99	0	6
NMSI_	99	0	6	96	48	3
NMSTR	99	96	7
NMSI_	99	96	7	96	48	2
NMSTR	99	192	6
NMSI_	99	192	6	96	48	3
NMSTR	99	288	7
NMSI_	99	288	7	96	48	2
NMSTR	100	0	6
NMSI_	100	0	6	96	48	3
NMSTR	100	96	7
NMSI_	100	96	7	96	48	2
NMSTR	100	192	6
NMSI_	100	192	6	96	48	3
EXTAP	100	288	1
EXTAP	101	0	2
NMTAP	101	96	1
NMTAP	101	96	7
NMTAP	101	192	4
NMTAP	101	192	6
NMTAP	101	288	1
NMTAP	101	288	3
NMTAP	102	0	0
NMTAP	102	0	7
NMTAP	102	96	4
NMTAP	102	96	6
NMTAP	102	192	2
NMTAP	102	192	3
NMTAP	102	288	0
NMTAP	102	288	1
BXSTR	103	0	2
BRSI_	103	0	2	96	48	0
BXHLD	103	0	3	96
BXHLD	103	192	4	96
BXSTR	103	192	5
BRSI_	103	192	5	96	48	7
BRTAP	104	0	0
BRTAP	104	0	1
BRTAP	104	96	2
BRTAP	104	96	3
BRTAP	104	192	6
BRTAP	104	192	7
BRTAP	104	288	4
BRTAP	104	288	5
EXSTR	105	0	6
NMSI_	105	0	6	96	48	3
NMSTR	105	96	7
NMSI_	105	96	7	96	48	2
NMSTR	105	192	6
NMSI_	105	192	6	96	48	3
NMSTR	105	288	7
NMSI_	105	288	7	96	48	2
NMSTR	106	0	6
NMSI_	106	0	6	96	48	3
NMSTR	106	96	7
NMSI_	106	96	7	96	48	2
NMSTR	106	192	6
NMSI_	106	192	6	96	48	3
NMSTR	106	288	7
NMSI_	106	288	7	96	48	2
NMSTR	107	0	6
NMSI_	107	0	6	96	48	3
NMSTR	107	96	7
NMSI_	107	96	7	96	48	2
NMSTR	107	192	6
NMSI_	107	192	6	96	48	3
NMSTR	107	288	7
NMSI_	107	288	7	96	48	2
NMSTR	108	0	6
NMSI_	108	0	6	96	48	3
NMSTR	108	96	7
NMSI_	108	96	7	96	48	2
NMSTR	108	192	6
NMSI_	108	192	6	96	48	3
NMTAP	108	288	1
EXTAP	109	0	2
NMTAP	109	96	0
NMTAP	109	96	1
NMTAP	109	192	6
NMTAP	109	192	7
NMTAP	109	288	4
NMTAP	109	288	5
NMHLD	110	0	2	72
NMHLD	110	72	3	72
NMTAP	110	144	1
NMHLD	110	192	5	72
NMHLD	110	264	4	72
NMTAP	110	336	6
NMTAP	111	48	7
NMTAP	111	96	7
NMTAP	111	192	4
NMTAP	111	192	6
NMTAP	111	288	1
NMTAP	111	288	3
EXHLD	112	0	4	48
EXHLD	112	0	5	48
NMHLD	112	96	4	48
NMHLD	112	96	5	48
NMHLD	112	192	6	48
NMHLD	112	192	7	48
NMHLD	112	288	6	48
NMHLD	112	288	7	48
NMHLD	113	0	2	48
NMHLD	113	0	3	48
NMHLD	113	96	2	48
NMHLD	113	96	3	48
NMHLD	113	192	0	48
NMHLD	113	192	1	48
NMHLD	113	288	0	48
NMHLD	113	288	1	48
NMHLD	114	0	4	48
NMHLD	114	0	5	48
NMHLD	114	96	6	48
NMHLD	114	96	7	48
NMHLD	114	192	2	48
NMHLD	114	192	3	48
NMHLD	114	288	0	48
NMHLD	114	288	1	48
NMHLD	115	0	4	48
NMHLD	115	0	5	48
NMHLD	115	96	6	48
NMHLD	115	96	7	48
NMHLD	115	192	2	48
NMHLD	115	192	3	48
BRHLD	115	288	0	48
BRHLD	115	288	7	48
BRTAP	116	0	1
BRTAP	116	0	6
NMTAP	116	96	3
NMTAP	116	96	4
NMTAP	116	192	5
NMTAP	116	288	4
NMTAP	116	288	5
NMTAP	117	0	6
NMTAP	117	96	6
NMTAP	117	96	7
NMTAP	117	192	1
NMTAP	117	288	0
NMTAP	117	288	1
NMTAP	118	0	2
NMTAP	118	96	2
NMTAP	118	96	3
NMTAP	118	192	5
NMTAP	118	288	4
NMTAP	118	288	5
NMTAP	119	0	6
NMTAP	119	96	6
NMTAP	119	96	7
NMTAP	119	192	1
NMTAP	119	240	1
NMTAP	119	288	0
NMTAP	120	0	6
NMTAP	120	96	6
NMTAP	120	96	7
NMTAP	120	192	5
NMTAP	120	288	4
NMTAP	120	288	5
NMTAP	121	0	2
NMTAP	121	96	2
NMTAP	121	96	3
NMTAP	121	192	1
NMTAP	121	288	0
NMTAP	121	288	1
NMTAP	122	0	6
NMTAP	122	96	6
NMTAP	122	96	7
NMTAP	122	192	5
NMTAP	122	288	4
NMTAP	122	288	5
NMTAP	123	0	2
NMTAP	123	96	2
NMTAP	123	96	3
NMTAP	123	192	0
NMTAP	123	240	0
NMTAP	123	288	7
NMHLD	124	0	2	192
NMTAP	124	96	3
NMHLD	124	192	5	192
NMTAP	124	288	4
NMHLD	125	0	1	192
NMTAP	125	96	3
NMHLD	125	192	6	192
NMTAP	125	288	4
NMHLD	126	0	1	192
NMTAP	126	96	2
NMHLD	126	192	6	192
NMTAP	126	288	5
NMHLD	127	0	1	96
NMTAP	127	96	3
NMTAP	127	192	6
NMTAP	127	240	6
NMTAP	127	288	4
NMHLD	128	0	2	192
NMTAP	128	96	0
NMHLD	128	192	5	192
NMTAP	128	288	7
NMHLD	129	0	2	192
NMTAP	129	96	1
NMHLD	129	192	5	192
NMTAP	129	288	6
NMHLD	130	0	3	192
NMTAP	130	96	0
NMHLD	130	192	4	192
NMTAP	130	288	7
NMHLD	131	0	3	192
NMTAP	131	96	1
NMHLD	131	192	4	192
NMTAP	131	288	6
NMTTP	132	0	3	B	0	M1
NMTTP	132	96	2	B	0	M1
NMTTP	132	192	1	B	0	M1
NMTTP	132	288	0	B	0	M1
NMTTP	133	0	7	B	0	M1
NMTTP	133	96	6	B	0	M1
NMTTP	133	192	5	B	0	M1
NMTTP	133	288	4	B	0	M1
NMTTP	134	0	3	E	0	M1
NMTTP	134	96	2	E	0	M1
NMTTP	134	192	1	E	0	M1
NMTTP	134	288	0	E	0	M1
NMTTP	135	0	7	E	0	M1
NMTTP	135	96	6	E	0	M1
NMTTP	135	192	5	E	0	M1
NMTTP	135	288	3	B	0	M1
NMTTP	135	288	3	E	0	M1
NMTTP	135	288	3	A	0	M1
NMTTP	136	0	4	A	0	M1
NMTTP	136	96	5	A	0	M1
NMTTP	136	192	6	A	0	M1
NMTTP	136	288	7	A	0	M1
NMTTP	137	0	0	A	0	M1
NMTTP	137	96	1	A	0	M1
NMTTP	137	192	2	A	0	M1
NMTTP	137	288	3	A	0	M1
NMTTP	138	0	5	D	0	M1
NMTTP	138	96	6	D	0	M1
NMTTP	138	192	7	D	0	M1
NMTTP	138	288	0	D	0	M1
NMTTP	139	0	1	D	0	M1
NMTTP	139	96	2	D	0	M1
NMTTP	139	192	3	D	0	M1
NMTTP	139	288	0	C	0	M1
NMTTP	139	288	1	B	0	M1
NMTTP	139	288	2	B	0	M1
NMTTP	139	288	2	E	0	M1
NMTTP	139	288	5	B	0	M1
NMTTP	139	288	6	B	0	M1
NMTTP	139	288	6	E	0	M1

T_REC_TAP	330
T_REC_BRK	34
T_REC_XTP	65
T_REC_BXX	6
T_REC_HLD	53
T_REC_XHO	3
T_REC_BHO	4
T_REC_BXH	2
T_REC_STR	48
T_REC_BST	0
T_REC_XST	32
T_REC_XBS	2
T_REC_TTP	43
T_REC_THO	2
T_REC_SLD	80
T_REC_BSL	3
T_REC_ALL	707
T_NUM_TAP	518
T_NUM_BRK	51
T_NUM_HLD	58
T_NUM_SLD	80
T_NUM_ALL	707
T_JUDGE_TAP	560
T_JUDGE_HLD	244
T_JUDGE_SLD	83
T_JUDGE_ALL	887
TTM_EACHPAIRS	130
TTM_SCR_TAP	259000
TTM_SCR_BRK	132600
TTM_SCR_HLD	58000
TTM_SCR_SLD	120000
TTM_SCR_ALL	569600
TTM_SCR_S	547600
TTM_SCR_SS	564500
TTM_RAT_ACV	10090

