VERSION	0.00.00	1.04.00
FES_MODE	0
BPM_DEF	220.000	220.000	220.000	220.000
MET_DEF	4	4
RESOLUTION	384
CLK_DEF	384
COMPATIBLE_CODE	MA2

BPM	0	0	220.000
MET	0	0	4	4

NMTAP	3	0	1
NMTAP	4	0	2
NMTAP	5	0	3
NMTAP	6	0	4
NMTAP	6	0	5
NMTAP	7	0	6
NMTAP	8	0	5
NMTAP	9	0	4
NMTAP	10	0	2
NMTAP	10	0	3
NMTAP	11	0	2
NMTAP	11	192	2
NMTAP	12	0	1
NMTAP	12	192	1
NMTAP	13	0	0
NMTAP	13	192	0
NMTAP	14	0	6
NMTAP	14	0	7
NMTAP	15	0	5
NMTAP	15	192	5
NMTAP	16	0	6
NMTAP	16	192	6
NMTAP	17	0	7
NMTAP	17	192	7
NMTAP	18	0	0
NMTAP	18	0	1
NMHLD	19	0	2	384
NMHLD	20	0	3	384
NMHLD	21	0	4	384
NMTAP	22	0	5
NMHLD	23	0	5	384
NMHLD	24	0	4	384
NMHLD	25	0	3	384
NMTAP	26	0	2
NMHLD	27	0	1	384
NMHLD	28	0	2	384
NMHLD	29	0	3	384
NMTAP	30	0	4
NMHLD	31	0	6	384
NMHLD	32	0	5	384
NMHLD	33	0	4	384
EXTAP	34	0	3
NMTAP	35	0	3
NMTAP	35	0	4
NMTAP	35	192	2
NMTAP	35	192	5
NMTAP	36	0	1
NMTAP	36	0	6
NMTAP	36	192	0
NMTAP	36	192	7
NMSTR	37	0	0
NMSI_	37	0	0	96	288	3
NMSTR	37	0	7
NMSI_	37	0	7	96	288	4
NMTAP	39	0	4
NMTAP	39	192	5
NMTAP	40	0	6
NMTAP	40	192	7
NMTAP	41	0	0
NMTAP	41	192	1
NMTAP	42	0	2
NMTAP	42	192	3
NMTAP	43	0	4
NMTAP	43	192	4
NMTAP	43	192	5
NMTAP	44	0	3
NMTAP	44	192	2
NMTAP	44	192	3
EXTAP	45	0	4
EXTAP	45	96	4
EXTAP	45	192	3
EXTAP	45	288	3
EXTAP	46	0	4
EXTAP	46	96	4
BRTAP	46	192	2
BRTAP	46	192	5
NMTAP	47	0	1
NMTAP	47	96	1
NMTAP	47	192	0
NMTAP	47	192	1
NMTAP	48	0	6
NMTAP	48	96	6
NMTAP	48	192	6
NMTAP	48	192	7
NMTAP	49	0	6
NMTAP	49	96	6
NMTAP	49	192	5
NMTAP	49	288	5
NMTAP	50	0	4
NMTAP	50	96	4
NMTAP	50	192	2
NMTAP	50	192	3
NMTAP	51	0	2
NMTAP	51	96	2
NMTAP	51	192	2
NMTAP	51	192	3
NMTAP	52	0	5
NMTAP	52	96	5
NMTAP	52	192	4
NMTAP	52	192	5
NMTAP	53	0	2
NMTAP	53	0	3
NMTAP	53	192	4
NMTAP	53	192	5
EXTAP	54	0	6
EXTAP	54	0	7
EXTAP	54	96	6
EXTAP	54	96	7
EXTAP	54	192	0
EXTAP	54	192	5
NMTAP	55	0	6
NMTAP	55	96	6
NMTAP	55	192	6
NMTAP	55	192	7
NMTAP	56	0	1
NMTAP	56	96	1
NMTAP	56	192	0
NMTAP	56	192	1
NMTAP	57	0	1
NMTAP	57	96	1
NMTAP	57	192	2
NMTAP	57	288	2
NMTAP	58	0	3
NMTAP	58	96	3
NMTAP	58	192	4
NMTAP	58	192	5
NMTAP	59	0	5
NMTAP	59	96	5
NMTAP	59	192	4
NMTAP	59	192	5
NMTAP	60	0	2
NMTAP	60	96	2
NMTAP	60	192	2
NMTAP	60	192	3
NMTAP	61	0	4
NMTAP	61	0	5
NMTAP	61	192	2
NMTAP	61	192	3
EXTAP	62	0	0
EXTAP	62	0	1
EXTAP	62	96	0
EXTAP	62	96	1
EXTAP	62	192	2
EXTAP	62	192	7
NMSTR	63	0	1
NMSI_	63	0	1	96	288	4
NMSTR	65	0	6
NMSI_	65	0	6	96	288	3
NMSTR	67	0	1
NMSI_	67	0	1	96	288	5
NMSTR	69	0	6
NMSI_	69	0	6	96	288	2
NMHLD	71	0	1	384
NMHLD	72	0	0	384
NMHLD	73	0	7	384
NMTAP	74	0	6
NMHLD	75	0	6	384
NMHLD	76	0	7	384
NMHLD	77	0	0	384
NMTAP	78	0	1
NMHLD	79	0	2	384
NMTAP	80	0	3
NMHLD	81	0	5	384
NMTAP	82	0	4
NMHLD	83	0	2	384
NMTAP	84	0	3
NMHLD	85	0	5	384
NMTAP	86	0	4
NMTTP	87	0	6	B	0	L1
NMTTP	87	192	5	B	0	L1
NMTTP	88	0	4	B	0	L1
NMTTP	88	192	3	B	0	L1
NMTTP	89	0	2	B	0	L1
NMTTP	89	192	1	B	0	L1
NMTTP	90	0	0	B	0	L1
NMTTP	90	0	7	B	0	L1
NMTTP	91	0	1	B	0	L1
NMTTP	91	192	2	B	0	L1
NMTTP	92	0	3	B	0	L1
NMTTP	92	192	4	B	0	L1
NMTTP	93	0	5	B	0	L1
NMTTP	93	192	6	B	0	L1
NMTTP	94	0	0	B	0	L1
NMTTP	94	0	7	B	0	L1
NMTHO	95	0	0	384	C	0	L1
NMTAP	97	0	1
NMTAP	97	96	1
NMTAP	97	192	0
NMTAP	97	288	0
NMTAP	98	0	7
NMTAP	98	96	7
NMTAP	98	192	6
NMTAP	98	192	7
NMTAP	99	0	5
NMTAP	99	96	6
NMTAP	99	192	7
NMTAP	99	288	0
NMTAP	100	0	0
NMTAP	100	0	1
NMTAP	100	96	0
NMTAP	100	96	1
NMTAP	100	192	0
NMTAP	100	192	1
NMTAP	101	0	1
NMTAP	101	96	1
NMTAP	101	192	2
NMTAP	101	288	2
NMTAP	102	0	3
NMTAP	102	96	3
NMTAP	102	192	4
NMTAP	102	192	5
NMTAP	103	0	2
NMTAP	103	0	3
NMTAP	103	192	4
NMTAP	103	192	5
EXTAP	104	0	6
EXTAP	104	0	7
EXTAP	104	96	6
EXTAP	104	96	7
EXTAP	104	192	0
EXTAP	104	192	5
NMTAP	105	0	6
NMTAP	105	96	6
NMTAP	105	192	7
NMTAP	105	288	7
NMTAP	106	0	0
NMTAP	106	96	0
NMTAP	106	192	0
NMTAP	106	192	1
NMTAP	107	0	2
NMTAP	107	96	1
NMTAP	107	192	0
NMTAP	107	288	7
NMTAP	108	0	6
NMTAP	108	0	7
NMTAP	108	96	6
NMTAP	108	96	7
NMTAP	108	192	6
NMTAP	108	192	7
NMTAP	109	0	6
NMTAP	109	96	6
NMTAP	109	192	5
NMTAP	109	288	5
NMTAP	110	0	4
NMTAP	110	96	4
NMTAP	110	192	2
NMTAP	110	192	3
NMTAP	111	0	4
NMTAP	111	0	5
NMTAP	111	192	2
NMTAP	111	192	3
NMTAP	112	0	4
NMTAP	112	96	4
NMTAP	112	192	3
NMTAP	112	288	3
NMTAP	113	0	4
NMTAP	113	96	4
NMTAP	113	192	3
NMTAP	113	288	3
NMTAP	114	0	4
NMTAP	114	96	4
NMTAP	114	192	3
NMTAP	114	288	3
BXTAP	115	0	2
BXTAP	115	0	5
BXTAP	115	96	2
BXTAP	115	96	5
BXTAP	115	192	2
BXTAP	115	192	5
NMTAP	116	0	1
NMTAP	116	96	1
NMTAP	116	192	0
NMTAP	116	192	1
NMTAP	117	0	2
NMTAP	117	96	2
NMTAP	117	192	2
NMTAP	117	192	3
NMTAP	118	0	4
NMTAP	118	96	4
NMTAP	118	192	4
NMTAP	118	192	5
NMTAP	119	0	6
NMTAP	119	0	7
NMTAP	119	192	6
NMTAP	119	192	7
NMTAP	120	0	6
NMTAP	120	96	6
NMTAP	120	192	6
NMTAP	120	192	7
NMTAP	121	0	5
NMTAP	121	96	5
NMTAP	121	192	4
NMTAP	121	192	5
NMTAP	122	0	3
NMTAP	122	96	3
NMTAP	122	192	2
NMTAP	122	192	3
NMTAP	123	0	0
NMTAP	123	0	1
NMTAP	123	192	0
NMTAP	123	192	1
NMTAP	124	0	0
NMTAP	124	96	1
NMTAP	124	192	2
NMTAP	124	288	3
NMTAP	125	0	4
NMTAP	125	96	5
NMTAP	125	192	6
NMTAP	125	192	7
NMTAP	126	0	7
NMTAP	126	96	6
NMTAP	126	192	5
NMTAP	126	288	4
NMTAP	127	0	3
NMTAP	127	96	2
NMTAP	127	192	0
NMTAP	127	192	1
NMTAP	128	0	2
NMTAP	128	96	1
NMTAP	128	192	0
NMTAP	128	288	7
NMTAP	129	0	6
NMTAP	129	96	5
NMTAP	129	192	3
NMTAP	129	192	4
NMTAP	130	0	5
NMTAP	130	96	6
NMTAP	130	192	7
NMTAP	130	288	0
NMTAP	131	0	1
NMTAP	131	96	2
NMTAP	131	192	3
NMTAP	131	192	4
NMTAP	132	0	2
NMTAP	132	0	3
NMTAP	132	192	2
NMTAP	132	192	3
NMTAP	133	0	0
NMTAP	133	0	1
NMTAP	133	192	0
NMTAP	133	192	1
NMTAP	134	0	6
NMTAP	134	0	7
NMTAP	134	192	6
NMTAP	134	192	7
NMTAP	135	0	4
NMTAP	135	0	5
NMTAP	135	192	4
NMTAP	135	192	5
NMTAP	136	0	3
NMTAP	136	0	4
NMTAP	136	192	3
NMTAP	136	192	4
NMTAP	137	0	2
NMTAP	137	0	5
NMTAP	137	192	2
NMTAP	137	192	5
NMTAP	138	0	1
NMTAP	138	0	6
NMTAP	138	192	1
NMTAP	138	192	6
NMTAP	139	0	0
NMTAP	139	0	7
NMTAP	139	96	0
NMTAP	139	96	7
NMTAP	139	192	1
NMTAP	139	192	6
BRTAP	139	288	1
BRTAP	139	288	6

T_REC_TAP	283
T_REC_BRK	4
T_REC_XTP	25
T_REC_BXX	6
T_REC_HLD	22
T_REC_XHO	0
T_REC_BHO	0
T_REC_BXH	0
T_REC_STR	6
T_REC_BST	0
T_REC_XST	0
T_REC_XBS	0
T_REC_TTP	16
T_REC_THO	1
T_REC_SLD	6
T_REC_BSL	0
T_REC_ALL	369
T_NUM_TAP	330
T_NUM_BRK	10
T_NUM_HLD	23
T_NUM_SLD	6
T_NUM_ALL	369
T_JUDGE_TAP	340
T_JUDGE_HLD	184
T_JUDGE_SLD	6
T_JUDGE_ALL	530
TTM_EACHPAIRS	84
TTM_SCR_TAP	165000
TTM_SCR_BRK	26000
TTM_SCR_HLD	23000
TTM_SCR_SLD	9000
TTM_SCR_ALL	223000
TTM_SCR_S	215350
TTM_SCR_SS	222000
TTM_RAT_ACV	10045

