VERSION	0.00.00	1.04.00
FES_MODE	0
BPM_DEF	186.000	186.000	186.000	186.000
MET_DEF	4	4
RESOLUTION	384
CLK_DEF	384
COMPATIBLE_CODE	MA2

BPM	0	0	186.000
MET	0	0	4	4

NMTAP	1	288	3
NMTAP	1	312	4
NMTAP	1	336	3
NMTAP	1	360	4
BXTAP	2	0	3
NMTAP	2	48	2
BXTAP	2	96	1
NMTAP	2	96	3
NMTAP	2	144	4
NMTAP	2	192	3
BXTAP	2	192	5
NMTAP	2	240	5
NMTAP	2	264	4
BXTAP	2	288	6
NMTAP	2	336	7
NMTAP	3	0	0
BXTAP	3	0	7
NMTAP	3	48	0
NMTAP	3	72	7
BXTAP	3	96	1
NMTAP	3	120	6
NMTAP	3	144	2
NMTAP	3	168	5
BXHLD	3	192	3	96
BRTAP	3	288	7
NMHLD	4	0	6	96
NMHLD	4	96	4	96
NMTAP	4	192	5
NMTAP	4	240	5
NMTAP	4	336	3
NMTAP	4	336	4
NMTAP	5	48	3
NMTAP	5	72	4
NMTAP	5	96	2
NMTAP	5	144	5
NMTAP	5	168	4
NMTAP	5	192	6
NMTAP	5	240	2
NMTAP	5	264	3
NMHLD	5	288	1	96
NMSTR	6	0	6
NMSCL	6	0	6	96	48	3
NMTAP	6	96	0
NMTAP	6	192	1
NMTAP	6	240	1
NMTAP	6	336	2
NMTAP	6	336	3
NMTAP	7	48	2
NMTAP	7	72	3
NMTAP	7	96	1
NMTAP	7	144	4
NMTAP	7	168	3
NMTAP	7	192	5
NMTAP	7	240	2
NMTAP	7	264	3
NMHLD	7	288	1	96
NMHLD	8	0	7	96
NMHLD	8	96	4	96
NMTAP	8	192	5
NMTAP	8	240	5
NMTAP	8	336	3
NMTAP	8	336	4
NMTAP	9	48	4
NMTAP	9	72	3
NMTAP	9	96	5
NMTAP	9	144	2
NMTAP	9	168	3
NMTAP	9	192	1
NMTAP	9	240	5
NMTAP	9	264	4
NMHLD	9	288	6	96
NMSTR	10	0	1
NMSCR	10	0	1	96	48	4
NMTAP	10	96	7
NMTAP	10	192	6
NMTAP	10	240	6
NMTAP	10	336	3
NMTAP	10	336	5
NMTAP	11	48	2
NMTAP	11	72	3
NMTAP	11	96	1
NMTAP	11	144	5
NMTAP	11	168	4
NMTAP	11	192	6
NMTAP	11	240	0
NMTAP	11	264	7
NMSTR	11	288	0
NMSI_	11	288	0	96	48	4
BRTAP	12	0	6
NMTAP	12	96	6
NMTAP	12	192	4
NMTAP	12	192	5
NMTAP	12	288	3
NMTAP	12	336	3
NMTAP	13	0	4
NMTAP	13	48	2
NMTAP	13	96	4
NMTAP	13	144	1
NMTAP	13	192	1
NMTAP	13	192	3
EXTAP	13	288	0
EXTAP	13	288	7
NMTTP	14	0	3	B	0	M1
NMTTP	14	0	5	B	0	M1
NMTTP	14	96	2	B	0	M1
NMTTP	14	96	4	B	0	M1
NMTAP	14	192	1
NMHLD	14	240	1	96
NMTAP	14	336	0
NMTAP	15	48	7
NMSTR	15	96	7
NMSI_	15	96	7	96	48	1
NMSI_	15	96	7	96	48	5
EXSTR	15	288	2
NMSLL	15	288	2	96	96	6
NMTAP	16	0	3
NMSTR	16	96	5
NMSLR	16	96	5	96	96	1
NMTAP	16	192	4
NMTAP	16	288	2
NMTAP	16	336	2
NMTAP	17	0	4
NMTAP	17	48	3
NMTAP	17	96	6
NMTAP	17	144	4
NMSTR	17	192	5
NMSCL	17	192	5	96	48	2
BXTAP	17	288	3
NMTHO	18	0	0	288	C	0	M1
EXTAP	18	288	7
EXTAP	18	336	7
NMTAP	19	48	0
NMTAP	19	48	1
NMSTR	19	96	0
NMSI_	19	96	0	96	48	6
NMSV_	19	96	0	96	48	3
NMTAP	19	96	1
EXTAP	19	288	2
EXTAP	19	288	5
NMTAP	20	0	3
NMTAP	20	0	4
NMTAP	20	48	2
NMTAP	20	72	3
NMTAP	20	96	1
NMTAP	20	144	1
NMTAP	20	192	7
NMTAP	20	240	7
NMTAP	20	288	4
NMHLD	20	336	4	96
NMTAP	21	48	6
NMTAP	21	96	6
NMTAP	21	144	3
NMTAP	21	144	5
NMTAP	21	192	3
NMTAP	21	192	5
NMTAP	21	240	2
NMTAP	21	264	3
NMHLD	21	288	2	96
NMTAP	22	0	4
NMTAP	22	48	4
NMTAP	22	96	3
NMTAP	22	144	5
NMTAP	22	192	3
NMTAP	22	192	6
NMTAP	22	240	3
NMTAP	22	240	6
NMTAP	22	288	5
NMTAP	22	312	4
NMHLD	22	336	5	96
NMTAP	23	48	7
NMTAP	23	96	0
NMTAP	23	144	1
NMTAP	23	192	2
NMTAP	23	192	4
NMTAP	23	240	5
NMTAP	23	264	4
NMTAP	23	288	6
NMTAP	23	336	6
NMTAP	24	0	3
NMTAP	24	0	5
NMTAP	24	48	2
NMTAP	24	72	3
NMTAP	24	96	1
NMTAP	24	144	1
NMTAP	24	192	6
NMTAP	24	240	6
NMTAP	24	288	4
NMTAP	24	288	5
NMHLD	24	336	4	96
NMTAP	24	336	5
NMTAP	25	48	6
NMTAP	25	96	6
NMTAP	25	144	3
NMTAP	25	144	5
NMTAP	25	192	3
NMTAP	25	192	5
NMTAP	25	240	2
NMTAP	25	264	3
NMHLD	25	288	2	96
NMTAP	26	0	4
NMTAP	26	48	4
NMTAP	26	96	3
NMTAP	26	144	5
NMTAP	26	192	3
NMTAP	26	192	6
NMTAP	26	240	3
NMTAP	26	240	6
NMTAP	26	288	5
NMTAP	26	312	4
NMHLD	26	336	5	96
NMTAP	27	48	4
NMTAP	27	96	4
NMTAP	27	96	5
NMTAP	27	144	3
NMTAP	27	144	4
NMSTR	27	192	2
NMSI_	27	192	2	96	96	7
NMTAP	27	192	3
BRSTR	27	288	7
NMSCR	27	288	7	96	96	1
NMTAP	28	0	6
CNSI_	28	96	1	0	48	3
NMTAP	28	96	6
NMTAP	28	192	4
NMHLD	28	240	4	96
NMHLD	28	336	3	96
NMTAP	29	48	5
NMTAP	29	96	4
NMTAP	29	144	3
NMSTR	29	192	2
NMSCL	29	192	2	96	96	7
NMTAP	29	288	4
NMTAP	30	0	6
NMTAP	30	96	6
NMTAP	30	192	4
NMHLD	30	240	4	96
NMTAP	30	336	3
NMTAP	31	0	2
NMTAP	31	48	1
NMTAP	31	96	4
NMTAP	31	144	3
NMSTR	31	192	2
NMSCR	31	192	2	96	96	5
NMTTP	31	288	4	E	0	M1
NMTAP	32	0	7
NMTAP	32	96	7
NMTAP	32	192	6
NMHLD	32	240	6	96
NMHLD	32	336	4	96
NMTAP	33	48	5
NMTAP	33	96	4
NMTAP	33	144	3
NMSTR	33	192	2
NMSI_	33	192	2	96	48	4
NMSTR	33	192	5
NMSI_	33	192	5	96	48	3
EXTAP	34	0	2
EXTAP	34	0	5
NMTAP	34	96	4
NMTAP	34	144	3
NMHLD	34	192	2	96
NMTAP	34	288	4
NMTAP	34	336	4
NMTAP	35	0	1
NMTAP	35	0	5
NMTAP	35	48	2
NMTAP	35	48	4
NMTAP	35	96	1
NMTAP	35	96	5
NMTAP	35	144	2
NMTAP	35	144	4
NMTAP	35	192	1
NMTAP	35	192	5
NMTAP	35	288	2
NMTAP	35	336	2
NMTAP	36	0	1
NMTAP	36	0	7
NMTAP	36	48	2
NMTAP	36	48	6
NMTAP	36	96	1
NMTAP	36	96	7
NMTAP	36	144	2
NMTAP	36	144	6
NMTAP	36	192	1
NMTAP	36	192	7
NMSTR	36	288	0
NMSI_	36	288	0	96	48	4
NMSTR	36	288	6
NMSI_	36	288	6	96	48	3
BRTAP	37	0	0
BRTAP	37	0	6
NMSTR	37	96	0
NMSCR	37	96	0	96	48	3
NMTAP	37	144	7
NMTAP	37	192	0
NMTAP	37	192	6
NMTAP	37	240	5
NMTAP	37	264	5
NMTAP	37	288	4
NMTAP	37	336	6
NMTAP	37	336	7
NMTAP	38	0	0
NMTAP	38	0	5
NMTAP	38	48	2
NMTAP	38	72	2
NMSTR	38	96	3
NMSCL	38	96	3	96	48	0
NMTAP	38	144	4
BRTAP	38	192	3
BRTAP	38	192	5
CNSI_	38	240	0	0	48	6
NMTAP	38	288	5
NMTAP	38	336	5
NMTAP	39	0	4
NMTAP	39	0	6
NMTAP	39	48	7
NMTAP	39	96	0
NMTAP	39	96	6
NMTAP	39	144	1
NMTAP	39	192	2
NMTAP	39	192	7
NMTAP	39	240	3
NMTAP	39	240	6
NMSTR	39	288	7
NMSLL	39	288	7	96	48	3
NMSTR	39	336	3
BRSCL	39	336	3	96	120	3
BRTAP	40	0	7
NMTTP	40	96	0	B	0	M1
NMTTP	40	96	1	B	0	M1
NMTTP	40	96	1	E	1	M1
NMSTR	40	288	2
NMSCL	40	288	2	96	48	0
NMSTR	40	288	7
NMSI_	40	288	7	96	48	3
BRTAP	41	0	2
BRTAP	41	0	7
NMSTR	41	96	7
NMSCL	41	96	7	96	48	4
NMTAP	41	144	0
NMTAP	41	192	1
NMTAP	41	192	7
NMTAP	41	240	2
NMTAP	41	264	2
NMTAP	41	288	3
NMTAP	41	336	0
NMTAP	41	336	1
NMTAP	42	0	2
NMTAP	42	0	7
NMTAP	42	48	5
NMTAP	42	72	5
NMSTR	42	96	4
NMSCR	42	96	4	96	24	6
NMTAP	42	144	3
BRTAP	42	192	2
BRTAP	42	192	4
CNSI_	42	216	6	0	48	0
CNSI_	42	264	0	0	48	2
NMTAP	42	288	3
EXTAP	42	336	3
NMTAP	43	0	2
NMTAP	43	0	4
NMTAP	43	48	1
NMTAP	43	96	0
NMTAP	43	96	6
NMTAP	43	144	5
NMTAP	43	192	1
NMTAP	43	192	7
NMHLD	43	240	2	96
NMTAP	43	240	6
NMTAP	43	336	4
NMSTR	44	0	1
BRSV_	44	0	1	96	48	4
NMTAP	44	48	0
NMSTR	44	96	5
BRSCL	44	96	5	96	48	2
NMTAP	44	144	6
NMHLD	44	192	1	96
BRTAP	44	288	0
NMTAP	45	0	1
NMTAP	45	0	7
NMTAP	45	48	7
NMSTR	45	96	5
NMSI_	45	96	5	96	48	1
NMTAP	45	96	7
NMTAP	45	144	7
NMTAP	45	192	5
NMTAP	45	192	7
CNSI_	45	240	1	0	48	3
NMTAP	45	240	7
NMTAP	45	288	7
NMSTR	45	336	6
NMSI_	45	336	6	96	48	4
NMSTR	46	0	3
NMSI_	46	0	3	96	48	7
NMTAP	46	48	6
NMTAP	46	96	3
NMTAP	46	144	6
BRTAP	46	192	0
NMTAP	46	288	1
NMTAP	46	288	7
NMTAP	46	336	2
NMTAP	46	360	3
NMHLD	47	0	1	48
NMTAP	47	48	6
NMTAP	47	72	7
NMHLD	47	96	5	48
NMTAP	47	144	3
NMTAP	47	168	4
NMTAP	47	192	2
NMSTR	47	240	1
NMSI_	47	240	1	96	48	5
NMSTR	47	288	7
NMSI_	47	288	7	96	48	3
NMTAP	47	336	1
NMTAP	48	0	7
NMSTR	48	48	0
NMSI_	48	48	0	96	48	4
NMSTR	48	96	6
NMSI_	48	96	6	96	48	2
NMTAP	48	144	0
NMTAP	48	192	6
BRTAP	48	288	1
BRTAP	48	288	7
NMTAP	49	0	0
NMTAP	49	0	6
NMTAP	49	48	0
NMTAP	49	96	0
NMSTR	49	96	2
NMSI_	49	96	2	96	48	6
NMTAP	49	144	0
NMTAP	49	192	0
NMTAP	49	192	2
NMTAP	49	240	0
CNSI_	49	240	6	0	48	4
NMTAP	49	288	0
NMSTR	49	336	1
NMSI_	49	336	1	96	48	3
NMSTR	50	0	4
NMSI_	50	0	4	96	48	0
NMTAP	50	48	1
NMTAP	50	96	4
NMTAP	50	144	1
BRTAP	50	192	7
NMTAP	50	288	0
NMTAP	50	288	6
NMTAP	50	336	5
NMTAP	50	360	4
NMHLD	51	0	6	48
NMTAP	51	48	1
NMTAP	51	72	0
NMHLD	51	96	2	48
NMTAP	51	144	4
NMTAP	51	168	3
NMTAP	51	192	5
NMSTR	51	240	6
NMSI_	51	240	6	96	48	2
NMSTR	51	288	0
NMSI_	51	288	0	96	48	4
NMTAP	51	336	6
NMTAP	52	0	0
NMSTR	52	48	7
NMSI_	52	48	7	96	48	3
NMSTR	52	96	1
NMSLR	52	96	1	96	72	5
NMTAP	52	144	7
NMTAP	52	192	1
NMSTR	52	288	6
BRSI_	52	288	6	96	48	2
NMSTR	52	336	3
BRSI_	52	336	3	96	48	7
NMTAP	53	0	6
NMTAP	53	48	3
NMSTR	53	96	5
NMSI_	53	96	5	96	48	7
NMTAP	53	144	0
BRTAP	53	192	5
CNSI_	53	240	7	0	48	1
CNSI_	53	288	1	0	24	3
EXTAP	54	0	3
NMTAP	54	0	5
NMTAP	54	96	2
NMTAP	54	96	4
NMTAP	54	192	1
NMHLD	54	240	1	96
NMHLD	54	336	4	96
NMTAP	55	48	3
NMTAP	55	72	4
NMTAP	55	96	2
NMTAP	55	144	3
NMTAP	55	168	4
NMSTR	55	192	2
BRSI_	55	192	2	96	48	0
NMTAP	55	240	3
NMTAP	55	264	4
NMTAP	55	288	2
NMSTR	56	0	6
NMSV_	56	0	6	96	48	3
NMTAP	56	96	0
NMTAP	56	192	1
NMHLD	56	240	1	96
NMHLD	56	336	4	96
NMTAP	57	48	2
NMTAP	57	72	3
NMTAP	57	96	1
NMTAP	57	144	2
NMTAP	57	168	3
NMSTR	57	192	1
BRSI_	57	192	1	96	48	5
NMTAP	57	240	2
NMTAP	57	264	3
NMTAP	57	288	1
NMHLD	58	0	6	96
NMHLD	58	96	4	96
NMTAP	58	192	5
NMTAP	58	240	4
NMTAP	58	240	5
NMTAP	58	336	3
NMTAP	58	336	4
NMTAP	59	48	4
NMTAP	59	72	3
NMTAP	59	96	5
NMTAP	59	144	4
NMTAP	59	168	3
NMSTR	59	192	5
BRSI_	59	192	5	96	48	7
NMTAP	59	240	4
NMTAP	59	264	3
NMTAP	59	288	5
NMSTR	60	0	1
NMSV_	60	0	1	96	48	4
NMTAP	60	96	7
NMTAP	60	192	6
NMHLD	60	240	6	96
NMTAP	60	336	4
NMTAP	61	48	3
NMTAP	61	72	4
NMTAP	61	96	2
NMTAP	61	144	3
NMTAP	61	168	5
NMTAP	61	192	1
NMTAP	61	240	3
NMTAP	61	264	6
NMTAP	61	288	0
BXHLD	62	0	1	192
EXTAP	62	0	7
NMTTP	62	192	4	D	0	M1
NMTTP	62	204	5	D	0	M1
NMTTP	62	216	6	D	0	M1
NMTTP	62	228	7	D	0	M1
NMTTP	62	240	0	D	0	M1
NMTTP	62	252	1	D	0	M1
NMTTP	62	264	2	D	0	M1
NMTTP	62	276	3	D	0	M1
NMTTP	62	288	4	D	0	M1
EXSTR	63	0	4
NMSI_	63	0	4	96	48	0
NMHLD	63	0	5	96
BXTAP	63	96	4
NMTAP	63	192	1
NMTAP	63	192	7
NMTAP	63	240	1
NMTAP	63	240	7
NMHLD	63	336	2	96
NMTAP	63	336	3
NMTAP	64	48	4
NMSTR	64	96	4
NMSCR	64	96	4	96	96	0
NMTAP	64	144	1
NMSTR	64	192	0
NMSCR	64	192	0	96	96	4
NMTAP	64	288	4
NMTAP	65	0	0
NMTAP	65	96	2
NMTAP	65	144	2
NMTAP	65	192	5
NMSTR	65	240	4
NMSUL	65	240	4	96	96	7
NMTAP	65	240	6
NMSTR	65	336	7
NMSUL	65	336	7	96	96	3
NMSTR	66	48	3
NMSCL	66	48	3	96	96	0
NMTAP	66	144	5
NMTAP	66	240	6
NMHLD	66	288	6	96
EXSTR	67	0	4
NMSI_	67	0	4	96	48	0
BXTAP	67	96	4
NMTAP	67	96	5
NMTAP	67	192	1
NMTAP	67	192	7
NMTAP	67	240	1
NMTAP	67	240	7
NMHLD	67	336	2	96
NMTAP	67	336	3
NMTAP	68	48	4
NMSTR	68	96	4
NMSCL	68	96	4	96	144	6
NMTAP	68	144	1
NMSTR	68	192	0
NMSCL	68	192	0	96	96	4
NMTAP	68	288	4
NMTAP	69	0	0
NMTAP	69	96	5
NMTAP	69	144	5
NMTAP	69	192	2
NMTAP	69	240	1
NMSTR	69	240	3
NMSUR	69	240	3	96	96	0
NMSTR	69	336	0
NMSUR	69	336	0	96	96	4
NMSTR	70	48	4
NMSCR	70	48	4	96	96	7
NMTAP	70	144	2
NMTAP	70	240	0
NMSTR	70	288	0
NMSLL	70	288	0	96	240	3
NMSLR	70	288	0	96	240	5
BRHLD	71	336	2	240
BRHLD	71	336	6	192
NMTAP	72	288	3
NMTAP	72	288	5
NMTTP	73	0	0	C	0	M1
NMTTP	73	0	4	B	0	M1
NMHLD	73	0	6	96
NMTTP	73	192	0	B	0	M1
NMHLD	73	192	1	96
NMTTP	73	192	7	B	0	M1
NMTAP	74	0	4
NMTAP	74	0	5
NMTAP	74	96	1
NMTAP	74	96	3
NMTAP	74	192	3
NMHLD	74	192	7	192
EXSTR	74	288	2
NMSI_	74	288	2	96	96	5
CNSI_	75	96	5	0	120	2
NMSTR	75	288	7
NMSCL	75	288	7	96	192	0
NMTTP	76	0	0	C	1	M1
EXTAP	76	240	7
EXTAP	76	288	7
NMHLD	77	0	0	96
NMTAP	77	0	6
NMTAP	77	96	3
NMTAP	77	144	4
NMTAP	77	192	1
NMHLD	77	192	5	96
NMTAP	77	288	3
NMTAP	77	336	2
NMHLD	78	0	1	96
NMTAP	78	0	4
NMTAP	78	96	3
NMTAP	78	144	4
NMTAP	78	192	3
NMHLD	78	192	5	96
NMTTP	78	288	0	C	0	M1
EXTAP	79	0	6
EXTAP	79	0	7
EXTAP	79	48	0
EXTAP	79	48	5
EXTAP	79	192	3
EXTAP	79	192	4
NMTAP	79	288	1
NMSTR	79	288	6
NMSSL	79	288	6	96	96	2
NMSTR	80	0	2
BRSSL	80	0	2	96	96	6
NMTAP	80	96	0
NMTAP	80	192	0
NMSTR	80	288	1
NMSSR	80	288	1	96	96	5
NMSTR	81	0	5
BRSSR	81	0	5	96	96	1
NMTAP	81	96	7
NMTAP	81	192	7
NMSTR	81	288	1
BRSI_	81	288	1	96	48	4
NMSTR	81	288	7
BRSI_	81	288	7	96	48	3
BRTAP	82	0	1
BRTAP	82	0	7
NMSTR	82	96	7
NMSCL	82	96	7	96	24	6
NMTAP	82	144	0
NMTAP	82	192	1
NMTAP	82	192	7
CNSI_	82	216	6	0	24	4
NMTAP	82	240	2
NMTAP	82	264	2
NMTAP	82	288	3
NMTAP	82	336	5
NMTAP	82	360	4
NMTAP	83	0	6
NMTAP	83	48	1
NMTAP	83	72	1
NMSTR	83	96	0
NMSCL	83	96	0	96	48	6
BRSV_	83	96	0	96	48	3
NMTAP	83	144	2
NMTAP	83	144	7
BRTAP	83	192	0
NMTAP	83	288	4
NMTAP	83	288	5
NMTAP	83	336	3
NMTAP	83	336	6
NMSTR	84	0	7
NMSI_	84	0	7	96	48	1
NMTAP	84	48	2
NMSTR	84	96	7
NMSCL	84	96	7	96	48	5
NMTAP	84	144	4
NMTAP	84	192	7
NMTAP	84	240	1
NMTAP	84	288	0
NMTAP	84	288	4
NMTAP	84	336	0
NMTAP	84	336	4
BRTAP	85	0	1
NMTAP	85	12	2
NMTAP	85	24	3
NMTAP	85	36	4
NMTAP	85	48	5
NMTAP	85	60	6
NMTAP	85	72	7
NMTAP	85	84	0
BRTAP	85	96	1
NMTAP	85	108	2
NMTAP	85	120	3
NMTAP	85	132	4
NMTAP	85	144	5
NMTAP	85	156	6
NMTAP	85	168	7
NMTAP	85	180	0
NMTAP	85	192	1
NMSTR	85	288	3
NMSI_	85	288	3	96	24	1
NMSTR	85	288	7
BRSV_	85	288	7	96	48	4
BRTAP	86	0	3
BRTAP	86	0	7
CNSCL	86	24	1	0	24	0
NMSTR	86	96	6
NMSCL	86	96	6	96	24	5
NMTAP	86	144	3
NMTAP	86	192	2
NMTAP	86	192	6
CNSI_	86	216	5	0	24	3
NMTAP	86	240	1
NMTAP	86	264	1
NMTAP	86	288	0
NMTAP	86	336	6
NMTAP	86	360	7
NMTAP	87	0	5
NMTAP	87	48	2
NMTAP	87	72	2
NMSTR	87	96	3
NMSCR	87	96	3	96	48	5
BRSV_	87	96	3	96	48	0
NMTAP	87	144	1
NMTAP	87	144	4
BRTAP	87	192	3
NMTAP	87	288	6
NMTAP	87	288	7
NMTAP	87	336	5
NMSTR	88	0	0
NMSI_	88	0	0	96	24	6
NMTAP	88	48	4
NMSTR	88	96	0
NMSI_	88	96	0	96	24	2
CNSCL	88	120	6	0	24	5
NMTAP	88	144	3
NMTAP	88	192	0
CNSCR	88	216	2	0	24	3
NMTAP	88	240	4
NMTAP	88	288	5
NMSTR	88	336	6
NMSI_	88	336	6	96	48	2
NMSTR	89	0	0
NMSI_	89	0	0	96	48	4
NMSTR	89	48	6
NMSCL	89	48	6	96	48	3
NMTAP	89	96	0
NMTAP	89	144	6
NMHLD	89	192	1	96
BRTAP	89	288	3
NMTAP	90	0	0
NMTAP	90	0	6
NMTAP	90	48	0
NMTAP	90	96	0
NMSTR	90	96	2
NMSI_	90	96	2	96	48	6
NMTAP	90	144	0
NMTAP	90	192	0
NMTAP	90	192	2
NMTAP	90	240	0
CNSI_	90	240	6	0	48	4
NMTAP	90	288	0
NMSTR	90	336	1
NMSI_	90	336	1	96	48	3
NMSTR	91	0	4
NMSI_	91	0	4	96	48	0
NMSTR	91	48	1
NMSI_	91	48	1	96	48	5
NMTAP	91	96	4
NMTAP	91	144	1
BRTAP	91	192	7
NMTAP	91	288	0
NMTAP	91	288	6
NMTAP	91	336	5
NMTAP	91	360	4
NMHLD	92	0	6	48
NMTAP	92	48	1
NMTAP	92	72	0
NMHLD	92	96	2	48
NMTAP	92	144	4
NMTAP	92	168	3
NMTAP	92	192	5
NMSTR	92	240	6
NMSI_	92	240	6	96	48	3
NMSTR	92	288	1
NMSV_	92	288	1	96	48	4
NMTAP	92	336	6
NMTAP	93	0	1
NMSTR	93	48	7
NMSI_	93	48	7	96	48	3
NMSTR	93	96	0
NMSV_	93	96	0	96	48	5
NMTAP	93	144	7
EXTAP	93	192	0
BRTAP	93	288	0
BRTAP	93	288	6
NMTAP	94	0	1
NMTAP	94	0	7
NMTAP	94	48	7
NMSTR	94	96	5
NMSI_	94	96	5	96	48	1
NMTAP	94	96	7
NMTAP	94	144	7
NMTAP	94	192	5
NMTAP	94	192	7
CNSI_	94	240	1	0	48	3
NMTAP	94	240	7
NMTAP	94	288	7
NMSTR	94	336	6
NMSI_	94	336	6	96	48	4
NMSTR	95	0	3
NMSI_	95	0	3	96	48	7
NMSTR	95	48	6
NMSI_	95	48	6	96	48	2
NMTAP	95	96	3
NMTAP	95	144	6
BRTAP	95	192	0
NMTAP	95	288	1
NMTAP	95	288	7
NMTAP	95	336	2
NMTAP	95	360	3
NMHLD	96	0	1	48
NMTAP	96	48	6
NMTAP	96	72	7
NMHLD	96	96	5	48
NMTAP	96	144	3
NMTAP	96	168	4
NMTAP	96	192	2
NMSTR	96	240	0
NMSI_	96	240	0	96	48	4
NMSTR	96	288	6
NMSI_	96	288	6	96	48	2
NMTAP	96	336	0
NMTAP	97	0	6
NMSTR	97	48	1
NMSI_	97	48	1	96	48	5
NMSTR	97	96	6
NMSLL	97	96	6	96	72	2
NMTAP	97	144	1
NMTAP	97	192	6
NMSTR	97	288	0
BRSI_	97	288	0	96	48	6
NMSTR	97	336	1
BRSI_	97	336	1	96	48	3
NMSTR	98	0	0
BRSI_	98	0	0	96	48	4
NMSTR	98	48	1
BRSI_	98	48	1	96	48	5
NMTAP	98	96	0
NMTAP	98	144	1
BRTAP	98	192	0
NMTAP	98	288	1
NMTAP	98	288	6
NMSTR	98	336	0
NMSI_	98	336	0	96	48	4
NMSTR	99	0	7
NMSI_	99	0	7	96	48	3
NMTAP	99	48	0
NMTAP	99	96	7
NMSTR	99	144	1
NMSI_	99	144	1	96	48	5
NMSTR	99	192	6
BRSI_	99	192	6	96	48	3
NMTAP	99	240	1
NMTAP	99	288	6
NMSTR	99	336	0
NMSI_	99	336	0	96	48	2
BRSTR	100	0	6
BRSI_	100	0	6	96	48	4
BRSTR	100	48	0
NMSI_	100	48	0	96	48	4
BRSTR	100	96	6
BRSI_	100	96	6	96	48	2
BRSTR	100	144	0
NMSCR	100	144	0	96	48	3
BRSTR	100	192	6
BRSCL	100	192	6	96	48	3
BRSTR	100	240	0
NMSI_	100	240	0	96	48	5
BRTAP	100	288	6
BRTAP	100	336	0
BXSTR	101	0	7
BRSF_	101	0	7	96	48	3
EXTAP	101	96	7
BRTAP	101	192	1
BRTAP	101	192	5
EXTAP	102	0	2
EXTAP	102	0	4
NMTAP	102	96	3
NMHLD	102	96	5	96
NMTAP	102	192	4
NMHLD	102	240	3	96
NMTAP	102	336	4
NMHLD	103	48	4	0
NMTAP	103	72	3
NMTAP	103	96	5
NMHLD	103	144	4	0
NMTAP	103	168	3
NMSTR	103	192	5
BRSI_	103	192	5	96	48	0
NMHLD	103	240	4	0
NMTAP	103	264	3
NMTAP	103	288	5
NMSTR	104	0	1
NMSI_	104	0	1	96	48	3
NMSV_	104	0	1	96	48	4
NMTAP	104	96	1
NMTAP	104	192	6
NMHLD	104	240	6	96
NMHLD	104	336	3	96
NMHLD	105	48	5	0
NMTAP	105	72	4
NMTAP	105	96	6
NMHLD	105	144	5	0
NMTAP	105	168	4
NMSTR	105	192	6
BRSI_	105	192	6	96	48	2
NMHLD	105	240	5	0
NMTAP	105	264	4
NMTAP	105	288	6
EXTAP	105	336	1
NMHLD	106	0	1	96
NMHLD	106	96	3	96
NMTAP	106	192	2
NMHLD	106	240	4	96
NMTAP	106	336	3
NMHLD	107	48	3	0
NMTAP	107	72	4
NMTAP	107	96	2
NMHLD	107	144	3	0
NMTAP	107	168	5
NMSTR	107	192	1
BRSI_	107	192	1	96	48	7
NMHLD	107	240	3	0
NMTAP	107	264	5
NMTAP	107	288	1
NMSTR	108	0	6
NMSCL	108	0	6	96	48	4
NMSV_	108	0	6	96	48	3
NMHLD	108	96	6	0
NMTAP	108	192	1
NMHLD	108	240	1	96
NMTAP	108	336	3
NMHLD	109	48	5	0
NMTAP	109	72	4
BXHLD	109	96	7	0
NMHLD	109	144	2	0
NMTAP	109	168	3
BXHLD	109	192	0	0
NMTAP	109	240	7
NMTAP	109	264	0
BRTAP	109	288	1
BRSTR	109	288	6
NMSCL	109	288	6	96	48	3
EXHLD	110	0	2	144
EXTAP	110	0	6
NMTAP	110	144	4
NMTAP	110	168	3
NMTAP	110	192	4
NMTAP	110	216	2
NMTAP	110	240	5
NMTAP	110	264	1
NMSTR	110	288	7
NMSCR	110	288	7	96	12	0
BRSV_	110	288	7	96	48	4
NMTAP	110	336	0
NMTAP	110	336	6
BRTAP	111	0	7
CNSI_	111	12	0	0	12	2
CNSCR	111	24	2	0	24	3

T_REC_TAP	568
T_REC_BRK	37
T_REC_XTP	25
T_REC_BXX	9
T_REC_HLD	69
T_REC_XHO	1
T_REC_BHO	2
T_REC_BXH	4
T_REC_STR	108
T_REC_BST	8
T_REC_XST	4
T_REC_XBS	1
T_REC_TTP	23
T_REC_THO	1
T_REC_SLD	101
T_REC_BSL	28
T_REC_ALL	989
T_NUM_TAP	728
T_NUM_BRK	89
T_NUM_HLD	71
T_NUM_SLD	101
T_NUM_ALL	989
T_JUDGE_TAP	783
T_JUDGE_HLD	146
T_JUDGE_SLD	129
T_JUDGE_ALL	1058
TTM_EACHPAIRS	127
TTM_SCR_TAP	364000
TTM_SCR_BRK	231400
TTM_SCR_HLD	71000
TTM_SCR_SLD	151500
TTM_SCR_ALL	817900
TTM_SCR_S	784750
TTM_SCR_SS	809000
TTM_RAT_ACV	10110

