VERSION	0.00.00	1.04.00
FES_MODE	0
BPM_DEF	186.000	186.000	186.000	186.000
MET_DEF	4	4
RESOLUTION	384
CLK_DEF	384
COMPATIBLE_CODE	MA2

BPM	0	0	186.000
MET	0	0	4	4

NMTAP	2	0	1
NMTAP	2	0	3
NMTAP	2	96	4
NMTAP	2	96	5
NMTAP	2	192	2
NMTAP	2	192	3
NMTAP	2	288	4
NMTAP	2	288	6
NMTAP	3	0	0
NMTAP	3	0	1
NMTAP	3	96	6
NMTAP	3	96	7
NMTAP	3	192	3
NMTAP	3	192	5
BRTAP	3	288	2
BRTAP	3	288	6
NMHLD	4	0	1	96
NMTAP	4	96	3
NMTAP	4	192	5
NMHLD	4	240	5	96
NMTAP	4	336	3
NMTAP	5	48	2
NMHLD	5	96	2	96
NMHLD	5	192	0	96
NMHLD	5	288	7	96
NMHLD	6	0	5	96
NMTAP	6	96	4
NMTAP	6	192	1
NMHLD	6	240	1	96
NMTAP	6	336	0
NMTAP	7	48	2
NMTAP	7	48	3
NMTAP	7	96	2
NMTAP	7	96	3
NMTAP	7	192	3
NMTAP	7	192	4
NMTAP	7	288	2
NMTAP	7	288	5
NMHLD	8	0	6	96
NMTAP	8	96	4
NMTAP	8	192	2
NMHLD	8	240	2	96
NMTAP	8	336	4
NMTAP	9	48	5
NMHLD	9	96	5	96
NMHLD	9	192	7	96
NMHLD	9	288	0	96
NMHLD	10	0	2	96
NMTAP	10	96	3
NMTAP	10	192	6
NMHLD	10	240	6	96
NMTAP	10	336	7
NMTAP	11	48	4
NMTAP	11	48	5
NMTAP	11	96	4
NMTAP	11	96	5
NMTAP	11	192	3
NMTAP	11	192	4
NMTAP	11	288	2
NMTAP	11	288	5
NMTAP	12	0	4
NMTAP	12	0	6
NMTAP	12	96	3
NMTAP	12	96	4
NMTAP	12	192	1
NMTAP	12	192	3
NMSTR	12	288	3
NMSXL	12	288	3	96	192	0
NMTAP	12	288	4
NMTAP	13	0	4
EXTAP	13	192	7
EXTAP	13	288	0
EXTAP	13	288	7
NMTAP	14	0	4
NMTAP	14	0	6
NMTAP	14	96	4
NMTAP	14	96	6
NMTAP	14	192	4
NMTAP	14	192	6
NMTAP	14	288	5
NMTAP	14	288	6
NMTAP	15	0	0
NMTAP	15	0	7
NMSTR	15	96	1
NMSV_	15	96	1	96	48	4
NMSTR	15	96	6
NMSI_	15	96	6	96	48	1
NMHLD	16	0	3	96
NMHLD	16	0	5	96
NMHLD	16	192	2	96
NMHLD	16	192	4	96
NMTAP	17	0	3
NMTAP	17	0	5
NMTAP	17	96	1
NMTAP	17	96	4
NMTAP	17	192	3
NMTAP	17	192	6
NMSTR	17	288	2
NMSI_	17	288	2	96	48	5
NMHLD	17	288	4	288
EXTAP	18	192	7
NMTAP	18	336	2
NMTAP	18	336	5
NMTAP	19	48	1
NMTAP	19	48	6
NMSTR	19	96	1
NMSV_	19	96	1	96	48	4
NMSTR	19	96	6
NMSI_	19	96	6	96	48	1
NMSTR	20	0	6
NMSI_	20	0	6	96	48	4
NMTAP	20	0	7
NMTAP	20	192	0
NMSTR	20	192	1
NMSI_	20	192	1	96	48	3
NMSTR	21	0	6
NMSXR	21	0	6	96	192	3
NMTAP	21	0	7
NMTAP	21	96	7
BXTAP	21	288	0
NMTAP	22	0	1
NMTAP	22	0	3
NMTAP	22	96	1
NMTAP	22	96	3
NMTAP	22	192	1
NMTAP	22	192	3
NMTAP	22	288	1
NMTAP	22	288	2
NMTAP	23	0	0
NMTAP	23	0	7
NMSTR	23	96	1
NMSV_	23	96	1	96	48	4
NMSTR	23	96	6
NMSI_	23	96	6	96	48	1
NMTAP	24	0	6
NMSTR	24	0	7
NMSI_	24	0	7	96	48	4
NMSTR	24	192	0
NMSI_	24	192	0	96	48	3
NMTAP	24	192	1
NMHLD	25	0	2	96
NMHLD	25	0	4	96
NMTAP	25	192	3
NMTAP	25	192	5
BRTAP	25	288	2
BRTAP	25	288	6
NMHLD	26	0	1	96
NMHLD	26	96	3	96
NMHLD	26	192	4	96
NMTAP	26	288	6
NMHLD	27	0	1	96
NMSTR	27	0	7
NMSI_	27	0	7	96	48	3
BXTAP	27	192	0
BXTAP	27	192	1
BRTAP	27	288	2
BRTAP	27	288	7
NMHLD	28	0	6	576
NMTTP	28	192	4	E	0	M1
NMTTP	28	288	5	E	0	M1
NMTTP	29	0	6	E	0	M1
NMTTP	29	96	7	E	0	M1
NMTTP	29	192	0	E	0	M1
NMTAP	29	288	2
NMTAP	29	288	4
NMHLD	30	0	1	576
NMTTP	30	192	4	E	0	M1
NMTTP	30	288	3	E	0	M1
NMTTP	31	0	2	E	0	M1
NMTTP	31	96	1	E	0	M1
NMTTP	31	192	0	E	0	M1
NMTAP	31	288	3
NMTAP	31	288	5
NMHLD	32	0	6	576
NMTTP	32	192	4	E	0	M1
NMTTP	32	192	4	A	0	M1
NMTTP	32	288	5	B	0	M1
NMTTP	33	0	7	A	0	M1
NMTTP	33	96	1	D	0	M1
NMTTP	33	192	2	B	0	M1
NMTTP	33	192	3	B	0	M1
NMSTR	33	288	4
NMSCR	33	288	4	96	96	7
NMSTR	34	96	0
NMSCR	34	96	0	96	96	3
NMTAP	34	288	7
NMHLD	35	0	3	48
NMHLD	35	0	6	48
NMHLD	35	96	2	48
NMHLD	35	96	5	48
NMHLD	35	192	1	48
NMHLD	35	192	4	48
NMTAP	35	288	0
NMTAP	35	288	3
NMHLD	36	0	1	48
NMHLD	36	0	4	48
NMHLD	36	96	2	48
NMHLD	36	96	5	48
NMHLD	36	192	3	48
NMHLD	36	192	6	48
BRTAP	36	288	7
NMSTR	37	0	0
NMSI_	37	0	0	96	48	4
NMSTR	37	0	1
NMSI_	37	0	1	96	48	3
EXTAP	37	96	0
EXTAP	37	96	1
NMSTR	37	192	6
NMSI_	37	192	6	96	48	4
NMSTR	37	192	7
NMSI_	37	192	7	96	48	3
EXTAP	37	288	6
EXTAP	37	288	7
NMTAP	38	0	0
NMTAP	38	0	1
NMSTR	38	96	1
BRSV_	38	96	1	96	48	4
NMSTR	38	96	7
BRSI_	38	96	7	96	48	1
EXTAP	38	192	1
EXTAP	38	192	7
NMTAP	38	336	6
NMHLD	39	0	6	96
NMHLD	39	96	4	96
NMHLD	39	192	2	96
NMSTR	39	288	0
NMSCL	39	288	0	96	96	4
NMSTR	40	0	4
NMSCL	40	0	4	96	96	0
NMTAP	40	96	0
BXTAP	40	288	2
BXTAP	40	288	6
NMSTR	41	0	6
NMSI_	41	0	6	96	48	4
NMSTR	41	0	7
NMSI_	41	0	7	96	48	3
EXTAP	41	96	6
EXTAP	41	96	7
NMSTR	41	192	0
NMSI_	41	192	0	96	48	4
NMSTR	41	192	1
NMSI_	41	192	1	96	48	3
EXTAP	41	288	0
EXTAP	41	288	1
NMSTR	42	0	6
BRSI_	42	0	6	96	48	0
NMSTR	42	96	1
BRSI_	42	96	1	96	48	3
BRSI_	42	96	1	96	48	5
NMTAP	42	336	6
NMHLD	43	0	6	96
NMHLD	43	96	4	96
NMHLD	43	192	2	96
NMTAP	43	288	0
NMHLD	44	0	0	48
NMHLD	44	0	6	48
NMHLD	44	96	2	48
NMHLD	44	96	4	48
NMTAP	44	192	1
NMTAP	44	192	5
NMSTR	44	288	2
NMSI_	44	288	2	96	48	7
NMSTR	44	288	6
NMSI_	44	288	6	96	48	3
NMSTR	45	96	1
NMSI_	45	96	1	96	48	4
NMSTR	45	96	5
NMSI_	45	96	5	96	48	0
NMSTR	45	288	2
NMSI_	45	288	2	96	48	7
NMSTR	45	288	6
NMSI_	45	288	6	96	48	3
NMSTR	46	96	1
NMSI_	46	96	1	96	48	4
NMSTR	46	96	5
NMSI_	46	96	5	96	48	0
NMTAP	46	288	2
NMTAP	46	288	6
NMSTR	47	0	1
NMSI_	47	0	1	96	48	3
NMSTR	47	96	7
NMSI_	47	96	7	96	48	5
NMSTR	47	192	0
NMSI_	47	192	0	96	48	4
NMTAP	47	288	5
NMTAP	48	0	6
NMSTR	48	96	0
NMSI_	48	96	0	96	48	4
NMSTR	48	96	7
NMSI_	48	96	7	96	48	3
EXTAP	48	192	0
EXTAP	48	192	7
NMSTR	48	288	1
NMSI_	48	288	1	96	48	4
NMSTR	48	288	5
NMSI_	48	288	5	96	48	0
NMSTR	49	96	2
NMSI_	49	96	2	96	48	7
NMSTR	49	96	6
NMSI_	49	96	6	96	48	3
NMSTR	49	288	1
NMSI_	49	288	1	96	48	4
NMSTR	49	288	5
NMSI_	49	288	5	96	48	0
NMSTR	50	96	2
NMSI_	50	96	2	96	48	7
NMSTR	50	96	6
NMSI_	50	96	6	96	48	3
NMTAP	50	288	1
NMTAP	50	288	5
NMSTR	51	0	2
NMSI_	51	0	2	96	48	5
NMSTR	51	96	6
NMSI_	51	96	6	96	48	1
NMTAP	51	192	2
NMTAP	51	288	3
NMHLD	52	0	2	48
NMHLD	52	0	4	48
NMHLD	52	96	1	48
NMHLD	52	96	5	48
NMHLD	52	192	2	48
NMHLD	52	192	4	48
NMTAP	52	288	2
NMTAP	52	288	4
NMHLD	53	0	1	48
NMHLD	53	0	5	48
NMSTR	53	96	0
NMSI_	53	96	0	96	48	4
NMSTR	53	96	6
NMSI_	53	96	6	96	48	2
EXTAP	53	192	0
EXTAP	53	192	6
BXTAP	53	288	1
BXTAP	53	288	5
NMHLD	54	0	6	96
NMTAP	54	96	4
NMTAP	54	192	2
NMHLD	54	240	2	96
NMTAP	54	336	4
NMTAP	55	48	5
NMHLD	55	96	5	96
NMHLD	55	192	7	96
NMHLD	55	288	0	96
NMHLD	56	0	2	96
NMTAP	56	96	3
NMTAP	56	192	6
NMHLD	56	240	6	96
NMTAP	56	336	7
NMTAP	57	48	4
NMTAP	57	48	5
NMTAP	57	96	4
NMTAP	57	96	5
NMTAP	57	192	0
NMTAP	57	192	7
NMTAP	57	288	2
NMTAP	57	288	5
NMHLD	58	0	1	96
NMTAP	58	96	3
NMTAP	58	192	5
NMHLD	58	240	5	96
NMTAP	58	336	3
NMTAP	59	48	2
NMHLD	59	96	2	96
NMHLD	59	192	0	96
NMHLD	59	288	7	96
NMHLD	60	0	5	96
NMTAP	60	96	4
NMTAP	60	192	1
NMHLD	60	240	1	96
NMTAP	60	336	0
NMTAP	61	48	2
NMTAP	61	48	3
NMTAP	61	96	2
NMTAP	61	96	3
NMTAP	61	192	0
NMTAP	61	192	7
NMHLD	61	288	2	96
NMTAP	61	288	5
NMTAP	62	0	4
NMSTR	62	96	1
NMSCR	62	96	1	96	48	4
NMSTR	62	96	5
NMSCR	62	96	5	96	48	0
BRSTR	63	0	3
BRSI_	63	0	3	96	48	1
BRSTR	63	0	4
BRSI_	63	0	4	96	48	6
BRTAP	63	192	0
BRTAP	63	192	7
BRTAP	63	240	0
BRTAP	63	240	7
NMHLD	63	336	5	96
NMTAP	64	48	4
NMSTR	64	96	4
NMSXL	64	96	4	96	192	1
NMHLD	65	0	7	96
NMTAP	65	96	1
NMTAP	65	192	2
NMTAP	65	192	6
NMSTR	65	288	0
NMSCR	65	288	0	96	96	4
NMSTR	66	0	4
NMSCR	66	0	4	96	96	0
NMSTR	66	96	0
NMSCR	66	96	0	96	96	4
NMTAP	66	192	4
NMTAP	66	288	0
BRSTR	67	0	3
BRSI_	67	0	3	96	48	1
BRSTR	67	0	4
BRSI_	67	0	4	96	48	6
BRTAP	67	192	0
BRTAP	67	192	7
BRTAP	67	240	0
BRTAP	67	240	7
NMHLD	67	336	2	96
NMTAP	68	48	3
NMSTR	68	96	3
NMSXR	68	96	3	96	192	6
NMHLD	69	0	0	96
NMTAP	69	96	6
NMTAP	69	192	1
NMTAP	69	192	5
NMSTR	69	288	7
NMSCL	69	288	7	96	96	3
NMSTR	70	0	3
NMSCL	70	0	3	96	96	7
NMTAP	70	96	7
NMTAP	70	192	3
NMSTR	70	288	7
NMSSR	70	288	7	96	192	3
EXHLD	71	336	2	192
EXHLD	71	336	5	192
NMTTP	72	192	3	E	0	M1
NMTTP	72	192	3	A	0	M1
NMTTP	72	192	4	E	0	M1
NMTTP	72	192	4	A	0	M1
NMTTP	72	192	5	E	0	M1
EXTAP	72	288	6
NMHLD	73	0	3	144
NMHLD	73	0	5	144
NMHLD	73	192	2	144
NMHLD	73	192	4	144
NMTAP	74	0	3
NMTAP	74	0	5
NMTAP	74	96	4
NMTAP	74	96	6
NMTAP	74	192	5
NMHLD	74	192	7	480
NMTTP	75	0	5	A	0	M1
NMTTP	75	0	6	A	0	M1
NMTTP	75	0	6	D	0	M1
NMTTP	75	192	1	A	0	M1
NMTTP	75	192	2	A	0	M1
NMTTP	75	192	2	D	0	M1
NMSTR	76	0	2
NMSCL	76	0	2	96	48	7
NMSTR	76	0	6
NMSCL	76	0	6	96	48	3
BRTAP	76	240	0
BRTAP	76	240	4
BRTAP	76	288	0
BRTAP	76	288	4
NMHLD	77	0	5	384
NMTAP	77	96	4
NMTAP	77	192	4
NMTAP	77	288	4
NMHLD	78	0	2	288
NMTAP	78	96	3
NMTAP	78	192	3
NMTAP	78	288	3
NMTAP	79	0	1
NMTAP	79	0	4
NMTAP	79	48	1
NMTAP	79	48	4
NMTAP	79	192	3
NMTAP	79	192	6
NMTAP	79	240	3
NMTAP	79	240	6
NMTAP	79	336	6
NMTAP	79	336	7
NMTAP	80	0	6
NMTAP	80	0	7
NMTAP	80	96	0
NMTAP	80	96	7
NMTAP	80	192	0
NMTAP	80	192	1
NMTAP	80	336	3
NMTAP	80	336	5
NMTAP	81	0	3
NMTAP	81	0	5
NMTAP	81	96	5
NMTAP	81	96	7
NMSTR	81	192	1
BRSI_	81	192	1	96	48	5
NMSTR	81	192	7
BRSI_	81	192	7	96	48	3
NMSTR	82	0	6
NMSI_	82	0	6	96	48	3
NMSTR	82	0	7
NMSI_	82	0	7	96	48	2
EXTAP	82	96	6
EXTAP	82	96	7
NMSTR	82	192	0
NMSI_	82	192	0	96	48	5
NMSTR	82	192	1
NMSI_	82	192	1	96	48	4
EXTAP	82	288	0
EXTAP	82	288	1
NMTAP	83	0	6
NMTAP	83	0	7
NMSTR	83	96	1
BRSV_	83	96	1	96	48	4
NMSTR	83	96	7
BRSI_	83	96	7	96	48	1
BRTAP	83	192	1
BRTAP	83	192	7
NMTAP	83	336	6
NMHLD	84	0	6	96
NMHLD	84	96	4	96
NMHLD	84	192	2	96
NMSTR	84	288	0
NMSCL	84	288	0	96	96	4
NMSTR	85	0	4
NMSCL	85	0	4	96	96	0
NMTAP	85	96	0
BXTAP	85	288	2
BXTAP	85	288	6
NMSTR	86	0	6
NMSI_	86	0	6	96	48	3
NMSTR	86	0	7
NMSI_	86	0	7	96	48	2
EXTAP	86	96	6
EXTAP	86	96	7
NMSTR	86	192	0
NMSI_	86	192	0	96	48	5
NMSTR	86	192	1
NMSI_	86	192	1	96	48	4
EXTAP	86	288	0
EXTAP	86	288	1
NMSTR	87	0	6
BRSI_	87	0	6	96	48	0
NMSTR	87	96	1
BRSI_	87	96	1	96	48	3
BRSI_	87	96	1	96	48	5
NMTAP	87	336	6
NMHLD	88	0	6	96
NMHLD	88	96	4	96
NMHLD	88	192	2	96
NMTAP	88	288	0
NMHLD	89	0	1	48
NMHLD	89	0	4	48
NMHLD	89	96	2	48
NMHLD	89	96	5	48
NMTAP	89	192	3
NMTAP	89	192	6
NMSTR	89	288	1
NMSI_	89	288	1	96	48	4
NMSTR	89	288	5
NMSI_	89	288	5	96	48	0
NMSTR	90	96	2
NMSV_	90	96	2	96	48	7
NMSTR	90	96	6
NMSI_	90	96	6	96	48	3
NMSTR	90	288	1
NMSI_	90	288	1	96	48	4
NMSTR	90	288	5
NMSI_	90	288	5	96	48	0
NMSTR	91	96	2
NMSI_	91	96	2	96	48	7
NMSTR	91	96	6
NMSV_	91	96	6	96	48	3
NMTAP	91	288	1
NMTAP	91	288	5
NMSTR	92	0	6
NMSI_	92	0	6	96	48	4
NMSTR	92	96	0
NMSI_	92	96	0	96	48	2
NMSTR	92	192	7
NMSI_	92	192	7	96	48	3
NMTAP	92	288	2
NMTAP	93	0	1
NMSTR	93	96	0
NMSI_	93	96	0	96	48	4
NMSTR	93	96	7
NMSI_	93	96	7	96	48	3
EXTAP	93	192	0
EXTAP	93	192	7
NMSTR	93	288	2
NMSI_	93	288	2	96	48	7
NMSTR	93	288	6
NMSV_	93	288	6	96	48	3
NMSTR	94	96	1
NMSI_	94	96	1	96	48	4
NMSTR	94	96	5
NMSV_	94	96	5	96	48	0
NMSTR	94	288	2
NMSV_	94	288	2	96	48	7
NMSTR	94	288	6
NMSI_	94	288	6	96	48	3
NMSTR	95	96	1
NMSV_	95	96	1	96	48	4
NMSTR	95	96	5
NMSI_	95	96	5	96	48	0
NMTAP	95	288	2
NMTAP	95	288	6
NMSTR	96	0	5
NMSI_	96	0	5	96	48	2
NMSTR	96	96	1
NMSI_	96	96	1	96	48	6
NMTAP	96	192	5
NMTAP	96	288	4
NMHLD	97	0	3	48
NMHLD	97	0	5	48
NMHLD	97	96	2	48
NMHLD	97	96	6	48
NMHLD	97	192	3	48
NMHLD	97	192	5	48
NMTAP	97	288	3
NMTAP	97	288	5
NMHLD	98	0	2	48
NMHLD	98	0	4	48
NMHLD	98	96	1	48
NMHLD	98	96	5	48
NMHLD	98	192	2	48
NMHLD	98	192	4	48
NMTAP	98	288	2
NMTAP	98	288	4
NMHLD	99	0	3	48
NMHLD	99	0	5	48
NMHLD	99	96	2	48
NMHLD	99	96	6	48
NMHLD	99	192	2	48
NMHLD	99	192	4	48
NMHLD	99	288	1	48
NMHLD	99	288	5	48
NMHLD	100	0	1	48
NMHLD	100	0	7	48
NMHLD	100	96	2	48
NMHLD	100	96	6	48
NMHLD	100	192	0	48
NMHLD	100	192	6	48
NMHLD	100	288	1	48
NMHLD	100	288	5	48
BRSTR	101	0	0
NMSI_	101	0	0	96	48	4
BRSTR	101	0	6
NMSI_	101	0	6	96	48	2
BXTAP	101	96	0
BXTAP	101	96	6
NMTAP	101	192	1
NMTAP	101	192	5
NMHLD	102	0	6	96
NMTAP	102	96	4
NMTAP	102	192	2
NMHLD	102	240	2	96
NMTAP	102	336	4
NMTAP	103	48	3
NMTAP	103	48	5
NMTAP	103	96	3
NMTAP	103	96	5
NMSTR	103	192	6
NMSI_	103	192	6	96	48	2
NMSTR	103	288	0
NMSI_	103	288	0	96	48	4
NMHLD	104	0	5	96
NMTAP	104	96	3
NMTAP	104	192	6
NMHLD	104	240	6	96
NMTAP	104	336	7
NMTAP	105	48	4
NMTAP	105	48	5
NMTAP	105	96	4
NMTAP	105	96	5
NMSTR	105	192	0
NMSI_	105	192	0	96	48	4
NMSTR	105	192	7
NMSI_	105	192	7	96	48	3
NMHLD	106	0	1	96
NMTAP	106	96	3
NMTAP	106	192	5
NMHLD	106	240	5	96
NMTAP	106	336	3
NMTAP	107	48	2
NMTAP	107	48	4
NMTAP	107	96	2
NMTAP	107	96	4
NMSTR	107	192	1
NMSI_	107	192	1	96	48	5
NMSTR	107	288	7
NMSI_	107	288	7	96	48	3
NMHLD	108	0	2	96
NMTAP	108	96	4
NMTAP	108	192	1
NMHLD	108	240	1	96
NMTAP	108	336	0
NMTAP	109	48	2
NMTAP	109	48	3
NMTAP	109	96	2
NMTAP	109	96	3
NMSTR	109	192	0
NMSI_	109	192	0	96	48	4
NMSTR	109	192	7
NMSI_	109	192	7	96	48	3
NMHLD	110	0	2	96
NMHLD	110	0	5	96
NMTAP	110	192	0
NMTAP	110	216	7
NMTAP	110	240	0
NMTAP	110	264	7
NMSTR	110	288	1
NMSI_	110	288	1	96	48	5
BXTAP	111	0	1

T_REC_TAP	245
T_REC_BRK	21
T_REC_XTP	29
T_REC_BXX	12
T_REC_HLD	132
T_REC_XHO	2
T_REC_BHO	0
T_REC_BXH	0
T_REC_STR	115
T_REC_BST	6
T_REC_XST	0
T_REC_XBS	0
T_REC_TTP	28
T_REC_THO	0
T_REC_SLD	107
T_REC_BSL	16
T_REC_ALL	713
T_NUM_TAP	417
T_NUM_BRK	55
T_NUM_HLD	134
T_NUM_SLD	107
T_NUM_ALL	713
T_JUDGE_TAP	456
T_JUDGE_HLD	272
T_JUDGE_SLD	123
T_JUDGE_ALL	851
TTM_EACHPAIRS	192
TTM_SCR_TAP	208500
TTM_SCR_BRK	143000
TTM_SCR_HLD	134000
TTM_SCR_SLD	160500
TTM_SCR_ALL	646000
TTM_SCR_S	621300
TTM_SCR_SS	640500
TTM_RAT_ACV	10085

