VERSION	0.00.00	1.04.00
FES_MODE	0
BPM_DEF	186.000	186.000	186.000	186.000
MET_DEF	4	4
RESOLUTION	384
CLK_DEF	384
COMPATIBLE_CODE	MA2

BPM	0	0	186.000
MET	0	0	4	4

EXTAP	2	0	6
EXTAP	2	0	7
EXTAP	2	96	6
EXTAP	2	96	7
EXTAP	2	192	4
EXTAP	2	192	5
EXTAP	2	288	4
EXTAP	2	288	5
EXTAP	3	0	2
EXTAP	3	0	3
EXTAP	3	96	0
EXTAP	3	96	1
BXTAP	3	192	2
BXTAP	3	192	7
NMHLD	4	0	1	96
NMTAP	4	96	3
NMTAP	4	192	2
NMTAP	4	240	2
NMHLD	4	336	4	96
NMTAP	5	48	3
NMTAP	5	96	3
NMTAP	5	192	4
NMTAP	5	288	5
NMHLD	6	0	6	96
NMTAP	6	96	4
NMTAP	6	192	5
NMTAP	6	240	5
NMHLD	6	336	0	96
NMTAP	7	48	7
NMTAP	7	96	7
NMTAP	7	192	0
NMTAP	7	288	7
NMHLD	8	0	6	96
NMTAP	8	96	4
NMTAP	8	192	5
NMTAP	8	240	5
NMHLD	8	336	3	96
NMTAP	9	48	4
NMTAP	9	96	4
NMTAP	9	192	3
NMTAP	9	288	2
NMHLD	10	0	1	96
NMTAP	10	96	3
NMTAP	10	192	2
NMTAP	10	240	2
NMHLD	10	336	7	96
NMTAP	11	48	0
NMTAP	11	96	0
NMTAP	11	192	0
NMTAP	11	192	7
BRTAP	11	288	1
BRTAP	11	288	6
NMTAP	12	0	2
NMTAP	12	96	2
NMTAP	12	192	2
NMSTR	12	288	2
NMSCR	12	288	2	96	192	5
EXTAP	13	288	5
EXTAP	13	288	6
NMTTP	14	0	7	E	0	M1
NMTTP	14	96	0	C	0	M1
NMTTP	14	192	3	E	0	M1
NMTTP	14	288	2	E	0	M1
NMTTP	14	288	4	E	0	M1
NMTTP	15	0	1	E	0	M1
NMTTP	15	96	0	C	0	M1
NMTTP	15	192	5	E	0	M1
NMTAP	16	0	6
NMTAP	16	96	6
NMTAP	16	192	6
NMSTR	16	288	6
NMSSR	16	288	6	96	192	2
EXTAP	17	288	1
EXTAP	17	288	2
NMTHO	18	0	0	192	C	0	M1
EXHLD	18	336	0	144
EXHLD	18	336	6	144
BXTAP	19	192	1
BXTAP	19	192	7
NMHLD	20	0	6	96
NMTAP	20	96	4
NMHLD	20	192	1	96
NMTAP	20	288	3
NMHLD	21	0	6	96
NMTAP	21	96	4
NMTAP	21	192	2
NMTAP	21	192	3
BRTAP	21	288	1
BRTAP	21	288	4
NMTAP	22	0	0
NMTAP	22	0	6
NMTAP	22	96	0
NMTAP	22	96	6
NMTAP	22	192	1
NMTAP	22	240	1
NMTAP	22	336	0
NMTAP	22	336	2
NMTAP	23	48	1
NMTAP	23	48	7
NMTAP	23	96	1
NMTAP	23	96	7
NMTAP	23	192	0
NMTAP	23	192	6
NMHLD	24	0	1	96
NMTAP	24	96	3
NMHLD	24	192	6	96
NMTAP	24	288	4
NMHLD	25	0	1	96
NMTAP	25	96	3
NMTAP	25	192	4
NMTAP	25	192	5
BRTAP	25	288	3
BRTAP	25	288	6
NMTAP	26	0	1
NMTAP	26	0	7
NMTAP	26	96	1
NMTAP	26	96	7
NMTAP	26	192	6
NMTAP	26	240	6
NMTAP	26	336	5
NMTAP	26	336	7
NMTAP	27	48	0
NMTAP	27	48	6
NMTAP	27	96	0
NMTAP	27	96	6
NMTAP	27	192	1
NMTAP	27	192	7
BXTAP	27	288	2
BXTAP	27	288	3
NMHLD	28	0	4	672
NMTAP	28	96	3
NMTAP	28	288	2
NMTAP	29	48	3
NMTAP	29	144	2
NMTAP	29	192	2
NMHLD	29	288	1	768
NMTAP	30	0	4
NMTAP	30	96	3
NMTAP	30	288	2
NMTAP	31	48	3
NMTAP	31	144	4
NMTAP	31	192	4
NMHLD	31	288	5	672
NMTAP	32	0	0
NMTAP	32	96	7
NMTAP	32	288	6
NMTAP	33	48	7
NMTAP	33	144	0
NMTAP	33	192	0
NMTAP	33	288	1
NMTAP	33	288	4
NMHLD	34	0	2	96
NMHLD	34	96	3	96
NMHLD	34	192	4	96
NMTAP	34	288	5
NMTAP	35	0	3
NMTAP	35	0	6
NMSTR	35	96	1
NMSI_	35	96	1	96	48	5
NMSTR	35	96	7
NMSI_	35	96	7	96	48	3
BXTAP	36	0	2
BXTAP	36	0	4
BXSTR	36	96	0
BRSI_	36	96	0	96	48	4
BXSTR	36	96	6
BRSI_	36	96	6	96	48	2
EXTAP	37	0	1
EXTAP	37	0	3
NMTAP	37	96	0
NMTAP	37	96	7
NMTAP	37	192	4
NMTAP	37	192	6
NMTAP	37	288	0
NMTAP	37	288	7
EXTAP	38	0	2
EXTAP	38	0	3
EXTAP	38	48	2
EXTAP	38	48	3
EXSTR	38	96	2
NMSCL	38	96	2	96	96	7
EXSTR	38	96	3
NMSUL	38	96	3	96	96	6
NMHLD	39	0	5	96
NMTAP	39	96	7
NMHLD	39	192	2	96
NMSTR	39	288	0
NMSXR	39	288	0	96	240	5
EXTAP	40	288	4
EXTAP	40	288	5
NMTAP	41	0	4
NMTAP	41	0	6
NMTAP	41	96	0
NMTAP	41	96	7
NMTAP	41	192	1
NMTAP	41	192	3
NMTAP	41	288	0
NMTAP	41	288	7
EXTAP	42	0	4
EXTAP	42	0	5
EXTAP	42	48	4
EXTAP	42	48	5
EXSTR	42	96	4
NMSUR	42	96	4	96	96	1
EXSTR	42	96	5
NMSCR	42	96	5	96	96	0
NMTAP	43	0	2
NMTAP	43	0	7
NMTAP	43	96	1
NMTAP	43	96	6
NMHLD	43	192	0	96
NMHLD	43	192	5	96
BRTAP	44	0	2
BRTAP	44	0	3
BRSTR	44	96	3
BRSI_	44	96	3	96	48	7
BRSTR	44	96	5
BRSI_	44	96	5	96	48	1
EXTAP	45	0	0
EXTAP	45	0	6
NMTAP	45	96	0
NMTAP	45	96	6
NMTAP	45	192	1
NMTAP	45	192	7
NMTAP	45	240	1
NMTAP	45	240	7
NMTAP	45	336	0
NMTAP	45	336	6
NMTAP	46	48	1
NMTAP	46	48	7
NMTAP	46	144	0
NMTAP	46	144	6
NMSTR	46	192	0
NMSI_	46	192	0	96	48	3
NMSTR	46	192	6
NMSI_	46	192	6	96	48	3
NMHLD	47	0	2	96
NMHLD	47	96	0	96
NMHLD	47	192	7	96
NMTAP	47	288	5
NMTAP	48	0	4
NMTAP	48	0	6
NMSTR	48	96	4
NMSI_	48	96	4	96	48	0
NMSTR	48	96	6
NMSI_	48	96	6	96	48	2
EXTAP	49	0	1
EXTAP	49	0	7
NMTAP	49	96	1
NMTAP	49	96	7
NMTAP	49	192	0
NMTAP	49	192	6
NMTAP	49	240	0
NMTAP	49	240	6
NMTAP	49	336	1
NMTAP	49	336	7
NMTAP	50	48	0
NMTAP	50	48	6
NMTAP	50	144	1
NMTAP	50	144	7
NMSTR	50	192	1
NMSI_	50	192	1	96	48	4
NMSTR	50	192	7
NMSI_	50	192	7	96	48	4
NMHLD	51	0	5	96
NMHLD	51	96	7	96
NMHLD	51	192	0	96
NMTAP	51	288	2
NMTAP	52	0	1
NMTAP	52	0	3
NMSTR	52	96	1
NMSI_	52	96	1	96	48	5
NMSTR	52	96	3
NMSI_	52	96	3	96	48	7
BXTAP	53	0	0
BXTAP	53	0	6
BXSTR	53	96	1
BRSI_	53	96	1	96	48	5
BXSTR	53	96	7
BRSI_	53	96	7	96	48	3
NMHLD	54	0	1	96
NMTAP	54	96	3
NMTAP	54	192	2
NMTAP	54	240	2
NMHLD	54	336	5	96
NMTAP	55	48	4
NMTAP	55	96	4
NMTAP	55	192	3
NMTAP	55	192	5
NMTAP	55	288	4
NMTAP	55	288	5
NMHLD	56	0	6	96
NMTAP	56	96	7
NMTAP	56	192	5
NMTAP	56	240	5
NMHLD	56	336	0	96
NMTAP	57	48	7
NMTAP	57	96	7
NMTAP	57	192	1
NMTAP	57	192	7
NMTAP	57	288	0
NMTAP	57	288	7
NMHLD	58	0	6	96
NMTAP	58	96	4
NMTAP	58	192	5
NMTAP	58	240	5
NMHLD	58	336	2	96
NMTAP	59	48	3
NMTAP	59	96	3
NMTAP	59	192	2
NMTAP	59	192	4
NMTAP	59	288	2
NMTAP	59	288	3
NMHLD	60	0	1	96
NMTAP	60	96	0
NMTAP	60	192	2
NMTAP	60	240	2
NMHLD	60	336	7	96
NMTAP	61	48	0
NMTAP	61	96	0
NMTAP	61	192	0
NMTAP	61	192	7
BRTAP	61	288	1
BRTAP	61	288	6
NMHLD	62	0	3	96
NMHLD	62	0	4	96
NMTTP	62	192	4	E	1	M1
NMTAP	63	0	4
NMTAP	63	0	5
BXTAP	63	96	1
BXTAP	63	96	7
NMTAP	63	192	2
NMHLD	63	240	2	96
NMTAP	63	336	3
NMTAP	64	48	1
NMSTR	64	96	1
NMSXR	64	96	1	96	192	4
NMHLD	65	0	5	96
NMHLD	65	96	6	96
NMHLD	65	192	7	96
NMHLD	65	288	0	96
NMHLD	66	0	1	96
NMHLD	66	96	2	96
NMTAP	66	192	3
NMTAP	66	288	1
NMTAP	66	288	4
NMTAP	67	0	2
NMTAP	67	0	3
BXTAP	67	96	0
BXTAP	67	96	6
NMTAP	67	192	5
NMHLD	67	240	5	96
NMTAP	67	336	4
NMTAP	68	48	6
NMSTR	68	96	6
NMSXL	68	96	6	96	192	3
NMHLD	69	0	2	96
NMHLD	69	96	1	96
NMHLD	69	192	0	96
NMHLD	69	288	7	96
NMHLD	70	0	6	96
NMHLD	70	96	5	96
NMTAP	70	192	4
NMTAP	70	288	2
NMTAP	70	288	6
NMTTP	71	336	2	A	0	M1
NMTTP	71	336	3	E	0	M1
NMTTP	71	336	3	D	0	M1
NMTTP	71	336	5	E	0	M1
NMTTP	71	336	5	A	0	M1
NMTTP	71	336	5	D	0	M1
EXTAP	72	288	3
EXTAP	72	288	4
BRHLD	73	0	0	96
BRHLD	73	0	2	96
BRHLD	73	192	4	96
BRHLD	73	192	6	96
BRTAP	74	0	2
BRTAP	74	0	3
BRTAP	74	96	1
BRTAP	74	96	4
BRTAP	74	192	0
BRTAP	74	192	5
NMTTP	75	0	6	E	0	M1
NMTTP	75	96	2	E	0	M1
NMTTP	75	192	4	E	0	M1
NMTTP	75	288	3	E	0	M1
EXTAP	76	0	2
EXTAP	76	0	4
EXHLD	76	96	2	96
EXHLD	76	96	4	96
BXTAP	76	288	1
BXTAP	76	288	5
NMTAP	77	0	2
NMTAP	77	96	3
NMTAP	77	192	4
NMTAP	77	288	5
NMTAP	78	0	5
NMTAP	78	96	4
NMTAP	78	192	3
NMTAP	78	288	2
EXTAP	79	0	1
EXTAP	79	0	3
EXTAP	79	48	1
EXTAP	79	48	3
EXHLD	79	192	4	96
EXHLD	79	192	6	96
NMSTR	80	0	3
NMSXR	80	0	3	96	144	2
NMSTR	80	0	4
NMSXL	80	0	4	96	144	5
BXTAP	81	0	2
BXTAP	81	0	5
BXSTR	81	96	0
BRSI_	81	96	0	96	48	4
BXSTR	81	96	6
BRSI_	81	96	6	96	48	2
EXTAP	82	0	1
EXTAP	82	0	3
NMTAP	82	96	0
NMTAP	82	96	6
NMTAP	82	192	4
NMTAP	82	192	5
NMTAP	82	288	1
NMTAP	82	288	7
NMTAP	83	0	2
NMTAP	83	0	3
NMTAP	83	48	2
NMTAP	83	48	3
NMSTR	83	96	2
NMSCL	83	96	2	96	96	7
NMSTR	83	96	3
NMSUL	83	96	3	96	96	6
NMHLD	84	0	5	96
NMTAP	84	96	7
NMTAP	84	192	2
NMTAP	84	240	2
NMSTR	84	288	0
NMSXR	84	288	0	96	240	5
EXTAP	85	288	4
EXTAP	85	288	5
NMTAP	86	0	4
NMTAP	86	0	6
NMTAP	86	96	1
NMTAP	86	96	7
NMTAP	86	192	2
NMTAP	86	192	3
NMTAP	86	288	0
NMTAP	86	288	6
NMTAP	87	0	4
NMTAP	87	0	5
NMTAP	87	48	4
NMTAP	87	48	5
NMSTR	87	96	4
NMSUR	87	96	4	96	96	1
NMSTR	87	96	5
NMSCR	87	96	5	96	96	0
NMTAP	88	0	2
NMTAP	88	0	7
NMTAP	88	96	1
NMTAP	88	96	6
NMHLD	88	192	0	96
NMHLD	88	192	5	96
BRTAP	89	0	2
BRTAP	89	0	4
BRSTR	89	96	3
BRSI_	89	96	3	96	48	7
BRSTR	89	96	5
BRSI_	89	96	5	96	48	1
EXTAP	90	0	0
EXTAP	90	0	6
NMTAP	90	96	0
NMTAP	90	96	6
NMTAP	90	192	1
NMTAP	90	192	7
NMTAP	90	240	1
NMTAP	90	240	7
NMTAP	90	336	0
NMTAP	90	336	6
NMTAP	91	48	1
NMTAP	91	48	7
NMTAP	91	96	1
NMTAP	91	96	7
NMTAP	91	144	0
NMTAP	91	144	6
NMSTR	91	192	0
NMSI_	91	192	0	96	48	3
NMSTR	91	192	6
NMSI_	91	192	6	96	48	3
NMHLD	92	0	2	96
NMHLD	92	96	0	96
NMHLD	92	192	7	96
NMTAP	92	288	5
NMTAP	93	0	4
NMTAP	93	0	6
NMSTR	93	96	4
NMSI_	93	96	4	96	48	0
NMSTR	93	96	6
NMSI_	93	96	6	96	48	2
EXTAP	94	0	1
EXTAP	94	0	7
NMTAP	94	96	1
NMTAP	94	96	7
NMTAP	94	192	0
NMTAP	94	192	6
NMTAP	94	240	0
NMTAP	94	240	6
NMTAP	94	336	1
NMTAP	94	336	7
NMTAP	95	48	0
NMTAP	95	48	6
NMTAP	95	96	0
NMTAP	95	96	6
NMTAP	95	144	1
NMTAP	95	144	7
NMSTR	95	192	1
NMSI_	95	192	1	96	48	4
NMSTR	95	192	7
NMSI_	95	192	7	96	48	4
NMHLD	96	0	5	96
NMHLD	96	96	7	96
NMHLD	96	192	0	96
NMTAP	96	288	2
NMTAP	97	0	1
NMTAP	97	0	3
NMSTR	97	96	1
NMSI_	97	96	1	96	48	5
NMSTR	97	96	3
NMSI_	97	96	3	96	48	7
BRTAP	98	0	0
BRTAP	98	0	6
BRSTR	98	96	1
BRSI_	98	96	1	96	48	5
BRSTR	98	96	7
BRSI_	98	96	7	96	48	3
NMTAP	99	0	2
NMTAP	99	0	4
NMTAP	99	96	3
NMTAP	99	96	5
NMTAP	99	192	4
NMTAP	99	192	6
NMTAP	99	288	0
NMTAP	99	288	7
EXTAP	100	0	1
EXTAP	100	0	2
EXTAP	100	96	4
EXTAP	100	96	5
EXTAP	100	192	0
EXTAP	100	192	6
EXTAP	100	288	2
EXTAP	100	288	3
EXTAP	101	0	4
EXTAP	101	0	6
EXSTR	101	96	4
BRSI_	101	96	4	96	48	0
EXSTR	101	96	6
BRSI_	101	96	6	96	48	2
NMHLD	102	0	1	96
NMTAP	102	96	3
NMTAP	102	192	2
NMTAP	102	192	4
NMTAP	102	240	2
NMTAP	102	240	4
NMHLD	102	336	5	96
NMTAP	103	48	4
NMTAP	103	96	4
NMTAP	103	192	3
NMTAP	103	192	4
NMTAP	103	288	4
NMTAP	103	288	5
NMHLD	104	0	6	96
NMTAP	104	96	7
NMTAP	104	192	0
NMTAP	104	192	5
NMTAP	104	240	0
NMTAP	104	240	5
NMHLD	104	336	1	96
NMTAP	105	48	0
NMTAP	105	96	0
NMTAP	105	192	0
NMTAP	105	192	1
NMTAP	105	288	0
NMTAP	105	288	7
NMHLD	106	0	6	96
NMTAP	106	96	4
NMTAP	106	192	3
NMTAP	106	192	5
NMTAP	106	240	3
NMTAP	106	240	5
NMHLD	106	336	2	96
NMTAP	107	48	3
NMTAP	107	96	3
NMTAP	107	192	3
NMTAP	107	192	4
NMTAP	107	288	2
NMTAP	107	288	3
NMHLD	108	0	1	96
NMTAP	108	96	0
NMTAP	108	192	2
NMTAP	108	192	7
NMTAP	108	240	2
NMTAP	108	240	7
NMHLD	108	336	6	96
NMTAP	109	48	7
NMTAP	109	96	7
NMTAP	109	192	0
NMTAP	109	192	7
BRTAP	109	288	1
BRTAP	109	288	6
NMHLD	110	0	3	96
NMHLD	110	0	4	96
EXTAP	110	192	0
EXTAP	110	216	7
EXTAP	110	240	0
EXTAP	110	264	7
EXSTR	110	288	0
NMSI_	110	288	0	96	48	3
NMSI_	110	288	0	96	48	5

T_REC_TAP	314
T_REC_BRK	22
T_REC_XTP	62
T_REC_BXX	18
T_REC_HLD	73
T_REC_XHO	6
T_REC_BHO	4
T_REC_BXH	0
T_REC_STR	30
T_REC_BST	6
T_REC_XST	7
T_REC_XBS	6
T_REC_TTP	19
T_REC_THO	1
T_REC_SLD	36
T_REC_BSL	14
T_REC_ALL	618
T_NUM_TAP	432
T_NUM_BRK	70
T_NUM_HLD	80
T_NUM_SLD	36
T_NUM_ALL	618
T_JUDGE_TAP	484
T_JUDGE_HLD	210
T_JUDGE_SLD	50
T_JUDGE_ALL	744
TTM_EACHPAIRS	178
TTM_SCR_TAP	216000
TTM_SCR_BRK	182000
TTM_SCR_HLD	80000
TTM_SCR_SLD	54000
TTM_SCR_ALL	532000
TTM_SCR_S	509250
TTM_SCR_SS	525000
TTM_RAT_ACV	10133

