VERSION	0.00.00	1.04.00
FES_MODE	0
BPM_DEF	186.000	186.000	186.000	186.000
MET_DEF	4	4
RESOLUTION	384
CLK_DEF	384
COMPATIBLE_CODE	MA2

BPM	0	0	186.000
MET	0	0	4	4

NMHLD	4	0	2	192
NMHLD	4	192	3	192
NMHLD	5	0	4	192
NMTAP	5	192	5
NMHLD	6	0	5	192
NMHLD	6	192	4	192
NMHLD	7	0	3	192
NMTAP	7	192	2
NMHLD	8	0	1	192
NMHLD	8	192	2	192
NMHLD	9	0	3	192
NMTAP	9	192	4
NMHLD	10	0	6	192
NMHLD	10	192	5	192
NMHLD	11	0	4	192
NMTAP	11	192	3
NMTAP	12	0	2
NMTAP	12	96	2
NMTAP	12	192	2
NMTAP	13	0	1
NMTAP	13	96	1
NMTAP	13	192	1
NMTAP	14	0	0
NMTAP	14	96	0
NMTAP	14	192	0
NMTAP	15	0	6
NMTAP	15	0	7
NMTAP	16	0	5
NMTAP	16	96	5
NMTAP	16	192	5
NMTAP	17	0	6
NMTAP	17	96	6
NMTAP	17	192	6
NMTAP	18	0	7
NMTAP	18	96	7
NMTAP	18	192	7
EXTAP	19	0	0
EXTAP	19	0	7
NMTTP	20	0	1	B	0	L1
NMTTP	20	96	2	B	0	L1
NMTTP	20	192	3	B	0	L1
NMTTP	21	0	6	B	0	L1
NMTTP	21	96	5	B	0	L1
NMTTP	21	192	4	B	0	L1
NMTTP	22	0	2	B	0	L1
NMTTP	22	96	3	B	0	L1
NMTTP	22	192	4	B	0	L1
NMTTP	22	288	5	B	0	L1
NMTTP	23	0	0	C	0	L1
NMTTP	24	0	7	B	0	L1
NMTTP	24	96	6	B	0	L1
NMTTP	24	192	4	B	0	L1
NMTTP	24	192	5	B	0	L1
NMTTP	25	0	0	B	0	L1
NMTTP	25	96	1	B	0	L1
NMTTP	25	192	2	B	0	L1
NMTTP	25	192	3	B	0	L1
NMTTP	26	0	5	B	0	L1
NMTTP	26	96	4	B	0	L1
NMTTP	26	192	3	B	0	L1
NMTTP	26	288	2	B	0	L1
NMTTP	27	0	0	C	0	L1
NMSTR	28	0	1
NMSCR	28	0	1	96	192	4
NMSTR	29	0	5
NMSCR	29	0	5	96	192	0
NMSTR	30	0	1
NMSI_	30	0	1	96	192	5
NMTAP	31	0	6
NMTAP	31	96	6
NMTAP	31	192	6
NMTAP	31	192	7
NMSTR	32	0	6
NMSCL	32	0	6	96	192	3
NMSTR	33	0	2
NMSCL	33	0	2	96	192	7
NMSTR	34	0	6
NMSI_	34	0	6	96	192	2
EXTAP	35	0	0
EXTAP	35	0	1
EXTAP	35	96	0
EXTAP	35	96	1
EXTAP	35	192	0
EXTAP	35	192	1
EXTAP	36	0	6
EXTAP	36	0	7
EXTAP	36	96	6
EXTAP	36	96	7
EXTAP	36	192	6
EXTAP	36	192	7
NMTAP	37	0	5
NMTAP	37	96	5
NMTAP	37	192	6
NMTAP	37	288	6
NMTAP	38	0	7
NMTAP	38	96	7
NMTAP	38	192	0
NMTAP	38	192	1
NMTAP	39	0	0
NMTAP	39	96	1
NMTAP	39	192	2
NMTAP	39	288	3
EXTAP	40	0	3
EXTAP	40	0	4
EXTAP	40	96	3
EXTAP	40	96	4
NMTAP	41	0	2
NMTAP	41	96	2
NMTAP	41	192	1
NMTAP	41	288	1
NMTAP	42	0	0
NMTAP	42	96	0
NMTAP	42	192	6
NMTAP	42	192	7
NMTAP	43	0	7
NMTAP	43	96	6
NMTAP	43	192	5
NMTAP	43	288	4
EXTAP	44	0	2
EXTAP	44	0	3
EXTAP	44	96	2
EXTAP	44	96	3
EXTAP	44	192	2
EXTAP	44	192	3
NMTAP	45	0	1
NMTAP	45	96	1
NMTAP	45	192	0
NMTAP	45	192	1
NMTAP	46	0	0
NMTAP	46	0	1
NMTAP	46	96	0
NMTAP	46	96	1
NMTAP	46	192	0
NMTAP	46	192	1
NMTAP	47	0	1
NMTAP	47	96	2
NMTAP	47	192	3
NMTAP	47	288	4
EXTAP	48	0	5
EXTAP	48	96	5
EXTAP	48	192	4
EXTAP	48	192	5
NMTAP	49	0	6
NMTAP	49	96	6
NMTAP	49	192	6
NMTAP	49	192	7
NMTAP	50	0	6
NMTAP	50	0	7
NMTAP	50	96	6
NMTAP	50	96	7
NMTAP	50	192	6
NMTAP	50	192	7
NMTAP	51	0	6
NMTAP	51	96	5
NMTAP	51	192	4
NMTAP	51	288	3
EXTAP	52	0	2
EXTAP	52	96	2
EXTAP	52	192	2
EXTAP	52	192	3
EXTAP	53	0	0
EXTAP	53	0	1
EXTAP	53	96	0
EXTAP	53	96	1
BXTAP	53	192	0
BXTAP	53	192	1
NMHLD	54	0	1	192
NMHLD	54	192	0	192
NMHLD	55	0	7	192
NMTAP	55	192	6
NMHLD	56	0	6	192
NMHLD	56	192	7	192
NMHLD	57	0	0	192
NMTAP	57	192	1
NMHLD	58	0	1	192
NMHLD	58	192	2	192
NMHLD	59	0	3	192
NMTAP	59	192	4
NMHLD	60	0	6	192
NMHLD	60	192	5	192
NMHLD	61	0	4	192
NMTAP	61	192	3
NMHLD	62	0	3	192
NMHLD	62	0	4	192
NMTAP	63	0	5
NMTAP	63	96	5
NMTAP	63	192	4
NMTAP	63	192	5
NMTAP	64	0	6
NMTAP	64	96	6
NMTAP	64	192	6
NMTAP	64	192	7
NMTAP	65	0	0
NMTAP	65	96	1
NMHLD	65	192	2	144
NMHLD	65	192	3	144
NMTAP	67	0	2
NMTAP	67	96	2
NMTAP	67	192	2
NMTAP	67	192	3
NMTAP	68	0	1
NMTAP	68	96	1
NMTAP	68	192	0
NMTAP	68	192	1
NMTAP	69	0	7
NMTAP	69	96	6
NMHLD	69	192	4	144
NMHLD	69	192	5	144
NMTAP	71	0	3
NMTAP	71	0	4
NMTAP	71	96	3
NMTAP	71	96	4
EXHLD	71	192	2	144
EXHLD	71	192	5	144
NMHLD	73	0	1	192
NMTAP	73	192	0
NMTAP	74	0	0
NMTAP	74	96	0
NMTAP	74	192	0
NMTAP	74	192	1
NMHLD	75	0	2	192
NMTAP	75	192	3
EXTAP	76	0	2
EXTAP	76	0	3
EXTAP	76	96	2
EXTAP	76	96	3
NMHLD	77	0	5	192
NMTAP	77	192	4
NMTAP	78	0	4
NMTAP	78	96	4
NMTAP	78	192	4
NMTAP	78	192	5
NMHLD	79	0	6	192
NMTAP	79	192	7
EXTAP	80	0	6
EXTAP	80	0	7
EXTAP	80	96	6
EXTAP	80	96	7
EXTAP	80	192	6
EXTAP	80	192	7
EXTAP	81	0	0
EXTAP	81	0	1
EXTAP	81	96	0
EXTAP	81	96	1
EXTAP	81	192	0
EXTAP	81	192	1
NMTAP	82	0	2
NMTAP	82	96	2
NMTAP	82	192	0
NMTAP	82	192	1
NMTAP	82	288	0
NMTAP	82	288	1
NMTAP	83	0	7
NMTAP	83	96	7
NMTAP	83	192	6
NMTAP	83	192	7
NMTAP	84	0	7
NMTAP	84	96	6
NMTAP	84	192	5
NMTAP	84	288	4
EXTAP	85	0	3
EXTAP	85	0	4
EXTAP	85	96	3
EXTAP	85	96	4
NMTAP	86	0	5
NMTAP	86	96	5
NMTAP	86	192	6
NMTAP	86	192	7
NMTAP	86	288	6
NMTAP	86	288	7
NMTAP	87	0	0
NMTAP	87	96	0
NMTAP	87	192	0
NMTAP	87	192	1
NMTAP	88	0	0
NMTAP	88	96	1
NMTAP	88	192	2
NMTAP	88	288	3
EXTAP	89	0	4
EXTAP	89	0	5
EXTAP	89	96	4
EXTAP	89	96	5
EXTAP	89	192	4
EXTAP	89	192	5
NMTAP	90	0	6
NMTAP	90	96	6
NMTAP	90	192	5
NMTAP	90	192	7
NMTAP	91	0	6
NMTAP	91	0	7
NMTAP	91	96	6
NMTAP	91	96	7
NMTAP	91	192	0
NMTAP	91	192	5
NMTAP	92	0	7
NMTAP	92	96	6
NMTAP	92	192	5
NMTAP	92	288	4
EXTAP	93	0	3
EXTAP	93	96	2
EXTAP	93	192	0
EXTAP	93	192	1
NMTAP	94	0	1
NMTAP	94	96	1
NMTAP	94	192	0
NMTAP	94	192	2
NMTAP	95	0	0
NMTAP	95	0	1
NMTAP	95	96	0
NMTAP	95	96	1
NMTAP	95	192	2
NMTAP	95	192	7
NMTAP	96	0	0
NMTAP	96	96	1
NMTAP	96	192	2
NMTAP	96	288	3
EXTAP	97	0	4
EXTAP	97	96	5
EXTAP	97	192	6
EXTAP	97	192	7
EXTAP	98	0	0
EXTAP	98	0	7
EXTAP	98	96	0
EXTAP	98	96	7
BXTAP	98	192	0
BXTAP	98	192	7
NMTAP	99	0	0
NMTAP	99	0	7
NMTAP	99	96	0
NMTAP	99	96	7
NMTAP	99	192	1
NMTAP	99	192	6
NMTAP	99	288	1
NMTAP	99	288	6
NMTAP	100	0	2
NMTAP	100	0	5
NMTAP	100	96	2
NMTAP	100	96	5
NMTAP	100	192	3
NMTAP	100	192	4
NMTAP	100	288	3
NMTAP	100	288	4
BRTAP	101	0	2
BRTAP	101	0	5
NMHLD	102	0	6	192
NMHLD	102	192	5	192
NMHLD	103	0	4	192
NMHLD	103	192	3	192
NMHLD	104	0	2	192
NMHLD	104	192	1	192
NMTAP	105	0	0
NMTAP	105	192	0
NMTAP	105	192	1
NMHLD	106	0	1	192
NMHLD	106	192	2	192
NMHLD	107	0	3	192
NMHLD	107	192	4	192
NMHLD	108	0	5	192
NMHLD	108	192	6	192
NMTAP	109	0	7
NMTAP	109	192	6
NMTAP	109	192	7
NMHLD	110	0	0	192
NMHLD	110	0	7	192
BRTAP	111	0	0
BRTAP	111	0	7

T_REC_TAP	198
T_REC_BRK	4
T_REC_XTP	74
T_REC_BXX	4
T_REC_HLD	48
T_REC_XHO	2
T_REC_BHO	0
T_REC_BXH	0
T_REC_STR	6
T_REC_BST	0
T_REC_XST	0
T_REC_XBS	0
T_REC_TTP	24
T_REC_THO	0
T_REC_SLD	6
T_REC_BSL	0
T_REC_ALL	366
T_NUM_TAP	302
T_NUM_BRK	8
T_NUM_HLD	50
T_NUM_SLD	6
T_NUM_ALL	366
T_JUDGE_TAP	310
T_JUDGE_HLD	194
T_JUDGE_SLD	6
T_JUDGE_ALL	510
TTM_EACHPAIRS	86
TTM_SCR_TAP	151000
TTM_SCR_BRK	20800
TTM_SCR_HLD	50000
TTM_SCR_SLD	9000
TTM_SCR_ALL	230800
TTM_SCR_S	223100
TTM_SCR_SS	230000
TTM_RAT_ACV	10034

