VERSION	0.00.00	1.04.00
FES_MODE	0
BPM_DEF	160.000	160.000	160.000	160.000
MET_DEF	4	4
RESOLUTION	384
CLK_DEF	384
COMPATIBLE_CODE	MA2

BPM	0	0	160.000
MET	0	0	4	4

NMTAP	1	0	3
NMTAP	1	96	3
NMTAP	1	192	4
NMTAP	1	288	4
NMTAP	2	0	2
NMTAP	2	96	2
NMTAP	2	192	5
NMTAP	2	288	5
NMTAP	3	0	3
NMTAP	3	96	2
NMTAP	3	192	3
NMTAP	3	288	2
NMTAP	4	0	4
NMTAP	4	96	5
NMTAP	4	192	4
NMTAP	4	288	5
NMHLD	5	0	2	288
NMTAP	5	96	3
NMTAP	5	192	4
NMTAP	5	288	5
NMHLD	6	0	5	288
NMTAP	6	96	4
NMTAP	6	192	3
NMTAP	6	288	2
NMTAP	7	0	2
NMTAP	7	96	3
NMTAP	7	192	4
NMTAP	7	288	5
NMTHO	8	0	0	192	C	0	M1
NMTAP	9	0	0
NMTAP	9	96	1
NMTAP	9	192	2
NMTAP	9	288	3
NMTAP	10	0	4
NMTAP	10	96	5
NMTAP	10	192	6
NMTAP	10	240	7
NMTAP	10	288	7
NMTAP	11	0	1
NMTAP	11	96	1
NMTAP	11	192	2
NMTAP	11	288	3
NMTAP	12	0	4
NMTAP	12	96	5
NMTAP	12	192	6
NMTAP	12	240	7
NMTAP	12	288	7
NMTAP	13	0	2
NMTAP	13	0	3
NMTAP	13	96	2
NMTAP	13	96	3
NMTAP	13	192	4
NMTAP	13	192	5
NMTAP	13	288	4
NMTAP	13	288	5
NMTAP	14	0	6
NMTAP	14	0	7
NMTAP	14	96	6
NMTAP	14	96	7
NMTAP	14	192	0
NMTAP	14	192	1
NMTAP	14	288	0
NMTAP	14	288	1
NMHLD	15	0	0	96
NMHLD	15	96	1	96
NMHLD	15	192	2	96
NMHLD	15	288	3	96
NMHLD	16	0	4	96
NMHLD	16	96	5	96
NMHLD	16	192	6	96
BRTAP	16	240	7
BRTAP	16	288	7
NMTAP	17	0	3
NMTAP	17	0	5
NMTAP	17	96	4
NMTAP	17	192	4
NMTAP	17	192	5
NMTAP	17	288	6
NMSTR	18	0	6
NMSCL	18	0	6	96	96	2
NMTAP	18	288	0
NMTAP	19	0	6
NMTAP	19	96	2
NMSTR	19	192	4
NMSUL	19	192	4	96	144	3
CNSCL	20	48	3	0	288	5
NMTAP	21	0	2
NMTAP	21	0	3
NMTAP	21	96	1
NMTAP	21	96	3
NMTAP	21	192	0
NMTAP	21	288	4
NMTAP	21	288	5
NMTAP	22	0	4
NMTAP	22	0	6
NMSTR	22	96	7
NMSXR	22	96	7	96	288	2
NMTAP	23	96	1
NMTAP	23	192	0
NMTAP	23	288	4
NMSTR	24	0	1
NMSI_	24	0	1	96	96	5
NMSTR	24	0	6
NMSI_	24	0	6	96	96	2
EXTAP	24	240	0
EXTAP	24	288	0
NMSTR	25	0	0
NMSSL	25	0	0	96	96	4
NMTHO	26	0	0	96	C	0	M1
NMTTP	26	192	2	B	0	M1
NMTTP	26	192	3	B	0	M1
NMTTP	26	192	3	E	0	M1
NMTTP	26	288	4	B	0	M1
NMTTP	26	288	5	B	0	M1
NMTTP	26	288	5	E	0	M1
NMSTR	27	0	1
NMSV_	27	0	1	96	96	2
NMSTR	27	0	7
NMSI_	27	0	7	96	96	4
NMSTR	27	288	0
NMSXL	27	288	0	96	192	3
NMTAP	28	192	4
NMTAP	28	288	5
NMSTR	29	0	0
NMSV_	29	0	0	96	96	3
NMSTR	29	0	6
NMSV_	29	0	6	96	96	3
NMTAP	30	0	0
NMTAP	30	0	1
NMSTR	30	96	1
NMSUR	30	96	1	96	96	6
NMSTR	30	96	2
NMSCR	30	96	2	96	96	5
EXSTR	31	0	0
NMSI_	31	0	0	96	96	3
EXSTR	31	0	7
NMSI_	31	0	7	96	96	4
NMTAP	31	288	5
NMHLD	32	0	6	192
NMTAP	32	192	2
BXTAP	32	288	0
NMTAP	33	0	1
NMTAP	33	0	4
NMTAP	33	96	2
NMTAP	33	96	5
NMTAP	33	192	3
NMTAP	33	192	6
NMTAP	33	288	4
NMTAP	33	288	7
NMTAP	34	0	3
NMTAP	34	0	6
NMTAP	34	96	2
NMTAP	34	96	5
NMTAP	34	192	1
NMTAP	34	192	4
NMTAP	34	288	0
NMTAP	34	288	3
NMSTR	35	0	2
NMSCR	35	0	2	96	96	5
NMTAP	35	288	6
NMTAP	35	288	7
NMHLD	36	0	0	96
NMHLD	36	0	1	96
NMTAP	36	240	2
NMTAP	36	240	7
NMTAP	36	288	2
NMTAP	36	288	7
NMHLD	37	0	0	384
NMTAP	37	96	3
NMTAP	37	192	3
NMTAP	37	288	2
NMSTR	38	0	2
NMSCL	38	0	2	96	192	6
NMTAP	39	0	5
NMTAP	39	96	4
NMTAP	39	96	6
NMTAP	39	192	5
NMTAP	39	288	4
NMTAP	39	288	7
NMTAP	40	0	3
NMTAP	40	0	6
NMTAP	40	96	2
NMTAP	40	96	5
NMTAP	40	192	1
NMTAP	40	192	4
NMHLD	40	288	2	144
NMHLD	40	336	3	96
NMHLD	41	144	6	144
NMHLD	41	192	7	96
NMTAP	41	336	0
NMTAP	42	0	0
NMTAP	42	48	7
NMTAP	42	96	7
NMTAP	42	144	1
NMTAP	42	144	6
NMTAP	42	192	1
EXSTR	42	192	6
NMSUL	42	192	6	96	384	5
EXSTR	43	288	0
NMSCR	43	288	0	96	288	4
NMTAP	45	0	4
NMTAP	45	0	6
NMTAP	45	96	5
NMTAP	45	96	7
NMTAP	45	192	4
NMTAP	45	192	6
NMTAP	45	288	3
NMTAP	45	288	4
NMTAP	46	0	0
NMTAP	46	0	2
NMTAP	46	96	1
NMTAP	46	96	3
NMTAP	46	192	0
NMTAP	46	192	2
NMTAP	46	288	0
NMTAP	46	288	7
NMTAP	47	0	6
NMTAP	47	0	7
NMTAP	47	96	0
NMTAP	47	96	1
NMTAP	47	192	6
NMTAP	47	192	7
NMTAP	47	288	0
NMTAP	47	288	1
NMTAP	48	0	2
NMTAP	48	0	4
NMTAP	48	96	2
NMTAP	48	96	4
NMTAP	48	192	3
NMTAP	48	192	5
NMTAP	48	288	3
NMTAP	48	288	5
NMTAP	49	0	1
NMTAP	49	0	7
NMTAP	49	96	1
NMTAP	49	96	7
NMHLD	49	192	0	96
NMHLD	49	192	1	96
NMTAP	50	0	0
NMTAP	50	0	6
NMTAP	50	96	0
NMTAP	50	96	6
NMHLD	50	192	6	96
NMHLD	50	192	7	96
NMTAP	51	0	2
NMTAP	51	0	3
NMTAP	51	96	2
NMTAP	51	96	4
NMTAP	51	192	3
NMTAP	51	192	5
NMTAP	51	288	4
NMTAP	51	288	5
NMHLD	52	0	1	96
NMHLD	52	0	6	96
NMTAP	52	192	2
NMTAP	52	192	5
NMTAP	52	288	2
NMTAP	52	288	5
NMTAP	53	0	4
NMTAP	53	0	6
NMTAP	53	96	5
NMTAP	53	96	7
NMTAP	53	192	4
NMTAP	53	192	6
NMTAP	53	288	3
NMTAP	53	288	4
NMTAP	54	0	0
NMTAP	54	0	2
NMTAP	54	96	1
NMTAP	54	96	3
NMTAP	54	192	0
NMTAP	54	192	2
NMTAP	54	288	0
NMTAP	54	288	7
NMTAP	55	0	6
NMTAP	55	0	7
NMTAP	55	96	0
NMTAP	55	96	1
NMTAP	55	192	6
NMTAP	55	192	7
NMTAP	55	288	0
NMTAP	55	288	1
NMTAP	56	0	1
NMTAP	56	0	4
NMTAP	56	96	1
NMTAP	56	96	4
NMTAP	56	192	3
NMTAP	56	192	6
NMTAP	56	288	3
NMTAP	56	288	6
NMTAP	57	0	1
NMTAP	57	0	7
NMTAP	57	96	1
NMTAP	57	96	7
NMHLD	57	192	0	96
NMHLD	57	192	1	96
NMTAP	58	0	0
NMTAP	58	0	6
NMTAP	58	96	0
NMTAP	58	96	6
NMHLD	58	192	6	96
NMHLD	58	192	7	96
NMTAP	59	0	1
NMTAP	59	0	3
NMTAP	59	96	2
NMTAP	59	96	3
NMTAP	59	192	3
NMTAP	59	192	4
NMTAP	59	288	4
NMTAP	59	288	5
NMTAP	60	0	4
NMTAP	60	0	6
NMTAP	60	96	1
NMTAP	60	96	6
NMTAP	60	192	1
NMTAP	60	192	6
NMSTR	60	288	2
NMSCR	60	288	2	96	96	5
NMSTR	60	288	6
NMSCR	60	288	6	96	96	1
NMHLD	61	192	0	96
NMHLD	61	192	7	96
NMHLD	62	0	2	144
NMHLD	62	0	5	144
BRTAP	62	240	1
BRTAP	62	240	7
BRTAP	62	288	1
BRTAP	62	288	7
NMTAP	63	0	2
NMTAP	63	0	3
NMTAP	63	96	0
NMTAP	63	192	4
NMTAP	63	192	5
NMTAP	63	288	7
NMTAP	64	0	2
NMTAP	64	0	3
NMTAP	64	96	2
NMTAP	64	96	3
NMTAP	64	192	0
NMTAP	64	240	7
NMTAP	64	288	7
NMTAP	65	0	4
NMTAP	65	0	5
NMTAP	65	96	7
NMTAP	65	192	2
NMTAP	65	192	3
NMTAP	65	288	0
NMTAP	66	0	1
NMTAP	66	0	4
NMTAP	66	96	3
NMTAP	66	96	6
NMTAP	66	192	1
NMTAP	66	192	6
EXSTR	66	288	0
NMSCR	66	288	0	96	144	3
EXTAP	66	288	7
EXTAP	66	336	0
EXSTR	66	336	7
NMSCL	66	336	7	96	192	4
BXSTR	68	48	1
BRSI_	68	48	1	96	48	6
BXSTR	68	48	5
BRSI_	68	48	5	96	48	2
NMTHO	69	192	0	456	C	0	M1
NMTTP	70	264	2	B	0	M1
NMTTP	70	264	5	B	0	M1
NMSTR	71	0	0
NMSCR	71	0	0	96	288	4
NMSUR	71	0	0	96	288	4
NMTAP	72	192	4
NMTAP	72	192	6
NMTAP	73	0	5
NMTAP	73	0	7
NMTAP	73	192	4
NMTAP	73	192	6
NMTAP	74	0	5
NMTAP	74	0	7
NMTAP	74	192	1
NMTAP	74	288	1
NMTAP	75	0	2
NMTAP	75	0	4
NMTAP	75	96	1
NMTAP	75	96	5
NMSTR	75	192	0
NMSI_	75	192	0	96	144	4
NMSTR	75	192	6
NMSI_	75	192	6	96	144	2
NMTAP	76	144	1
NMTAP	76	240	0
NMHLD	76	288	0	144
NMHLD	76	336	7	96
NMHLD	77	144	3	144
NMHLD	77	192	4	96
NMTAP	77	336	0
NMTAP	78	0	0
NMTAP	78	48	7
NMTAP	78	96	7
NMTAP	78	144	1
NMTAP	78	144	6
NMTAP	78	192	1
NMTAP	78	192	6
NMTAP	78	288	2
NMHLD	79	0	2	672
NMTTP	79	96	5	B	0	M1
NMTTP	79	192	6	B	0	M1
NMTTP	79	288	7	B	0	M1
NMTTP	80	0	0	B	0	M1
NMTTP	80	96	1	B	0	M1
NMTTP	80	192	2	B	0	M1
NMTTP	80	288	3	B	0	M1
NMTAP	81	0	4
NMTAP	81	0	6
NMTAP	81	96	5
NMTAP	81	96	7
NMTAP	81	192	4
NMTAP	81	192	6
NMTAP	81	288	3
NMTAP	81	288	4
NMTAP	82	0	0
NMTAP	82	0	2
NMTAP	82	96	1
NMTAP	82	96	3
NMTAP	82	192	0
NMTAP	82	192	2
NMTAP	82	288	0
NMTAP	82	288	7
NMTAP	83	0	6
NMTAP	83	0	7
NMTAP	83	96	0
NMTAP	83	96	1
NMTAP	83	192	6
NMTAP	83	192	7
NMTAP	83	288	0
NMTAP	83	288	1
NMTAP	84	0	2
NMTAP	84	0	4
NMTAP	84	96	2
NMTAP	84	96	4
NMTAP	84	192	3
NMTAP	84	192	5
NMTAP	84	288	3
NMTAP	84	288	5
NMTAP	85	0	1
NMTAP	85	0	7
NMTAP	85	96	1
NMTAP	85	96	7
NMHLD	85	192	0	96
NMHLD	85	192	1	96
NMTAP	86	0	0
NMTAP	86	0	6
NMTAP	86	96	0
NMTAP	86	96	6
NMHLD	86	192	6	96
NMHLD	86	192	7	96
NMTAP	87	0	2
NMTAP	87	0	3
NMTAP	87	96	2
NMTAP	87	96	4
NMTAP	87	192	3
NMTAP	87	192	5
NMTAP	87	288	4
NMTAP	87	288	5
NMHLD	88	0	1	96
NMHLD	88	0	6	96
NMTAP	88	192	2
NMTAP	88	192	5
NMTAP	88	288	2
NMTAP	88	288	5
NMTAP	89	0	4
NMTAP	89	0	6
NMTAP	89	96	5
NMTAP	89	96	7
NMTAP	89	192	4
NMTAP	89	192	6
BRTAP	89	288	3
BRTAP	89	288	4
NMTAP	90	0	0
NMTAP	90	0	2
NMTAP	90	96	1
NMTAP	90	96	3
NMTAP	90	192	0
NMTAP	90	192	2
BRTAP	90	288	0
BRTAP	90	288	7
NMTAP	91	0	6
NMTAP	91	0	7
NMTAP	91	96	0
NMTAP	91	96	1
NMTAP	91	192	6
NMTAP	91	192	7
NMTAP	91	288	0
NMTAP	91	288	1
NMTAP	92	0	1
NMTAP	92	0	4
NMTAP	92	96	1
NMTAP	92	96	4
NMTAP	92	192	3
NMTAP	92	192	6
NMTAP	92	288	3
NMTAP	92	288	6
NMTAP	93	0	1
NMTAP	93	0	7
NMTAP	93	96	1
NMTAP	93	96	7
BRHLD	93	192	0	96
BRHLD	93	192	1	96
NMTAP	94	0	0
NMTAP	94	0	6
NMTAP	94	96	0
NMTAP	94	96	6
BRHLD	94	192	6	96
BRHLD	94	192	7	96
NMTAP	95	0	1
NMTAP	95	0	3
NMTAP	95	96	2
NMTAP	95	96	3
NMTAP	95	192	3
NMTAP	95	192	4
NMTAP	95	288	4
NMTAP	95	288	5
NMTAP	96	0	4
NMTAP	96	0	6
NMTAP	96	96	1
NMTAP	96	96	6
NMTAP	96	192	1
NMTAP	96	192	6
NMSTR	96	288	2
NMSCR	96	288	2	96	96	5
NMSTR	96	288	6
NMSCR	96	288	6	96	96	1
NMHLD	97	192	0	96
NMHLD	97	192	7	96
NMHLD	98	0	2	144
NMHLD	98	0	5	144
BRTAP	98	240	0
BRTAP	98	240	6
BRTAP	98	288	0
BRHLD	98	288	6	1248
NMTHO	100	96	0	672	C	0	M1

T_REC_TAP	389
T_REC_BRK	13
T_REC_XTP	4
T_REC_BXX	1
T_REC_HLD	46
T_REC_XHO	0
T_REC_BHO	5
T_REC_BXH	0
T_REC_STR	22
T_REC_BST	0
T_REC_XST	6
T_REC_XBS	2
T_REC_TTP	15
T_REC_THO	4
T_REC_SLD	29
T_REC_BSL	2
T_REC_ALL	538
T_NUM_TAP	436
T_NUM_BRK	23
T_NUM_HLD	50
T_NUM_SLD	29
T_NUM_ALL	538
T_JUDGE_TAP	452
T_JUDGE_HLD	192
T_JUDGE_SLD	31
T_JUDGE_ALL	675
TTM_EACHPAIRS	186
TTM_SCR_TAP	218000
TTM_SCR_BRK	59800
TTM_SCR_HLD	50000
TTM_SCR_SLD	43500
TTM_SCR_ALL	371300
TTM_SCR_S	357950
TTM_SCR_SS	369000
TTM_RAT_ACV	10062

