VERSION	0.00.00	1.04.00
FES_MODE	0
BPM_DEF	240.000	240.000	240.000	240.000
MET_DEF	4	4
RESOLUTION	384
CLK_DEF	384
COMPATIBLE_CODE	MA2

BPM	0	0	240.000
MET	0	0	4	4

BRTAP	2	0	1
BRTAP	2	0	6
NMTHO	2	96	0	96	C	1	M1
NMTTP	2	96	2	B	0	M1
NMTTP	2	96	3	B	0	M1
NMTTP	2	96	4	B	0	M1
NMTTP	2	96	5	B	0	M1
EXTAP	3	0	0
EXTAP	3	24	1
EXTAP	3	48	2
EXTAP	3	72	3
EXTAP	3	96	4
EXTAP	3	120	5
EXTAP	3	144	6
EXTAP	3	168	7
EXTAP	3	192	0
EXTAP	3	216	1
EXTAP	3	240	2
EXTAP	3	264	3
EXTAP	3	288	4
EXTAP	3	312	5
EXTAP	3	336	6
EXTAP	3	360	7
EXSTR	4	0	0
NMSI_	4	0	0	96	48	4
NMTAP	4	96	0
NMTAP	4	96	6
NMSTR	5	0	6
NMSI_	5	0	6	96	48	3
NMTAP	5	96	0
NMTAP	5	96	6
NMSTR	6	0	1
NMSI_	6	0	1	96	48	5
NMTAP	6	96	1
NMTAP	6	96	7
NMTAP	7	0	3
NMTAP	7	0	5
NMTAP	7	96	0
NMTAP	7	96	6
NMTAP	7	192	2
NMTAP	7	192	4
BRTAP	7	288	1
NMSTR	8	0	1
NMSI_	8	0	1	96	48	4
NMSTR	8	0	7
NMSI_	8	0	7	96	48	3
NMTAP	8	96	1
NMTAP	8	96	7
NMSTR	9	0	0
NMSI_	9	0	0	96	48	4
NMSTR	9	0	6
NMSI_	9	0	6	96	48	3
NMTAP	9	96	0
NMTAP	9	96	6
NMSTR	10	0	0
NMSI_	10	0	0	96	48	2
NMSTR	10	0	7
NMSI_	10	0	7	96	48	5
NMTAP	10	96	0
NMTAP	10	96	7
NMSTR	10	192	0
NMSI_	10	192	0	96	48	4
NMSTR	10	192	7
NMSI_	10	192	7	96	48	3
NMTAP	10	288	0
NMTAP	10	288	7
NMTAP	11	0	7
NMTAP	11	48	7
NMTAP	11	96	5
NMTAP	11	144	5
NMTAP	11	192	3
BRTAP	11	288	1
NMTAP	12	0	3
NMTAP	12	0	7
NMTAP	12	96	1
NMTAP	12	144	0
NMSTR	12	192	1
NMSI_	12	192	1	96	48	3
NMSTR	12	288	7
NMSI_	12	288	7	96	48	5
NMSTR	13	0	0
NMSI_	13	0	0	96	48	4
NMTAP	13	96	4
NMTAP	13	192	7
NMTAP	13	288	2
NMTAP	13	288	6
NMTAP	14	0	0
NMTAP	14	0	4
NMTAP	14	96	6
NMTAP	14	144	7
NMSTR	14	192	6
NMSI_	14	192	6	96	48	4
NMSTR	14	288	0
NMSI_	14	288	0	96	48	2
NMTAP	15	0	7
NMTAP	15	96	3
NMTAP	15	192	2
NMTAP	15	192	4
NMTAP	15	240	2
NMTAP	15	240	4
NMTAP	16	0	0
NMTAP	16	0	6
NMTAP	16	96	5
NMTAP	16	144	4
NMTAP	16	192	5
NMTAP	16	288	1
NMTAP	16	288	3
NMTAP	17	0	0
NMTAP	17	0	6
NMTAP	17	96	3
NMTAP	17	96	5
NMTAP	17	192	3
NMTAP	17	240	4
NMTAP	17	288	3
NMTAP	17	336	4
EXTAP	18	0	2
EXTAP	18	24	5
EXTAP	18	48	2
EXTAP	18	72	5
EXTAP	18	96	2
EXTAP	18	120	5
EXTAP	18	144	2
EXTAP	18	168	5
EXTAP	18	192	1
EXTAP	18	216	6
EXTAP	18	240	1
EXTAP	18	264	6
EXTAP	18	288	1
EXTAP	18	312	6
EXTAP	18	336	1
EXTAP	18	360	6
BXTAP	19	0	0
BXTAP	19	0	7
NMSTR	20	0	2
NMSXR	20	0	2	96	480	7
NMTAP	20	0	4
NMTAP	22	0	1
NMSTR	22	0	7
NMSXR	22	0	7	96	480	4
NMHLD	24	0	2	96
NMHLD	24	0	3	96
NMSTR	24	144	2
NMSLR	24	144	2	96	240	0
NMTAP	24	144	3
NMTAP	25	192	6
NMTAP	25	288	6
NMHLD	26	0	4	96
NMHLD	26	0	5	96
NMTAP	26	144	4
NMSTR	26	144	5
NMSLL	26	144	5	96	240	7
NMTAP	27	192	1
NMTAP	27	288	1
NMHLD	28	0	2	192
NMSTR	28	0	6
NMSI_	28	0	6	96	96	3
NMHLD	29	0	1	96
NMSTR	29	0	3
NMSI_	29	0	3	96	96	7
NMTAP	29	192	0
NMTAP	29	288	0
NMSTR	30	0	1
NMSI_	30	0	1	96	96	4
NMHLD	30	0	5	192
NMSTR	31	0	4
NMSI_	31	0	4	96	96	0
NMHLD	31	0	6	96
NMTAP	31	192	7
NMTAP	31	288	6
NMTAP	32	0	0
NMSTR	32	0	6
NMSI_	32	0	6	96	48	4
NMTAP	32	96	0
NMSTR	32	192	1
NMSI_	32	192	1	96	48	3
NMTAP	32	192	7
NMTAP	32	288	7
NMTAP	33	0	0
NMSTR	33	0	6
NMSI_	33	0	6	96	48	3
NMTAP	33	96	0
NMSTR	33	192	1
NMSI_	33	192	1	96	48	4
NMTAP	33	192	7
NMTAP	33	288	6
NMTAP	34	0	3
NMTAP	34	0	5
NMTAP	34	96	1
NMTAP	34	96	4
NMTAP	34	192	3
NMTAP	34	192	7
NMTAP	34	288	1
NMTAP	34	288	5
NMTAP	35	0	0
NMTAP	35	48	0
NMTAP	35	96	0
NMTAP	35	144	0
NMSTR	35	192	0
NMSF_	35	192	0	96	48	4
BRTAP	35	288	0
EXSTR	36	0	1
NMSI_	36	0	1	96	48	4
NMTAP	36	96	1
NMSTR	36	144	7
NMSI_	36	144	7	96	48	3
NMTAP	36	240	7
NMTAP	36	288	0
NMTAP	37	0	1
NMTAP	37	48	1
NMTAP	37	96	2
NMTAP	37	144	2
NMTAP	37	192	3
NMTAP	37	240	3
NMTAP	37	288	3
NMTAP	37	288	4
NMSTR	38	0	5
NMSI_	38	0	5	96	48	0
NMTAP	38	96	5
NMSTR	38	144	3
NMSI_	38	144	3	96	48	7
NMTAP	38	240	3
NMTAP	38	288	4
NMTAP	39	0	5
NMTAP	39	48	5
NMTAP	39	96	6
NMTAP	39	144	6
NMTAP	39	192	7
BRTAP	39	288	0
NMSTR	40	0	6
NMSI_	40	0	6	96	48	3
NMTAP	40	96	6
NMSTR	40	144	0
NMSI_	40	144	0	96	48	4
NMTAP	40	240	0
NMTAP	40	288	7
NMTAP	41	0	6
NMTAP	41	48	6
NMTAP	41	96	4
NMTAP	41	144	4
NMTAP	41	192	5
NMTAP	41	240	5
NMTAP	41	288	3
NMTAP	41	288	5
NMSTR	42	0	2
NMSI_	42	0	2	96	48	0
NMTAP	42	96	2
NMSTR	42	144	4
NMSI_	42	144	4	96	48	6
NMTAP	42	240	4
NMTAP	42	288	3
BXHLD	43	0	1	48
BXHLD	43	0	7	48
BXHLD	43	96	4	48
BXHLD	43	96	5	48
BXHLD	43	192	0	48
BXHLD	43	192	6	48
BXHLD	43	288	2	48
BXHLD	43	288	3	48
NMSTR	44	0	1
NMSI_	44	0	1	96	48	4
NMTAP	44	96	1
NMSTR	44	144	5
NMSI_	44	144	5	96	48	0
NMTAP	44	240	5
NMTAP	44	288	1
NMHLD	45	0	1	48
NMHLD	45	48	3	48
NMHLD	45	96	2	48
NMHLD	45	144	4	48
NMHLD	45	192	3	48
NMHLD	45	240	5	48
NMTAP	45	288	4
NMSTR	46	0	5
NMSI_	46	0	5	96	48	0
NMTAP	46	96	5
NMSTR	46	144	2
NMSI_	46	144	2	96	48	7
NMTAP	46	240	2
NMTAP	46	288	6
NMTAP	47	0	5
NMTAP	47	48	5
NMTAP	47	96	3
NMTAP	47	144	3
NMTAP	47	192	4
NMTAP	47	288	1
NMTAP	47	288	7
NMSTR	48	0	1
NMSI_	48	0	1	96	48	4
NMTAP	48	96	1
NMSTR	48	144	5
NMSI_	48	144	5	96	48	7
NMTAP	48	240	5
NMSTR	48	288	2
NMSI_	48	288	2	96	48	0
NMTAP	49	0	2
NMSTR	49	48	6
NMSI_	49	48	6	96	48	3
NMTAP	49	144	6
NMSTR	49	192	0
NMSI_	49	192	0	96	48	4
NMTAP	49	288	0
EXTAP	50	0	3
EXTAP	50	0	7
EXTAP	50	48	3
EXTAP	50	48	7
EXTAP	50	96	2
EXTAP	50	96	6
EXTAP	50	144	2
EXTAP	50	144	6
EXTAP	50	192	1
EXTAP	50	192	5
EXTAP	50	240	1
EXTAP	50	240	5
EXTAP	50	288	0
EXTAP	50	288	4
EXSTR	50	336	0
NMSXL	50	336	0	96	336	3
NMSXR	50	336	0	96	336	5
EXTAP	50	336	4
EXHLD	53	0	6	1920
NMTTP	54	0	3	B	0	M1
NMTTP	54	0	4	B	0	M1
NMTTP	55	0	1	B	0	M1
NMTTP	55	0	1	E	0	M1
NMTTP	55	0	2	E	0	M1
NMTTP	56	0	0	E	0	M1
NMTTP	56	0	7	B	0	M1
NMTTP	56	0	7	E	0	M1
NMTTP	57	0	5	B	0	M1
NMTTP	57	0	6	B	0	M1
NMTTP	57	0	6	E	0	M1
NMTTP	57	192	2	B	0	M1
NMTTP	57	192	3	B	0	M1
NMTTP	57	192	3	E	0	M1
EXSTR	58	0	0
NMSCR	58	0	0	96	480	6
EXTAP	60	0	6
NMTAP	60	48	4
NMTAP	60	96	5
NMTAP	60	144	3
NMTAP	60	192	4
NMTAP	60	240	2
NMTAP	60	288	3
NMTAP	60	336	1
NMTTP	61	48	7	E	0	M1
NMTTP	61	96	0	E	0	M1
NMTTP	61	144	6	E	0	M1
NMTTP	61	192	1	E	0	M1
NMTTP	61	240	5	E	0	M1
NMTTP	61	288	2	E	0	M1
NMTTP	61	336	4	E	0	M1
EXTAP	62	48	1
NMTAP	62	96	3
NMTAP	62	144	2
NMTAP	62	192	4
NMTAP	62	240	3
NMTAP	62	288	5
NMTAP	62	336	4
NMTTP	63	48	1	E	0	M1
NMTTP	63	96	0	E	0	M1
NMTTP	63	144	2	E	0	M1
NMTTP	63	192	7	E	0	M1
NMTTP	63	240	3	E	0	M1
NMTTP	63	288	6	E	0	M1
NMTTP	63	336	4	E	0	M1
EXTAP	64	48	6
NMTAP	64	96	7
NMTAP	64	144	5
NMTAP	64	192	0
NMTAP	64	240	4
NMTAP	64	288	1
NMTAP	64	336	3
NMTTP	65	48	5	E	0	M1
NMTTP	65	96	4	E	0	M1
NMTTP	65	144	6	E	0	M1
NMTTP	65	192	3	E	0	M1
NMTTP	65	240	7	E	0	M1
NMTTP	65	288	2	E	0	M1
NMTTP	65	336	0	E	0	M1
EXTAP	66	48	1
NMTAP	66	96	7
NMTAP	66	144	2
NMTAP	66	192	6
NMTAP	66	240	3
NMTAP	66	288	5
NMHLD	66	336	5	48
EXTAP	67	48	3
NMTAP	67	96	5
NMTAP	67	144	2
NMTAP	67	192	6
NMTAP	67	240	1
NMTAP	67	288	7
EXTAP	67	336	0
EXHLD	68	0	0	384
NMHLD	69	96	1	96
NMHLD	69	96	7	96
NMHLD	69	240	2	96
NMHLD	69	240	6	96
NMHLD	70	0	3	384
NMHLD	70	0	5	384
EXHLD	71	96	3	96
NMHLD	71	240	2	96
NMHLD	71	240	4	96
NMTAP	72	0	1
NMHLD	72	0	5	288
NMTAP	72	96	1
NMTAP	72	192	1
NMTAP	72	288	1
NMHLD	73	0	3	288
NMTAP	73	0	7
NMTAP	73	96	7
NMTAP	73	192	7
NMTAP	73	288	7
NMTAP	74	0	2
NMHLD	74	0	4	96
NMTAP	74	96	2
NMHLD	74	192	0	96
NMTAP	74	192	6
NMTAP	74	288	6
BRTAP	75	0	2
BRTAP	75	96	0
BRTAP	75	192	6
BRTAP	75	288	4
BRTAP	76	0	2
NMTAP	76	48	3
NMTAP	76	96	0
NMTAP	76	144	7
NMTAP	76	192	4
NMTAP	76	240	5
NMTAP	76	288	0
NMTAP	76	336	7
NMTAP	77	0	2
NMTAP	77	48	3
NMTAP	77	96	1
NMTAP	77	144	7
NMTAP	77	192	4
NMTAP	77	240	6
NMTAP	77	288	1
NMTAP	77	336	0
NMTAP	78	0	2
NMTAP	78	48	4
NMTAP	78	96	0
NMTAP	78	144	6
NMTAP	78	192	3
NMTAP	78	240	5
NMTAP	78	288	0
NMTAP	78	336	7
NMSTR	79	0	1
NMSLR	79	0	1	96	96	5
NMSTR	79	96	5
NMSLR	79	96	5	96	96	1
NMTAP	79	192	1
NMTAP	79	288	5
NMTAP	80	0	5
NMTAP	80	48	4
NMTAP	80	96	7
NMTAP	80	144	1
NMTAP	80	192	3
NMTAP	80	240	2
NMTAP	80	288	6
NMTAP	80	336	0
NMTAP	81	0	5
NMTAP	81	48	3
NMTAP	81	96	0
NMTAP	81	144	2
NMTAP	81	192	3
NMTAP	81	240	1
NMTAP	81	288	5
NMTAP	81	336	2
NMTAP	82	0	7
NMTAP	82	48	4
NMTAP	82	96	6
NMTAP	82	144	3
NMTAP	82	192	5
NMTAP	82	240	2
NMTAP	82	288	4
NMTAP	82	336	1
NMTAP	83	0	0
NMTAP	83	0	7
NMTAP	83	96	3
NMTAP	83	96	4
NMSTR	83	192	0
NMSI_	83	192	0	96	48	4
NMSTR	83	192	7
NMSI_	83	192	7	96	48	3
NMSTR	84	0	1
NMSI_	84	0	1	96	48	4
NMSTR	84	96	7
NMSI_	84	96	7	96	48	3
NMSTR	84	192	0
NMSI_	84	192	0	96	48	4
NMSTR	84	288	6
NMSI_	84	288	6	96	48	3
NMSTR	85	0	2
NMSI_	85	0	2	96	48	7
NMSTR	85	96	5
NMSI_	85	96	5	96	48	0
NMSTR	85	192	1
NMSI_	85	192	1	96	48	4
NMTAP	85	288	7
NMTAP	86	0	2
NMTAP	86	0	6
NMTAP	86	96	7
NMTAP	86	144	1
NMTAP	86	192	7
NMTAP	86	288	3
NMTAP	86	288	5
NMTAP	87	0	0
NMTAP	87	0	1
NMTAP	87	96	4
NMTAP	87	96	5
NMSTR	87	192	0
NMSI_	87	192	0	96	48	4
NMSTR	87	192	1
NMSI_	87	192	1	96	48	5
NMTAP	87	288	0
NMTAP	87	288	1
NMSTR	88	0	2
NMSI_	88	0	2	96	48	4
NMSTR	88	96	6
NMSI_	88	96	6	96	48	0
NMSTR	88	192	1
NMSI_	88	192	1	96	48	4
NMSTR	88	288	5
NMSI_	88	288	5	96	48	0
NMTAP	89	0	1
NMTAP	89	96	2
NMTAP	89	96	3
NMTAP	89	192	5
NMHLD	89	192	7	96
NMTAP	89	288	4
NMTAP	89	336	4
EXTAP	90	0	7
EXTAP	90	48	3
NMTAP	90	96	0
NMTAP	90	144	4
NMTAP	90	192	1
NMTAP	90	240	5
NMTAP	90	288	2
NMTAP	90	336	6
EXTAP	91	0	3
NMTAP	91	48	3
EXTAP	91	96	3
NMTAP	91	144	3
EXSTR	91	192	3
NMSF_	91	192	3	96	48	7
BRTAP	91	288	3
EXTAP	92	0	0
EXTAP	92	0	6
NMTAP	92	96	1
NMTAP	92	144	0
NMSTR	92	192	1
NMSI_	92	192	1	96	48	4
NMTAP	92	288	1
NMSTR	92	288	6
NMSI_	92	288	6	96	48	3
NMTAP	93	0	0
NMTAP	93	0	6
NMSTR	93	96	2
BRSCL	93	96	2	96	48	7
NMTAP	93	96	4
NMHLD	93	192	5	96
EXTAP	93	288	0
NMTAP	94	0	2
NMTAP	94	0	6
NMTAP	94	96	6
NMTAP	94	144	7
NMSTR	94	192	6
NMSI_	94	192	6	96	48	3
NMSTR	94	288	0
BRSI_	94	288	0	96	48	4
NMTAP	94	288	6
NMHLD	95	0	6	96
NMTAP	95	96	2
NMSTR	95	192	1
NMSI_	95	192	1	96	48	3
NMSTR	95	192	5
NMSI_	95	192	5	96	48	3
NMTAP	95	288	1
NMTAP	95	288	5
EXTAP	96	0	2
EXTAP	96	0	6
NMTAP	96	96	1
NMTAP	96	144	0
NMSTR	96	192	1
NMSI_	96	192	1	96	48	4
NMTAP	96	288	1
NMSTR	96	288	6
NMSI_	96	288	6	96	48	3
NMTAP	97	0	0
NMTAP	97	0	6
NMTAP	97	96	1
NMTAP	97	192	0
NMTAP	97	192	4
NMSTR	97	240	0
NMSI_	97	240	0	96	48	4
NMTAP	97	240	4
NMTAP	97	336	0
NMHLD	97	336	6	336
NMTAP	98	96	5
NMTAP	98	192	2
NMTAP	98	288	7
EXTAP	99	0	0
EXTAP	99	0	6
NMTAP	99	96	1
NMTAP	99	96	3
NMTAP	99	192	4
NMTAP	99	192	6
NMSTR	99	288	1
NMSI_	99	288	1	96	48	4
NMTAP	99	288	3
NMTAP	100	0	1
NMSTR	100	0	7
NMSI_	100	0	7	96	48	3
EXSTR	100	96	0
NMSI_	100	96	0	96	48	4
NMTAP	100	96	7
NMTAP	100	192	0
NMSTR	100	192	6
NMSI_	100	192	6	96	48	3
NMSTR	100	288	1
NMSI_	100	288	1	96	48	4
NMTAP	100	288	6
NMTAP	101	0	1
NMTAP	101	0	7
EXTAP	101	96	3
EXTAP	101	96	5
NMTAP	101	192	0
NMTAP	101	192	7
NMTAP	101	240	0
NMTAP	101	240	7
NMTAP	101	264	1
NMTAP	101	264	6
NMTAP	101	288	2
NMTAP	101	288	5
EXTAP	102	0	1
EXSTR	102	0	6
NMSI_	102	0	6	96	48	3
NMSTR	102	96	2
NMSI_	102	96	2	96	48	0
EXTAP	102	96	6
EXTAP	102	192	2
NMSTR	102	192	4
NMSI_	102	192	4	96	48	6
EXSTR	102	288	1
NMSI_	102	288	1	96	48	3
EXTAP	102	288	4
EXTAP	103	0	1
EXSTR	103	0	7
NMSI_	103	0	7	96	48	5
NMTAP	103	96	7
NMTAP	103	192	0
EXTAP	103	192	4
NMTAP	103	288	0
NMTAP	103	288	4
NMTAP	104	0	1
EXTAP	104	0	7
NMTAP	104	48	2
EXTAP	104	96	3
NMTAP	104	96	7
NMTAP	104	144	6
NMTAP	104	192	0
EXTAP	104	192	5
NMTAP	104	240	1
EXTAP	104	288	2
NMTAP	104	288	6
NMTAP	104	336	5
NMTAP	105	0	2
EXTAP	105	0	4
NMTAP	105	48	1
EXTAP	105	96	0
NMTAP	105	96	5
NMTAP	105	144	6
NMTAP	105	192	3
EXTAP	105	192	7
NMTAP	105	240	2
EXTAP	105	288	1
EXTAP	105	288	6
EXTAP	105	336	1
EXTAP	105	336	6
NMTAP	106	0	0
NMTAP	106	24	7
NMTAP	106	48	0
NMTAP	106	72	7
NMTAP	106	96	0
NMTAP	106	120	7
NMTAP	106	144	0
NMTAP	106	168	7
EXTAP	106	192	0
EXTAP	106	204	1
EXTAP	106	216	2
EXTAP	106	228	3
EXTAP	106	240	4
EXTAP	106	252	5
EXTAP	106	264	6
EXTAP	106	276	7
BXTAP	106	288	0
BXTAP	106	300	1
BXTAP	106	312	2
BXTAP	106	324	3
BXTAP	106	336	4
BXTAP	106	348	5
BXTAP	106	360	6
BXTAP	106	372	7
BXTAP	107	0	0
NMTTP	107	0	0	C	1	M1
NMSTR	108	0	1
NMSCR	108	0	1	96	672	6
NMTTP	108	288	5	E	0	M1
NMTTP	109	0	5	B	0	M1
NMTTP	109	192	6	B	0	M1
NMSTR	110	0	7
NMSCL	110	0	7	96	672	3
NMTTP	110	288	6	B	0	M1
NMTTP	111	0	4	B	0	M1
NMTTP	111	192	0	E	0	M1
NMTTP	111	288	1	E	0	M1
NMSTR	112	0	2
NMSCL	112	0	2	96	480	6
NMTTP	112	288	3	B	0	M1
NMTTP	113	0	5	B	0	M1
NMTTP	113	192	0	C	0	M1
NMTTP	114	0	0	C	0	M1
NMTTP	114	0	1	B	0	M1
NMTTP	114	0	2	B	0	M1
NMTTP	114	0	2	E	0	M1
NMTTP	114	0	5	B	0	M1
NMTTP	114	0	6	B	0	M1
NMTTP	114	0	6	E	0	M1

T_REC_TAP	336
T_REC_BRK	12
T_REC_XTP	91
T_REC_BXX	11
T_REC_HLD	31
T_REC_XHO	3
T_REC_BHO	0
T_REC_BXH	8
T_REC_STR	80
T_REC_BST	0
T_REC_XST	9
T_REC_XBS	0
T_REC_TTP	57
T_REC_THO	1
T_REC_SLD	88
T_REC_BSL	2
T_REC_ALL	729
T_NUM_TAP	573
T_NUM_BRK	33
T_NUM_HLD	35
T_NUM_SLD	88
T_NUM_ALL	729
T_JUDGE_TAP	596
T_JUDGE_HLD	80
T_JUDGE_SLD	90
T_JUDGE_ALL	766
TTM_EACHPAIRS	121
TTM_SCR_TAP	286500
TTM_SCR_BRK	85800
TTM_SCR_HLD	35000
TTM_SCR_SLD	132000
TTM_SCR_ALL	539300
TTM_SCR_S	519950
TTM_SCR_SS	536000
TTM_RAT_ACV	10061

