VERSION	0.00.00	1.04.00
FES_MODE	0
BPM_DEF	240.000	240.000	240.000	240.000
MET_DEF	4	4
RESOLUTION	384
CLK_DEF	384
COMPATIBLE_CODE	MA2

BPM	0	0	240.000
MET	0	0	4	4

EXSTR	2	0	7
NMSCR	2	0	7	96	288	3
CNSV_	3	0	3	0	48	6
CNSCL	3	48	6	0	144	5
EXTAP	4	0	1
EXTAP	4	0	7
EXHLD	4	96	1	192
EXHLD	4	96	7	96
NMTAP	5	0	5
NMTAP	5	0	7
NMHLD	5	96	5	192
NMHLD	5	96	7	96
NMTAP	6	0	1
NMTAP	6	0	7
NMHLD	6	96	1	192
NMHLD	6	96	7	96
NMTAP	7	0	5
NMTAP	7	0	7
NMTAP	7	192	2
NMTAP	7	192	4
NMTAP	8	0	1
NMTAP	8	0	7
NMHLD	8	96	1	192
NMHLD	8	96	7	96
NMTAP	9	0	5
NMTAP	9	0	7
NMHLD	9	96	5	192
NMHLD	9	96	7	96
NMTAP	10	0	2
NMTAP	10	0	4
NMTAP	10	192	1
NMTAP	10	192	7
BRHLD	11	0	4	192
BRSTR	11	0	6
NMSI_	11	0	6	96	96	2
NMTAP	12	0	0
NMTAP	12	0	1
NMTAP	12	96	0
NMTAP	12	96	1
NMTAP	12	192	2
NMTAP	12	192	3
NMTAP	12	288	2
NMTAP	12	288	3
NMTAP	13	0	4
NMTAP	13	0	5
NMTAP	13	96	4
NMTAP	13	96	5
NMTAP	13	192	3
NMTAP	13	192	6
NMTAP	14	0	6
NMTAP	14	0	7
NMTAP	14	96	6
NMTAP	14	96	7
NMTAP	14	192	4
NMTAP	14	192	5
NMTAP	14	288	4
NMTAP	14	288	5
NMTAP	15	0	2
NMTAP	15	0	3
NMTAP	15	96	2
NMTAP	15	96	3
NMTAP	15	192	1
NMTAP	15	192	4
EXTAP	16	0	6
EXTAP	16	0	7
EXTAP	16	144	0
EXTAP	16	144	7
EXTAP	16	288	0
EXTAP	16	288	1
EXTAP	17	0	2
EXTAP	17	0	7
EXTAP	17	192	4
EXTAP	17	192	5
BXTAP	17	336	3
BXSTR	17	336	6
NMSCR	17	336	6	96	336	4
NMTTP	19	0	0	C	0	M1
NMHLD	20	0	5	288
NMTAP	20	288	4
NMHLD	21	0	4	288
NMTAP	21	288	3
NMHLD	22	0	3	288
NMTAP	22	288	2
NMHLD	23	0	2	192
NMTAP	23	192	1
EXHLD	24	0	2	48
EXHLD	24	0	3	48
EXHLD	24	144	2	48
EXHLD	24	144	3	48
NMSTR	24	288	1
NMSI_	24	288	1	96	96	7
NMTAP	24	288	4
NMTAP	25	192	6
EXHLD	26	0	4	48
EXHLD	26	0	5	48
EXHLD	26	144	4	48
EXHLD	26	144	5	48
NMSTR	26	288	3
NMSI_	26	288	3	96	96	1
NMTAP	26	288	6
NMTAP	27	192	7
EXHLD	28	0	6	48
EXHLD	28	0	7	48
EXHLD	28	144	6	48
EXHLD	28	144	7	48
NMTAP	28	288	0
NMSTR	28	288	5
NMSI_	28	288	5	96	96	3
NMTAP	29	192	2
EXHLD	30	0	0	48
EXHLD	30	0	1	48
EXHLD	30	144	0	48
EXHLD	30	144	1	48
NMSTR	30	288	2
NMSI_	30	288	2	96	96	4
NMSTR	30	288	7
NMSI_	30	288	7	96	96	5
NMTAP	32	0	2
NMTAP	32	0	3
NMTAP	32	192	4
NMTAP	32	192	5
NMTAP	33	0	1
NMTAP	33	0	3
NMTAP	33	192	4
NMTAP	33	192	6
NMTAP	34	0	0
NMTAP	34	0	1
NMTAP	34	96	0
NMTAP	34	96	1
NMTAP	34	192	6
NMTAP	34	192	7
NMTAP	34	288	6
NMTAP	34	288	7
NMTAP	35	0	0
NMSTR	35	0	5
BRSLL	35	0	5	96	192	7
NMHLD	36	0	2	96
NMTAP	36	96	0
NMHLD	36	144	0	96
NMTAP	36	240	7
NMHLD	36	288	7	96
NMTAP	37	0	5
NMTAP	37	96	4
NMTAP	37	192	2
NMTAP	37	192	3
NMTAP	37	288	1
NMTAP	37	288	4
NMHLD	38	0	1	96
NMTAP	38	96	3
NMHLD	38	144	3	96
NMTAP	38	240	4
NMHLD	38	288	4	96
NMTAP	39	0	6
NMTAP	39	96	7
NMTAP	39	192	0
NMTAP	39	192	6
NMHLD	40	0	6	96
NMTAP	40	96	4
NMHLD	40	144	4	96
NMTAP	40	240	3
NMHLD	40	288	3	96
NMTAP	41	0	1
NMTAP	41	96	0
NMTAP	41	192	6
NMTAP	41	192	7
NMTAP	41	288	0
NMTAP	41	288	5
NMHLD	42	0	5	96
NMTAP	42	96	7
NMHLD	42	144	7	96
NMTAP	42	240	0
NMHLD	42	288	0	96
NMSTR	43	0	1
BRSI_	43	0	1	96	96	4
NMHLD	44	0	5	96
NMTAP	44	96	7
NMHLD	44	144	7	96
NMTAP	44	240	0
NMHLD	44	288	0	96
NMTAP	45	0	2
NMTAP	45	96	3
NMTAP	45	192	4
NMTAP	45	192	5
NMTAP	45	288	3
NMTAP	45	288	6
NMHLD	46	0	6	96
NMTAP	46	96	4
NMHLD	46	144	4	96
NMTAP	46	240	3
NMHLD	46	288	3	96
NMTAP	47	0	1
NMTAP	47	96	0
NMTAP	47	192	1
NMTAP	47	192	7
NMTAP	48	0	0
NMTAP	48	0	7
NMTAP	48	96	1
NMTAP	48	96	2
NMTAP	48	144	1
NMTAP	48	144	2
NMTAP	48	240	3
NMTAP	48	240	4
NMTAP	48	288	3
NMTAP	48	288	4
NMTAP	49	0	5
NMTAP	49	0	6
NMTAP	49	48	5
NMTAP	49	48	6
NMTAP	49	144	0
NMTAP	49	144	7
NMTAP	49	192	0
NMTAP	49	192	7
NMTAP	49	288	1
NMTAP	49	288	6
EXTAP	50	0	0
EXTAP	50	48	7
EXTAP	50	96	0
EXTAP	50	144	7
EXTAP	50	192	1
EXTAP	50	240	6
EXTAP	50	288	1
BXSTR	50	336	6
BRSI_	50	336	6	96	96	2
NMTTP	52	0	3	D	0	M1
NMTTP	53	0	1	A	0	M1
NMTTP	54	0	0	D	0	M1
NMTTP	55	0	6	A	0	M1
NMTTP	56	0	5	D	0	M1
NMTTP	57	0	3	A	0	M1
NMTTP	58	0	0	B	0	M1
NMTTP	58	0	7	B	0	M1
NMHLD	60	0	5	144
NMHLD	60	144	4	144
NMSTR	60	288	3
NMSCR	60	288	3	96	192	6
NMHLD	62	0	2	144
NMHLD	62	144	3	144
NMSTR	62	288	4
NMSCL	62	288	4	96	192	1
NMHLD	64	0	5	144
NMHLD	64	144	6	144
NMTAP	64	288	7
NMHLD	65	0	7	192
NMSTR	65	192	1
NMSCR	65	192	1	96	288	5
EXHLD	68	0	4	288
EXHLD	68	0	6	288
EXTAP	69	96	3
EXTAP	69	96	4
EXTAP	69	240	2
EXTAP	69	240	3
EXHLD	70	0	1	288
EXHLD	70	0	3	288
EXTAP	71	96	3
EXTAP	71	96	4
EXTAP	71	240	4
EXTAP	71	240	5
NMSTR	72	0	6
NMSI_	72	0	6	96	96	4
NMHLD	72	0	7	192
NMHLD	73	0	0	192
NMSTR	73	0	1
NMSI_	73	0	1	96	96	3
NMSTR	74	0	0
NMSI_	74	0	0	96	96	3
NMSTR	74	0	7
NMSI_	74	0	7	96	96	4
BRTAP	75	0	1
BRTAP	75	0	6
NMTAP	76	0	0
NMTAP	76	0	1
NMTAP	76	96	2
NMTAP	76	96	3
NMTAP	76	192	4
NMTAP	76	192	5
NMTAP	76	288	6
NMTAP	76	288	7
NMHLD	77	0	1	96
NMHLD	77	96	3	96
NMHLD	77	192	5	96
NMTAP	77	288	6
NMTAP	78	0	6
NMTAP	78	0	7
NMTAP	78	96	4
NMTAP	78	96	5
NMTAP	78	192	2
NMTAP	78	192	3
NMTAP	78	288	0
NMTAP	78	288	1
NMSTR	79	0	2
NMSI_	79	0	2	96	96	5
NMSTR	79	0	7
NMSI_	79	0	7	96	96	4
NMTAP	80	0	6
NMTAP	80	0	7
NMTAP	80	96	4
NMTAP	80	96	5
NMTAP	80	192	2
NMTAP	80	192	3
NMTAP	80	288	0
NMTAP	80	288	1
NMHLD	81	0	6	96
NMHLD	81	96	4	96
NMHLD	81	192	2	96
NMTAP	81	288	1
NMTAP	82	0	0
NMTAP	82	0	1
NMTAP	82	96	2
NMTAP	82	96	3
NMTAP	82	192	4
NMTAP	82	192	5
NMTAP	82	288	6
NMTAP	82	288	7
NMSTR	83	0	0
BRSI_	83	0	0	96	96	5
NMSTR	83	0	1
BRSI_	83	0	1	96	96	4
NMTAP	84	0	4
NMTAP	84	0	5
NMTAP	84	96	6
NMTAP	84	96	7
NMTAP	84	192	0
NMTAP	84	192	1
NMTAP	84	288	2
NMTAP	84	288	3
NMHLD	85	0	5	96
NMHLD	85	96	7	96
NMHLD	85	192	1	96
NMTAP	85	288	2
NMTAP	86	0	2
NMTAP	86	0	3
NMTAP	86	96	0
NMTAP	86	96	1
NMTAP	86	192	6
NMTAP	86	192	7
NMTAP	86	288	4
NMTAP	86	288	5
NMSTR	87	0	3
NMSI_	87	0	3	96	96	0
NMSTR	87	0	6
NMSI_	87	0	6	96	96	1
NMTAP	88	0	2
NMTAP	88	0	3
NMTAP	88	96	0
NMTAP	88	96	1
NMTAP	88	192	6
NMTAP	88	192	7
NMTAP	88	288	4
NMTAP	88	288	5
NMHLD	89	0	2	96
NMHLD	89	96	0	96
NMTAP	89	192	7
NMTAP	89	288	1
NMTAP	89	288	6
NMTAP	90	0	2
NMTAP	90	48	5
NMTAP	90	96	2
NMTAP	90	144	5
NMTAP	90	192	1
NMTAP	90	240	6
NMTAP	90	288	1
NMTAP	90	336	6
BXTAP	91	0	0
BXTAP	91	0	7
NMTAP	92	0	2
NMTAP	92	0	3
NMTAP	92	96	0
NMTAP	92	96	1
NMTAP	92	144	0
NMTAP	92	144	1
NMTAP	92	240	4
NMTAP	92	240	5
NMTAP	92	288	4
NMTAP	92	288	5
NMTAP	93	0	6
NMTAP	93	0	7
NMTAP	93	96	2
NMTAP	93	96	3
NMTAP	93	192	0
NMTAP	93	192	1
NMTAP	93	288	2
NMTAP	93	288	7
NMTAP	94	0	4
NMTAP	94	0	5
NMTAP	94	96	6
NMTAP	94	96	7
NMTAP	94	144	6
NMTAP	94	144	7
NMTAP	94	240	2
NMTAP	94	240	3
NMTAP	94	288	2
NMTAP	94	288	3
NMTAP	95	0	0
NMTAP	95	0	1
NMTAP	95	96	4
NMTAP	95	96	5
NMTAP	95	192	3
NMTAP	95	192	6
NMTAP	95	240	3
NMTAP	95	240	6
NMHLD	96	0	1	96
NMTAP	96	96	3
NMHLD	96	144	3	96
NMTAP	96	240	4
NMHLD	96	288	4	96
NMTAP	97	0	6
NMTAP	97	96	0
NMTAP	97	96	7
NMTAP	97	192	1
NMTAP	97	192	6
NMTAP	97	240	1
NMTAP	97	240	6
NMHLD	97	336	2	432
NMTAP	97	336	5
NMTAP	98	96	7
NMTAP	98	192	0
NMSTR	98	288	1
NMSUR	98	288	1	96	192	3
NMTAP	100	0	0
NMTAP	100	0	1
NMTAP	100	96	2
NMTAP	100	96	3
NMTAP	100	192	4
NMTAP	100	192	5
NMTAP	100	288	6
NMTAP	100	288	7
NMTAP	100	336	6
NMTAP	100	336	7
NMTAP	101	0	6
NMTAP	101	0	7
NMTAP	101	96	4
NMTAP	101	96	5
NMTAP	101	192	2
NMTAP	101	192	3
NMTAP	101	288	0
NMTAP	101	288	1
NMTAP	101	336	0
NMTAP	101	336	1
NMTAP	102	0	0
NMTAP	102	0	1
NMTAP	102	96	2
NMTAP	102	96	3
NMTAP	102	192	4
NMTAP	102	192	5
NMTAP	102	288	0
NMTAP	102	288	6
NMTAP	102	336	0
NMTAP	102	336	6
NMTAP	103	0	0
NMTAP	103	0	6
NMTAP	103	96	4
NMTAP	103	96	5
NMSTR	103	192	3
NMSI_	103	192	3	96	96	7
NMTAP	104	0	6
NMTAP	104	48	6
NMTAP	104	96	0
NMTAP	104	144	0
NMTAP	104	192	5
NMTAP	104	240	5
NMTAP	104	288	1
NMTAP	104	336	1
NMTAP	105	0	4
NMTAP	105	48	4
NMTAP	105	96	2
NMTAP	105	144	2
NMTAP	105	192	3
EXSTR	105	240	3
BRSCL	105	240	3	96	240	4
BXTAP	107	0	0
BXTAP	107	0	7
NMSTR	108	0	2
NMSCR	108	0	2	96	480	5
NMSTR	110	0	6
NMSCL	110	0	6	96	480	3
NMSTR	112	0	2
NMSCL	112	0	2	96	672	3
NMTTP	114	0	0	C	0	M1

T_REC_TAP	295
T_REC_BRK	2
T_REC_XTP	27
T_REC_BXX	5
T_REC_HLD	54
T_REC_XHO	22
T_REC_BHO	1
T_REC_BXH	0
T_REC_STR	25
T_REC_BST	1
T_REC_XST	2
T_REC_XBS	2
T_REC_TTP	10
T_REC_THO	0
T_REC_SLD	24
T_REC_BSL	6
T_REC_ALL	476
T_NUM_TAP	359
T_NUM_BRK	17
T_NUM_HLD	76
T_NUM_SLD	24
T_NUM_ALL	476
T_JUDGE_TAP	369
T_JUDGE_HLD	111
T_JUDGE_SLD	30
T_JUDGE_ALL	510
TTM_EACHPAIRS	157
TTM_SCR_TAP	179500
TTM_SCR_BRK	44200
TTM_SCR_HLD	76000
TTM_SCR_SLD	36000
TTM_SCR_ALL	335700
TTM_SCR_S	324000
TTM_SCR_SS	334000
TTM_RAT_ACV	10050

