VERSION	0.00.00	1.04.00
FES_MODE	0
BPM_DEF	180.000	180.000	180.000	180.000
MET_DEF	4	4
RESOLUTION	384
CLK_DEF	384
COMPATIBLE_CODE	MA2

BPM	0	0	180.000
MET	0	0	4	4

NMTAP	1	0	1
NMTAP	1	192	1
NMTAP	2	0	0
NMTAP	2	96	0
NMSTR	2	192	0
NMSUR	2	192	0	96	48	4
EXTAP	2	288	7
NMTAP	3	0	6
NMHLD	3	48	6	624
NMTTP	3	96	5	E	0	M1
NMTAP	3	192	4
NMTTP	3	288	4	E	0	M1
NMTAP	4	0	4
NMTTP	4	96	5	E	0	M1
NMTAP	4	192	4
NMTTP	4	288	4	E	0	M1
NMTAP	5	0	1
NMHLD	5	48	1	624
NMTTP	5	96	3	E	0	M1
NMTAP	5	192	3
NMTTP	5	288	4	E	0	M1
NMTAP	6	0	3
NMTTP	6	96	3	E	0	M1
NMTAP	6	192	3
NMTTP	6	288	4	E	0	M1
NMTAP	7	0	2
NMTAP	7	0	4
NMTAP	7	48	3
NMTAP	7	48	5
EXTAP	7	96	0
NMTAP	7	192	2
NMTAP	7	192	4
NMTAP	7	240	3
NMTAP	7	240	5
EXTAP	7	288	0
NMTAP	8	0	2
NMTAP	8	0	4
NMTAP	8	48	3
NMTAP	8	48	5
EXTAP	8	96	0
NMTAP	8	192	1
NMTAP	8	192	4
NMTAP	8	240	3
NMTAP	8	240	6
EXTAP	8	288	0
NMTAP	9	0	2
NMTAP	9	0	4
NMTAP	9	48	3
NMTAP	9	48	5
EXTAP	9	96	0
NMTAP	9	192	2
NMTAP	9	192	4
NMTAP	9	240	3
NMTAP	9	240	5
EXTAP	9	288	0
NMTAP	10	0	2
NMTAP	10	0	4
NMTAP	10	48	3
NMTAP	10	48	5
EXTAP	10	96	0
NMTAP	10	192	1
NMTAP	10	192	4
NMTAP	10	240	3
NMTAP	10	240	6
EXSTR	10	288	0
NMSI_	10	288	0	96	48	4
BRTAP	11	0	7
NMTAP	11	96	6
NMTAP	11	144	6
NMTAP	11	192	4
NMTAP	11	288	1
NMHLD	11	336	1	96
NMHLD	12	48	3	96
NMTAP	12	144	0
NMTAP	12	192	0
NMTAP	12	288	2
NMTAP	12	288	4
BRTAP	13	0	7
BRTAP	13	48	7
NMTAP	13	96	1
NMTAP	13	144	1
NMTAP	13	192	3
NMTAP	13	192	5
NMTAP	13	240	3
NMTAP	13	240	5
NMTAP	13	288	6
NMHLD	13	336	6	96
NMHLD	14	48	4	96
NMTAP	14	144	7
NMTAP	14	192	7
NMHLD	14	288	2	96
NMTAP	14	288	5
NMTAP	15	0	4
NMTAP	15	48	3
NMTAP	15	48	5
EXTAP	15	96	0
NMTAP	15	192	2
NMTAP	15	192	4
NMTAP	15	240	3
NMTAP	15	240	5
EXTAP	15	288	0
NMTAP	16	0	2
NMTAP	16	0	4
NMTAP	16	48	3
NMTAP	16	48	5
EXTAP	16	96	0
NMTAP	16	192	1
NMTAP	16	192	4
NMTAP	16	240	3
NMTAP	16	240	6
EXTAP	16	288	0
NMTAP	17	0	2
NMTAP	17	0	4
NMTAP	17	48	3
NMTAP	17	48	5
EXTAP	17	96	0
NMTAP	17	192	2
NMTAP	17	192	4
NMTAP	17	240	3
NMTAP	17	240	5
EXTAP	17	288	0
NMTAP	18	0	2
NMTAP	18	0	4
NMTAP	18	48	3
NMTAP	18	48	5
EXTAP	18	96	0
NMTAP	18	192	1
NMTAP	18	192	4
NMTAP	18	240	3
NMTAP	18	240	6
EXSTR	18	288	0
NMSI_	18	288	0	96	48	4
BRTAP	19	0	7
NMTAP	19	96	3
NMTAP	19	96	6
NMSTR	19	192	1
NMSCL	19	192	1	96	48	6
NMTAP	19	192	4
NMTAP	19	288	5
NMHLD	19	336	5	96
NMHLD	20	48	7	96
NMTAP	20	144	3
NMTAP	20	192	3
NMTAP	20	288	1
NMTAP	20	288	5
BRTAP	21	0	2
BRTAP	21	48	2
NMTAP	21	96	1
NMTAP	21	96	3
NMTAP	21	192	4
NMSTR	21	192	6
NMSCR	21	192	6	96	48	1
NMTAP	21	288	2
NMHLD	21	336	2	96
NMHLD	22	48	0	96
NMTAP	22	144	4
NMTAP	22	192	4
NMTAP	22	288	2
NMTAP	22	288	6
NMTAP	23	0	3
NMTAP	23	48	5
NMTAP	23	96	0
NMTAP	23	96	7
NMTAP	23	192	4
NMTAP	23	240	2
NMTAP	23	288	0
NMTAP	23	288	7
NMTAP	24	0	3
NMTAP	24	48	5
NMTAP	24	96	0
NMTAP	24	96	7
NMTAP	24	192	4
NMTAP	24	240	3
NMTAP	24	288	0
NMTAP	24	288	7
NMTAP	25	0	4
NMTAP	25	48	2
NMTAP	25	96	0
NMTAP	25	96	7
NMTAP	25	192	3
NMTAP	25	240	5
NMTAP	25	288	0
NMTAP	25	288	7
NMTAP	26	0	4
NMTAP	26	48	2
NMTAP	26	96	0
NMTAP	26	96	7
NMTAP	26	192	6
NMTAP	26	240	6
NMTAP	26	264	4
NMTAP	26	288	5
NMTAP	26	336	1
NMTAP	26	360	3
NMTAP	27	0	2
NMTAP	27	96	0
NMTAP	27	96	1
NMTAP	27	192	6
NMTAP	27	192	7
NMTAP	27	288	4
NMTAP	27	288	5
NMTAP	27	336	4
NMSTR	27	336	5
NMSI_	27	336	5	96	48	1
NMSTR	28	48	0
NMSI_	28	48	0	96	48	4
NMTAP	28	144	7
NMTAP	28	192	7
NMTAP	28	288	2
NMTAP	28	288	6
BRTAP	29	0	5
BRTAP	29	48	5
NMTAP	29	96	6
NMTAP	29	96	7
NMTAP	29	192	0
NMTAP	29	192	1
NMTAP	29	288	2
NMTAP	29	288	3
NMSTR	29	336	2
NMSI_	29	336	2	96	48	6
NMTAP	29	336	3
NMSTR	30	48	7
NMSI_	30	48	7	96	48	3
NMTAP	30	144	0
NMTAP	30	192	0
NMTAP	30	288	1
NMTAP	30	288	5
NMTAP	31	0	4
NMTAP	31	48	2
NMTAP	31	96	0
NMTAP	31	96	1
NMTAP	31	192	3
NMTAP	31	240	5
NMTAP	31	288	6
NMTAP	31	288	7
NMTAP	32	0	4
NMTAP	32	48	2
NMTAP	32	96	0
NMTAP	32	96	1
NMTAP	32	192	3
NMTAP	32	240	5
NMTAP	32	288	6
NMTAP	32	288	7
NMTAP	33	0	4
NMTAP	33	48	2
NMTAP	33	96	0
NMTAP	33	96	1
NMTAP	33	192	4
NMTAP	33	240	6
NMTAP	33	288	0
NMTAP	33	288	7
NMTAP	34	0	2
NMTAP	34	0	5
NMTAP	34	96	0
NMTAP	34	120	7
NMTAP	34	144	0
NMTAP	34	168	7
NMTAP	34	192	0
NMSTR	34	288	6
NMSI_	34	288	6	96	48	3
NMSTR	34	288	7
NMSI_	34	288	7	96	48	2
NMTAP	35	0	6
NMTAP	35	0	7
NMSTR	35	96	0
NMSI_	35	96	0	96	48	5
NMSTR	35	96	1
NMSI_	35	96	1	96	48	4
NMTAP	35	192	0
NMTAP	35	192	1
NMSTR	35	288	6
BRSI_	35	288	6	96	48	2
NMTAP	35	288	7
NMHLD	36	0	0	192
CNSI_	36	48	2	0	48	5
CNSI_	36	96	5	0	96	3
NMSTR	36	288	0
NMSI_	36	288	0	96	48	5
NMSTR	36	288	1
NMSI_	36	288	1	96	48	4
NMTAP	37	0	0
NMTAP	37	0	1
NMSTR	37	96	6
NMSI_	37	96	6	96	48	3
NMSTR	37	96	7
NMSI_	37	96	7	96	48	2
NMTAP	37	192	6
NMTAP	37	192	7
NMTAP	37	288	0
NMSTR	37	288	1
BRSI_	37	288	1	96	48	6
NMHLD	38	0	7	192
CNSI_	38	48	6	0	48	3
CNSI_	38	96	3	0	48	5
NMSTR	38	288	6
NMSI_	38	288	6	96	48	3
NMSTR	38	288	7
NMSI_	38	288	7	96	48	2
NMTAP	39	0	6
NMTAP	39	0	7
NMSTR	39	96	0
NMSI_	39	96	0	96	48	5
NMSTR	39	96	1
NMSI_	39	96	1	96	48	4
NMTAP	39	192	0
NMTAP	39	192	1
NMSTR	39	288	6
BRSCR	39	288	6	96	48	0
NMTAP	39	288	7
NMHLD	40	0	0	192
CNSI_	40	48	0	0	48	4
CNSI_	40	96	4	0	48	2
NMSTR	40	288	0
NMSI_	40	288	0	96	48	5
NMSTR	40	288	1
NMSI_	40	288	1	96	48	4
NMTAP	41	0	0
NMTAP	41	0	1
NMSTR	41	96	6
NMSI_	41	96	6	96	48	3
NMSTR	41	96	7
NMSI_	41	96	7	96	48	2
NMTAP	41	192	6
NMTAP	41	192	7
NMTAP	41	288	0
NMSTR	41	288	1
BRSXL	41	288	1	96	144	7
NMHLD	42	0	4	192
BRTAP	42	288	0
BRSTR	42	288	5
NMSI_	42	288	5	96	48	2
NMSTR	43	0	1
NMSI_	43	0	1	96	48	6
NMTAP	43	0	5
NMTAP	43	96	1
NMSTR	43	96	5
NMSI_	43	96	5	96	48	2
NMSTR	43	192	1
NMSI_	43	192	1	96	48	6
NMTAP	43	192	5
NMTAP	43	288	1
NMTAP	43	288	5
NMHLD	44	0	0	96
NMTAP	44	0	4
NMTAP	44	96	2
NMHLD	44	144	2	96
NMTAP	44	240	3
NMTAP	44	288	1
NMSTR	44	288	4
NMSI_	44	288	4	96	48	7
NMSTR	45	0	0
NMSI_	45	0	0	96	48	3
NMTAP	45	0	4
NMTAP	45	96	0
NMSTR	45	96	4
NMSI_	45	96	4	96	48	7
NMSTR	45	192	0
NMSI_	45	192	0	96	48	3
NMTAP	45	192	4
NMTAP	45	288	0
NMTAP	45	288	4
NMHLD	46	0	2	96
NMTAP	46	0	6
NMTAP	46	96	4
NMHLD	46	144	4	96
NMTAP	46	240	5
NMTAP	46	288	3
NMSTR	46	288	6
NMSI_	46	288	6	96	48	1
NMSTR	47	0	2
NMSI_	47	0	2	96	48	5
NMTAP	47	0	6
NMTAP	47	96	2
NMSTR	47	96	7
NMSI_	47	96	7	96	48	4
NMSTR	47	192	3
NMSI_	47	192	3	96	48	0
NMTAP	47	192	7
NMTAP	47	288	3
NMTAP	47	288	6
NMTAP	48	0	1
NMHLD	48	0	5	96
NMTAP	48	96	3
NMHLD	48	144	3	96
NMTAP	48	240	2
NMSTR	48	288	1
NMSI_	48	288	1	96	48	6
NMTAP	48	288	4
NMTAP	49	0	1
NMSTR	49	0	5
NMSI_	49	0	5	96	48	2
NMSTR	49	96	0
NMSI_	49	96	0	96	48	3
NMTAP	49	96	5
NMTAP	49	192	0
NMSTR	49	192	4
NMSI_	49	192	4	96	48	7
NMTAP	49	288	2
NMTAP	49	288	4
NMTAP	50	0	3
NMTAP	50	0	6
NMTAP	50	96	1
NMTAP	50	96	4
NMTAP	50	144	1
NMTAP	50	144	4
NMTAP	50	240	5
NMHLD	50	288	6	768
NMTTP	51	0	1	B	0	M1
NMTTP	51	48	0	A	0	M1
NMTTP	51	144	7	E	0	M1
NMTTP	51	144	7	A	0	M1
NMTTP	51	144	7	D	0	M1
NMTTP	51	192	6	E	0	M1
NMTTP	51	240	5	E	0	M1
NMTTP	51	336	0	A	0	M1
NMTTP	51	336	1	E	0	M1
NMTTP	51	336	1	D	0	M1
NMTTP	52	0	2	E	0	M1
NMTTP	52	48	3	E	0	M1
NMTTP	52	144	5	E	0	M1
NMTTP	52	144	5	A	0	M1
NMTTP	52	144	5	D	0	M1
NMTTP	52	192	4	E	0	M1
NMTTP	52	240	3	D	0	M1
NMHLD	52	288	1	768
NMTTP	53	0	6	E	0	M1
NMTTP	53	48	7	A	0	M1
NMTTP	53	144	0	A	0	M1
NMTTP	53	144	1	E	0	M1
NMTTP	53	144	1	D	0	M1
NMTTP	53	192	2	E	0	M1
NMTTP	53	240	3	E	0	M1
NMTTP	53	336	7	E	0	M1
NMTTP	53	336	7	A	0	M1
NMTTP	53	336	7	D	0	M1
NMTTP	54	0	6	E	0	M1
NMTTP	54	48	5	E	0	M1
NMTTP	54	144	2	A	0	M1
NMTTP	54	144	3	E	0	M1
NMTTP	54	144	3	D	0	M1
NMTTP	54	192	4	E	0	M1
NMTTP	54	240	5	D	0	M1
NMHLD	54	288	6	768
NMTTP	55	0	6	E	0	M1
NMTTP	55	48	7	A	0	M1
NMTTP	55	144	3	B	0	M1
NMTTP	55	144	3	E	0	M1
NMTTP	55	144	3	A	0	M1
NMTTP	55	192	2	E	0	M1
NMTTP	55	240	1	E	0	M1
NMTTP	55	336	4	B	0	M1
NMTTP	55	336	4	A	0	M1
NMTTP	55	336	5	E	0	M1
NMTTP	56	0	6	E	0	M1
NMTTP	56	48	7	E	0	M1
NMTTP	56	144	1	E	0	M1
NMTTP	56	144	1	A	0	M1
NMTTP	56	144	1	D	0	M1
NMTTP	56	192	0	C	0	M1
NMTTP	56	240	3	B	0	M1
NMHLD	56	288	1	528
NMTTP	57	0	5	E	0	M1
NMTTP	57	48	4	E	0	M1
NMTTP	57	144	0	B	0	M1
NMTTP	57	144	0	E	0	M1
NMTTP	57	144	0	A	0	M1
NMTTP	57	192	2	E	0	M1
NMTTP	57	240	3	B	0	M1
NMTTP	57	336	7	E	0	M1
NMTTP	57	336	7	A	0	M1
NMTTP	57	336	7	D	0	M1
NMTTP	58	0	6	E	0	M1
NMTTP	58	48	5	E	0	M1
EXTAP	58	144	3
EXTAP	58	192	4
EXTAP	58	240	3
EXTAP	58	288	3
EXTAP	58	288	4
EXTAP	59	0	1
NMTAP	59	48	1
NMTAP	59	96	2
NMTAP	59	96	4
NMTAP	59	144	2
NMTAP	59	144	4
EXTAP	59	192	3
NMTAP	59	240	3
NMTAP	59	288	2
NMTAP	59	288	4
NMTAP	59	336	2
NMTAP	59	336	4
NMTAP	60	0	5
NMTAP	60	48	5
NMTAP	60	96	3
NMTAP	60	96	4
NMTAP	60	144	3
NMTAP	60	144	4
NMTAP	60	192	2
NMTAP	60	240	2
NMTAP	60	288	3
NMTAP	60	288	4
NMTAP	60	336	5
NMTAP	60	360	4
EXTAP	61	0	6
NMTAP	61	48	6
NMTAP	61	96	3
NMTAP	61	96	5
NMTAP	61	144	3
NMTAP	61	144	5
EXTAP	61	192	4
NMTAP	61	240	4
NMTAP	61	288	3
NMTAP	61	288	5
NMTAP	61	336	3
NMTAP	61	336	5
NMTAP	62	0	2
NMTAP	62	48	2
NMTAP	62	96	3
NMTAP	62	96	4
NMTAP	62	144	3
NMTAP	62	144	4
NMTAP	62	192	5
NMTAP	62	240	5
NMTAP	62	288	3
NMTAP	62	288	4
NMTAP	62	336	2
NMTAP	62	360	3
EXTAP	63	0	1
NMTAP	63	48	1
NMTAP	63	96	2
NMTAP	63	96	4
NMTAP	63	144	2
NMTAP	63	144	4
EXTAP	63	192	3
NMTAP	63	240	3
NMTAP	63	288	2
NMTAP	63	288	4
NMTAP	63	336	2
NMTAP	63	336	4
NMTAP	64	0	5
NMTAP	64	48	5
NMTAP	64	96	3
NMTAP	64	96	4
NMTAP	64	144	3
NMTAP	64	144	4
NMTAP	64	192	2
NMTAP	64	240	2
NMTAP	64	288	3
NMTAP	64	288	4
NMTAP	64	336	5
NMTAP	64	360	4
EXTAP	65	0	6
NMTAP	65	48	6
NMTAP	65	96	3
NMTAP	65	96	5
NMTAP	65	144	3
NMTAP	65	144	5
EXTAP	65	192	4
NMTAP	65	240	4
NMTAP	65	288	3
NMTAP	65	288	5
NMTAP	65	336	3
NMTAP	65	336	5
NMTAP	66	0	3
NMTAP	66	0	5
NMTAP	66	96	2
NMTAP	66	96	4
NMTAP	66	144	2
NMTAP	66	144	4
NMTAP	66	192	1
NMTAP	66	192	5
NMTAP	66	240	1
NMTAP	66	240	5
BRTAP	66	288	0
BRTAP	66	288	6
NMSTR	67	0	6
NMSCL	67	0	6	96	48	3
NMSTR	67	0	7
NMSV_	67	0	7	96	48	2
BXTAP	67	96	6
BXTAP	67	96	7
NMSTR	67	192	0
NMSV_	67	192	0	96	48	5
NMSTR	67	192	1
NMSCR	67	192	1	96	48	4
BXTAP	67	288	0
BXTAP	67	288	1
EXTAP	68	0	4
EXSTR	68	0	6
BRSI_	68	0	6	96	48	1
NMTAP	68	96	3
CNSI_	68	144	1	0	48	4
NMTAP	68	144	3
CNSUR	68	192	4	0	48	0
NMTAP	68	240	2
NMTAP	68	288	2
NMSTR	69	0	0
NMSV_	69	0	0	96	48	5
NMSTR	69	0	1
NMSCR	69	0	1	96	48	4
BXTAP	69	96	0
BXTAP	69	96	1
NMSTR	69	192	6
NMSCL	69	192	6	96	48	3
NMSTR	69	192	7
NMSV_	69	192	7	96	48	2
BXTAP	69	288	6
BXTAP	69	288	7
EXSTR	70	0	2
BRSI_	70	0	2	96	48	0
EXTAP	70	0	4
NMTAP	70	96	5
CNSUR	70	144	0	0	48	4
NMTAP	70	144	5
CNSV_	70	192	4	0	48	7
NMTAP	70	240	6
NMTAP	70	288	6
NMSTR	71	0	0
NMSV_	71	0	0	96	48	5
NMSTR	71	0	1
NMSCR	71	0	1	96	48	4
BXTAP	71	96	0
BXTAP	71	96	1
NMSTR	71	192	6
NMSCL	71	192	6	96	48	3
NMSTR	71	192	7
NMSV_	71	192	7	96	48	2
BXTAP	71	288	6
BXTAP	71	288	7
EXSTR	72	0	1
BRSI_	72	0	1	96	48	6
EXTAP	72	0	3
NMTAP	72	96	4
NMTAP	72	144	4
CNSI_	72	144	6	0	48	3
CNSUL	72	192	3	0	48	7
NMTAP	72	240	5
NMTAP	72	288	5
NMSTR	73	0	6
NMSCL	73	0	6	96	48	3
NMSTR	73	0	7
NMSV_	73	0	7	96	48	2
BXTAP	73	96	6
BXTAP	73	96	7
NMSTR	73	192	0
NMSV_	73	192	0	96	48	5
NMSTR	73	192	1
NMSCR	73	192	1	96	48	4
BXTAP	73	288	0
BXTAP	73	288	1
EXTAP	74	0	3
EXSTR	74	0	5
BRSI_	74	0	5	96	48	7
NMTAP	74	96	2
NMTAP	74	144	2
CNSUL	74	144	7	0	48	3
CNSV_	74	192	3	0	48	0
NMTAP	74	240	1
NMTAP	74	288	1
NMSTR	75	0	0
NMSI_	75	0	0	96	48	2
NMSTR	75	0	6
NMSI_	75	0	6	96	48	3
NMTAP	75	48	7
NMSTR	75	192	1
NMSI_	75	192	1	96	48	4
NMSTR	75	192	7
NMSI_	75	192	7	96	48	5
NMTAP	75	240	0
NMTAP	76	0	0
NMSTR	76	0	6
BRSV_	76	0	6	96	48	1
NMTAP	76	96	3
CNSCL	76	144	1	0	48	0
NMTAP	76	144	3
CNSUL	76	192	0	0	48	3
NMTAP	76	240	2
NMTAP	76	288	2
NMSTR	77	0	1
NMSI_	77	0	1	96	48	4
NMSTR	77	0	7
NMSI_	77	0	7	96	48	5
NMTAP	77	48	0
NMSTR	77	192	0
NMSI_	77	192	0	96	48	2
NMSTR	77	192	6
NMSI_	77	192	6	96	48	3
NMTAP	77	240	7
NMTAP	78	0	1
NMTAP	78	0	7
NMTAP	78	48	1
NMTAP	78	48	7
NMSTR	78	96	2
BRSCR	78	96	2	96	48	5
NMSTR	78	96	6
BRSCR	78	96	6	96	48	1
EXTAP	78	288	3
EXTAP	78	288	7
NMSTR	79	0	1
NMSI_	79	0	1	96	48	4
NMSTR	79	0	7
NMSI_	79	0	7	96	48	3
NMTAP	79	48	0
NMSTR	79	192	0
NMSI_	79	192	0	96	48	4
NMSTR	79	192	6
NMSI_	79	192	6	96	48	3
NMTAP	79	240	7
NMSTR	80	0	1
BRSV_	80	0	1	96	48	6
NMTAP	80	0	7
NMTAP	80	96	4
NMTAP	80	144	4
CNSCR	80	144	6	0	48	7
CNSUR	80	192	7	0	48	4
NMTAP	80	240	5
NMTAP	80	288	5
NMSTR	81	0	0
NMSI_	81	0	0	96	48	4
NMSTR	81	0	6
NMSI_	81	0	6	96	48	3
NMTAP	81	48	7
NMSTR	81	192	1
NMSI_	81	192	1	96	48	4
NMSTR	81	192	7
NMSI_	81	192	7	96	48	3
NMTAP	81	240	0
NMTAP	82	0	2
NMTAP	82	0	6
NMSTR	82	48	2
BRSCR	82	48	2	96	48	5
NMSTR	82	48	6
BRSCR	82	48	6	96	48	1
EXTAP	82	240	3
EXTAP	82	240	7
EXTAP	82	288	3
EXTAP	82	288	7
NMTAP	83	0	4
NMTAP	83	0	6
NMTAP	83	48	5
NMTAP	83	96	1
NMTAP	83	96	3
NMTAP	83	144	2
NMTAP	83	192	4
NMTAP	83	192	6
NMTAP	83	240	5
NMTAP	83	288	1
NMTAP	83	288	3
NMTAP	83	336	2
NMTAP	84	0	4
NMTAP	84	0	5
NMTAP	84	48	6
NMTAP	84	96	0
NMTAP	84	96	7
NMTAP	84	144	1
BRSTR	84	192	2
BRSCL	84	192	2	96	48	7
BRSTR	84	288	3
BRSUR	84	288	3	96	144	6
CNSUR	84	336	7	0	48	3

T_REC_TAP	400
T_REC_BRK	11
T_REC_XTP	38
T_REC_BXX	16
T_REC_HLD	25
T_REC_XHO	0
T_REC_BHO	0
T_REC_BXH	0
T_REC_STR	80
T_REC_BST	3
T_REC_XST	6
T_REC_XBS	0
T_REC_TTP	71
T_REC_THO	0
T_REC_SLD	73
T_REC_BSL	16
T_REC_ALL	739
T_NUM_TAP	595
T_NUM_BRK	46
T_NUM_HLD	25
T_NUM_SLD	73
T_NUM_ALL	739
T_JUDGE_TAP	625
T_JUDGE_HLD	131
T_JUDGE_SLD	89
T_JUDGE_ALL	845
TTM_EACHPAIRS	187
TTM_SCR_TAP	297500
TTM_SCR_BRK	119600
TTM_SCR_HLD	25000
TTM_SCR_SLD	109500
TTM_SCR_ALL	551600
TTM_SCR_S	530600
TTM_SCR_SS	547000
TTM_RAT_ACV	10084

