VERSION	0.00.00	1.04.00
FES_MODE	0
BPM_DEF	180.000	180.000	180.000	180.000
MET_DEF	4	4
RESOLUTION	384
CLK_DEF	384
COMPATIBLE_CODE	MA2

BPM	0	0	180.000
MET	0	0	4	4

NMTAP	3	0	1
NMTAP	3	0	4
NMHLD	3	48	1	624
NMHLD	3	48	4	624
NMTAP	5	0	3
NMTAP	5	0	6
NMHLD	5	48	3	624
NMHLD	5	48	6	624
NMTAP	7	0	5
NMTAP	7	48	5
NMTAP	7	192	4
NMTAP	7	192	6
NMTAP	7	240	4
NMTAP	7	240	6
NMTAP	8	0	3
NMTAP	8	48	3
NMTAP	8	192	2
NMTAP	8	192	4
NMTAP	8	240	2
NMTAP	8	240	4
NMTAP	9	0	5
NMTAP	9	48	5
NMTAP	9	192	4
NMTAP	9	192	6
NMTAP	9	240	4
NMTAP	9	240	6
NMTAP	10	0	3
NMTAP	10	48	3
NMTAP	10	192	2
NMTAP	10	192	4
NMTAP	10	240	2
NMTAP	10	240	4
NMTAP	11	0	3
NMTAP	11	0	6
NMTAP	11	48	3
NMHLD	11	48	6	528
NMTTP	12	0	6	B	0	M1
NMTTP	12	96	1	B	0	M1
NMTTP	12	192	5	E	0	M1
NMTTP	12	288	3	E	0	M1
NMTAP	13	0	1
NMTAP	13	0	4
NMHLD	13	48	1	528
NMTAP	13	48	4
NMTTP	14	0	1	B	0	M1
NMTTP	14	96	6	B	0	M1
NMTTP	14	192	3	E	0	M1
NMTTP	14	288	5	E	0	M1
NMTAP	15	0	3
NMTAP	15	48	3
NMTAP	15	192	2
NMTAP	15	192	4
NMTAP	15	240	2
NMTAP	15	240	4
NMTAP	16	0	5
NMTAP	16	48	5
NMTAP	16	192	4
NMTAP	16	192	6
NMTAP	16	240	4
NMTAP	16	240	6
NMTAP	17	0	3
NMTAP	17	48	3
NMTAP	17	192	2
NMTAP	17	192	4
NMTAP	17	240	2
NMTAP	17	240	4
NMSTR	18	0	2
NMSCL	18	0	2	96	96	7
NMSTR	18	0	3
NMSCR	18	0	3	96	96	6
NMTAP	19	0	4
NMHLD	19	0	6	672
NMTAP	19	96	5
NMTAP	19	192	4
NMTAP	19	240	4
NMTAP	19	336	5
NMTAP	20	48	4
NMTAP	20	144	5
NMTAP	20	192	5
NMTAP	20	288	4
NMHLD	21	0	1	576
NMTAP	21	0	3
NMTAP	21	96	2
NMTAP	21	192	3
NMTAP	21	240	3
NMTAP	21	336	2
NMTAP	22	48	3
NMTAP	22	144	2
NMTAP	22	192	2
NMTAP	22	288	2
NMTAP	22	288	4
NMTAP	23	0	6
NMTAP	23	96	6
NMTAP	23	96	7
NMTAP	23	192	1
NMTAP	23	288	0
NMTAP	23	288	1
NMTAP	24	0	6
NMTAP	24	96	6
NMTAP	24	96	7
NMTAP	24	192	0
NMTAP	24	240	0
NMTAP	24	288	0
NMTAP	24	288	7
NMTAP	25	0	6
NMTAP	25	96	6
NMTAP	25	96	7
NMTAP	25	192	1
NMTAP	25	288	0
NMTAP	25	288	1
NMTAP	26	0	6
NMTAP	26	96	6
NMTAP	26	96	7
NMTAP	26	192	0
NMTAP	26	192	7
NMTAP	26	288	2
NMTAP	26	288	5
NMHLD	27	0	1	672
NMTAP	27	0	3
NMTAP	27	96	2
NMTAP	27	192	3
NMTAP	27	240	3
NMTAP	27	336	2
NMTAP	28	48	3
NMTAP	28	144	2
NMTAP	28	192	2
NMTAP	28	288	3
NMTAP	29	0	4
NMHLD	29	0	6	576
NMTAP	29	96	5
NMTAP	29	192	4
NMTAP	29	240	4
NMTAP	29	336	5
NMTAP	30	48	4
NMTAP	30	144	5
NMTAP	30	192	5
NMTAP	30	288	3
NMTAP	30	288	5
NMTAP	31	0	1
NMTAP	31	96	0
NMTAP	31	96	1
NMTAP	31	192	6
NMTAP	31	288	6
NMTAP	31	288	7
NMTAP	32	0	1
NMTAP	32	96	0
NMTAP	32	96	1
NMTAP	32	192	7
NMTAP	32	240	7
NMTAP	32	288	0
NMTAP	32	288	7
NMTAP	33	0	1
NMTAP	33	96	0
NMTAP	33	96	1
NMTAP	33	192	6
NMTAP	33	288	6
NMTAP	33	288	7
NMTAP	34	0	0
NMTAP	34	0	7
NMTAP	34	96	2
NMTAP	34	96	5
NMTAP	34	144	2
NMTAP	34	144	5
NMTAP	34	192	2
NMTAP	34	192	5
NMTAP	34	288	3
NMTAP	34	288	4
BRTAP	35	0	0
BRTAP	35	0	6
NMTAP	35	96	4
NMTAP	35	96	5
NMTAP	35	192	1
NMTAP	35	192	7
NMTAP	35	288	2
NMTAP	35	288	3
NMTAP	36	0	0
NMTAP	36	0	1
NMTAP	36	96	6
NMTAP	36	96	7
NMTAP	36	192	4
NMTAP	36	192	5
NMTAP	36	288	4
NMTAP	36	288	5
BRTAP	37	0	1
BRTAP	37	0	7
NMTAP	37	96	2
NMTAP	37	96	3
NMTAP	37	192	0
NMTAP	37	192	6
NMTAP	37	288	4
NMTAP	37	288	5
NMTAP	38	0	6
NMTAP	38	0	7
NMTAP	38	96	0
NMTAP	38	96	1
NMTAP	38	192	2
NMTAP	38	192	3
NMTAP	38	288	2
NMTAP	38	288	3
BRTAP	39	0	0
BRTAP	39	0	6
NMTAP	39	96	4
NMTAP	39	96	5
NMTAP	39	192	1
NMTAP	39	192	7
NMTAP	39	288	2
NMTAP	39	288	3
NMTAP	40	0	0
NMTAP	40	0	1
NMTAP	40	96	6
NMTAP	40	96	7
NMTAP	40	192	4
NMTAP	40	192	5
NMTAP	40	288	4
NMTAP	40	288	5
BRTAP	41	0	1
BRTAP	41	0	7
NMTAP	41	96	2
NMTAP	41	96	3
NMTAP	41	192	0
NMTAP	41	192	6
NMTAP	41	288	4
NMTAP	41	288	5
NMTAP	42	0	6
NMSTR	42	0	7
NMSSR	42	0	7	96	192	3
NMTAP	43	0	2
NMTAP	43	0	3
NMTAP	43	96	6
NMTAP	43	96	7
NMTAP	43	192	4
NMTAP	43	192	5
NMTAP	43	288	0
NMTAP	43	288	1
NMHLD	44	0	2	192
NMTAP	44	0	3
NMTAP	44	96	0
NMHLD	44	192	3	192
NMTAP	44	288	0
NMTAP	45	0	2
NMTAP	45	96	0
NMTAP	45	96	2
NMTAP	45	192	4
NMTAP	45	192	5
NMTAP	45	288	5
NMTAP	45	288	7
NMTAP	46	0	3
NMTAP	46	0	4
NMTAP	46	96	1
NMTAP	46	96	2
NMTAP	46	192	0
NMTAP	46	192	7
NMTAP	46	288	5
NMTAP	46	288	6
NMTAP	47	0	3
NMTAP	47	0	4
NMTAP	47	96	0
NMTAP	47	96	1
NMTAP	47	192	2
NMTAP	47	192	3
NMTAP	47	288	6
NMTAP	47	288	7
NMTAP	48	0	4
NMHLD	48	0	5	192
NMTAP	48	96	7
NMHLD	48	192	4	192
NMTAP	48	288	7
NMTAP	49	0	5
NMTAP	49	96	0
NMTAP	49	96	2
NMTAP	49	192	2
NMTAP	49	192	3
NMTAP	49	288	5
NMTAP	49	288	7
NMSTR	50	0	3
NMSI_	50	0	3	96	48	0
NMSTR	50	0	4
NMSI_	50	0	4	96	48	7
BXTAP	50	240	1
BXTAP	50	240	6
BXTAP	50	288	1
BXTAP	50	288	6
NMTAP	51	0	5
NMHLD	51	48	5	144
NMTAP	51	192	7
NMHLD	51	240	7	144
NMTAP	52	0	1
NMHLD	52	48	1	144
NMTAP	52	192	3
NMTAP	52	288	2
NMTAP	52	288	4
NMTAP	53	0	1
NMHLD	53	48	1	144
NMTAP	53	192	7
NMHLD	53	240	7	144
NMTAP	54	0	5
NMHLD	54	48	5	144
NMTAP	54	192	3
NMTAP	54	288	1
NMTAP	54	288	4
NMTAP	55	0	2
NMHLD	55	48	2	144
NMTAP	55	192	0
NMHLD	55	240	0	144
NMTAP	56	0	6
NMHLD	56	48	6	144
NMTAP	56	192	4
NMTAP	56	288	3
NMTAP	56	288	5
NMTAP	57	0	6
NMHLD	57	48	6	144
NMTAP	57	192	0
NMHLD	57	240	0	144
NMTAP	58	0	2
NMHLD	58	48	2	144
NMTAP	58	192	4
NMTAP	58	288	3
NMTAP	58	288	6
NMTAP	59	0	5
NMTAP	59	96	4
NMTAP	59	96	5
NMTAP	59	192	2
NMTAP	59	288	2
NMTAP	59	288	3
NMTAP	60	0	4
NMTAP	60	48	4
NMTAP	60	96	3
NMTAP	60	144	3
NMTAP	60	192	4
NMTAP	60	288	3
NMTAP	60	288	5
NMTAP	61	0	2
NMTAP	61	96	2
NMTAP	61	96	3
NMTAP	61	192	5
NMTAP	61	288	4
NMTAP	61	288	5
NMTAP	62	0	3
NMTAP	62	48	3
NMTAP	62	96	4
NMTAP	62	144	4
NMTAP	62	192	3
NMTAP	62	288	2
NMTAP	62	288	4
NMTAP	63	0	5
NMTAP	63	96	4
NMTAP	63	96	5
NMTAP	63	192	2
NMTAP	63	288	2
NMTAP	63	288	3
NMTAP	64	0	4
NMTAP	64	48	4
NMTAP	64	96	3
NMTAP	64	144	3
NMTAP	64	192	4
NMTAP	64	288	3
NMTAP	64	288	5
NMTAP	65	0	2
NMTAP	65	96	2
NMTAP	65	96	3
NMTAP	65	192	5
NMTAP	65	288	4
NMTAP	65	288	5
NMTAP	66	0	3
NMTAP	66	0	4
NMTAP	66	96	3
NMTAP	66	144	3
NMTAP	66	192	4
NMTAP	66	240	4
NMTAP	66	288	3
NMTAP	66	288	4
NMTAP	67	0	4
NMTAP	67	0	5
NMTAP	67	96	0
NMTAP	67	96	1
NMTAP	67	192	2
NMTAP	67	192	3
NMTAP	67	288	6
NMTAP	67	288	7
NMTAP	68	0	4
NMHLD	68	0	5	192
NMTAP	68	96	7
NMHLD	68	192	4	192
NMTAP	68	288	7
NMTAP	69	0	5
NMTAP	69	96	5
NMTAP	69	96	7
NMTAP	69	192	2
NMTAP	69	192	3
NMTAP	69	288	0
NMTAP	69	288	2
NMTAP	70	0	3
NMTAP	70	0	4
NMTAP	70	96	5
NMTAP	70	96	6
NMTAP	70	192	0
NMTAP	70	192	7
NMTAP	70	288	1
NMTAP	70	288	2
NMTAP	71	0	3
NMTAP	71	0	4
NMTAP	71	96	6
NMTAP	71	96	7
NMTAP	71	192	4
NMTAP	71	192	5
NMTAP	71	288	0
NMTAP	71	288	1
NMHLD	72	0	2	192
NMTAP	72	0	3
NMTAP	72	96	0
NMHLD	72	192	3	192
NMTAP	72	288	0
NMTAP	73	0	2
NMTAP	73	96	5
NMTAP	73	96	7
NMTAP	73	192	4
NMTAP	73	192	5
NMTAP	73	288	0
NMTAP	73	288	2
NMSTR	74	0	3
NMSSR	74	0	3	96	192	7
NMTAP	74	0	4
NMTAP	75	0	6
NMTAP	75	0	7
BRTAP	75	96	2
BRTAP	75	96	4
NMTAP	75	192	0
NMTAP	75	192	1
NMTAP	75	288	3
NMTAP	75	288	5
NMSTR	76	0	6
NMSI_	76	0	6	96	48	3
NMSTR	76	0	7
NMSI_	76	0	7	96	48	3
NMSTR	76	192	0
NMSI_	76	192	0	96	48	4
NMSTR	76	192	1
NMSI_	76	192	1	96	48	4
NMTAP	77	0	6
NMTAP	77	0	7
NMTAP	77	96	4
NMTAP	77	96	5
NMTAP	77	192	2
NMTAP	77	192	3
NMTAP	77	288	0
NMTAP	77	288	1
NMSTR	78	0	0
NMSI_	78	0	0	96	48	3
NMSTR	78	0	6
NMSI_	78	0	6	96	48	3
NMSTR	78	192	1
NMSI_	78	192	1	96	48	4
NMSTR	78	192	7
NMSI_	78	192	7	96	48	4
NMTAP	79	0	6
NMTAP	79	0	7
BRTAP	79	96	2
BRTAP	79	96	4
NMTAP	79	192	0
NMTAP	79	192	1
NMTAP	79	288	3
NMTAP	79	288	5
NMSTR	80	0	6
NMSI_	80	0	6	96	48	3
NMSTR	80	0	7
NMSI_	80	0	7	96	48	3
NMSTR	80	192	0
NMSI_	80	192	0	96	48	4
NMSTR	80	192	1
NMSI_	80	192	1	96	48	4
NMTAP	81	0	6
NMTAP	81	0	7
NMTAP	81	96	4
NMTAP	81	96	5
NMTAP	81	192	2
NMTAP	81	192	3
NMTAP	81	288	0
NMTAP	81	288	1
NMSTR	82	0	0
NMSI_	82	0	0	96	48	3
NMSTR	82	0	7
NMSI_	82	0	7	96	48	4
BRTAP	82	240	2
BRTAP	82	240	5
BRTAP	82	288	2
BRTAP	82	288	5
NMTAP	83	0	1
NMTAP	83	0	3
NMTAP	83	48	1
NMTAP	83	48	3
NMTAP	83	96	1
NMTAP	83	96	3
NMTAP	83	192	4
NMTAP	83	192	6
NMTAP	83	240	4
NMTAP	83	240	6
NMTAP	83	288	4
NMTAP	83	288	6
NMTAP	84	0	0
NMTAP	84	0	1
NMTAP	84	48	0
NMTAP	84	48	1
NMTAP	84	96	0
NMTAP	84	96	1
NMTAP	84	192	6
NMTAP	84	192	7
NMTAP	84	240	6
NMTAP	84	240	7
NMSTR	84	288	6
NMSCL	84	288	6	96	96	3
NMSTR	84	288	7
NMSCR	84	288	7	96	96	2

T_REC_TAP	410
T_REC_BRK	16
T_REC_XTP	0
T_REC_BXX	4
T_REC_HLD	30
T_REC_XHO	0
T_REC_BHO	0
T_REC_BXH	0
T_REC_STR	22
T_REC_BST	0
T_REC_XST	0
T_REC_XBS	0
T_REC_TTP	8
T_REC_THO	0
T_REC_SLD	22
T_REC_BSL	0
T_REC_ALL	512
T_NUM_TAP	440
T_NUM_BRK	20
T_NUM_HLD	30
T_NUM_SLD	22
T_NUM_ALL	512
T_JUDGE_TAP	460
T_JUDGE_HLD	194
T_JUDGE_SLD	22
T_JUDGE_ALL	676
TTM_EACHPAIRS	176
TTM_SCR_TAP	220000
TTM_SCR_BRK	52000
TTM_SCR_HLD	30000
TTM_SCR_SLD	33000
TTM_SCR_ALL	335000
TTM_SCR_S	323050
TTM_SCR_SS	333000
TTM_RAT_ACV	10060

