VERSION	0.00.00	1.04.00
FES_MODE	0
BPM_DEF	178.000	178.000	178.000	178.000
MET_DEF	4	4
RESOLUTION	384
CLK_DEF	384
COMPATIBLE_CODE	MA2

BPM	0	0	178.000
MET	0	0	4	4

NMTAP	1	0	3
NMHLD	1	0	5	336
NMTAP	1	96	3
NMTAP	1	192	4
NMTAP	1	240	4
NMTAP	1	336	3
NMTAP	2	48	3
NMTAP	2	48	4
NMHLD	2	96	2	96
NMHLD	2	96	5	96
NMTAP	2	288	3
NMSTR	2	288	4
NMSXL	2	288	4	96	192	7
EXTAP	3	0	2
EXTAP	3	48	2
NMTAP	3	96	3
NMTAP	3	144	3
EXSTR	3	288	4
NMSUL	3	288	4	96	192	1
EXTAP	3	336	4
NMTAP	4	0	5
NMTAP	4	48	5
NMTAP	4	96	6
NMTAP	4	144	6
NMTAP	4	192	7
NMTAP	4	288	0
EXSTR	5	0	7
NMSI_	5	0	7	96	72	3
EXTAP	5	96	7
NMSTR	5	192	1
NMSI_	5	192	1	96	48	3
NMTAP	5	192	5
EXSTR	5	288	1
NMSV_	5	288	1	96	72	4
EXSTR	6	0	1
NMSI_	6	0	1	96	48	6
NMTAP	6	96	1
NMTAP	6	192	0
NMTAP	6	288	2
NMTAP	6	288	3
NMTAP	7	0	4
NMTAP	7	0	5
NMTAP	7	48	6
NMTAP	7	96	7
NMTAP	7	144	0
NMTAP	7	192	1
NMTAP	7	240	2
NMTAP	7	240	4
NMTAP	7	288	5
NMHLD	7	336	6	96
NMTAP	8	48	3
NMTAP	8	144	1
NMTAP	8	144	4
NMTAP	8	240	0
NMTAP	8	240	3
NMTAP	8	288	0
NMTAP	8	288	3
NMSTR	9	0	4
NMSCR	9	0	4	96	96	6
NMSTR	9	96	6
NMSCR	9	96	6	96	96	1
NMSTR	9	192	1
NMSCR	9	192	1	96	96	3
EXSTR	9	288	3
NMSCR	9	288	3	96	192	7
NMSXR	9	288	3	96	192	0
EXTAP	9	336	3
NMTTP	11	0	0	C	0	M1
BRHLD	11	0	5	576
NMTAP	12	192	1
NMSTR	12	288	2
NMSCR	12	288	2	96	48	4
NMTAP	13	0	2
NMTAP	13	0	4
NMTAP	13	144	3
NMTAP	13	144	5
NMTAP	13	192	3
NMTAP	13	192	5
NMTAP	13	288	6
NMHLD	14	0	6	72
NMHLD	14	72	5	72
NMTAP	14	144	4
EXTAP	14	288	2
EXTAP	14	288	3
NMTAP	14	336	1
NMTAP	14	336	4
NMTAP	15	48	2
NMTAP	15	96	2
NMTAP	15	144	3
NMTAP	15	192	3
NMTAP	15	240	1
NMTAP	15	264	3
NMTAP	15	288	1
NMTAP	15	336	0
NMTAP	15	360	7
NMTAP	16	48	5
NMTAP	16	72	4
NMTAP	16	96	5
NMTAP	16	120	4
NMTAP	16	144	5
NMTAP	16	168	4
NMTAP	16	192	5
NMTAP	16	240	3
NMTAP	16	240	6
NMTAP	16	288	3
NMTAP	16	288	6
NMTAP	17	48	2
NMTAP	17	72	3
NMTAP	17	96	2
NMTAP	17	120	3
NMTAP	17	144	2
NMTAP	17	168	3
NMTAP	17	192	2
NMTAP	17	240	1
NMTAP	17	240	4
NMTAP	17	336	2
NMHLD	18	0	2	72
NMHLD	18	72	1	72
NMTAP	18	144	0
NMHLD	18	192	7	72
NMHLD	18	264	6	72
NMTAP	18	336	5
NMTAP	19	0	5
NMTAP	19	144	1
NMTAP	19	144	7
NMTAP	19	240	0
NMTAP	19	240	6
NMTAP	19	288	0
NMTAP	19	288	6
NMTAP	20	0	1
NMTAP	20	0	7
NMTAP	20	96	0
NMTAP	20	96	6
NMTAP	20	168	2
NMTAP	20	192	4
NMTTP	20	288	5	E	0	M1
NMTAP	21	0	1
NMTAP	21	0	7
NMTAP	21	144	2
NMTAP	21	144	4
NMTAP	21	192	2
NMTAP	21	192	4
NMTAP	21	288	0
NMHLD	22	0	7	72
NMHLD	22	72	6	72
NMTAP	22	144	5
NMTAP	22	288	2
NMTAP	22	288	7
NMTAP	22	336	2
NMTAP	22	336	7
NMTAP	23	48	1
NMTAP	23	96	1
NMTAP	23	144	4
NMTAP	23	192	4
NMTAP	23	240	2
NMTAP	23	264	3
NMTAP	23	288	2
NMTAP	23	336	1
NMTAP	23	336	5
NMTAP	24	48	7
NMTAP	24	72	0
NMTAP	24	96	7
NMTAP	24	120	0
NMTAP	24	144	7
NMTAP	24	168	0
NMTAP	24	192	7
NMTAP	24	240	6
NMTAP	24	288	3
NMTAP	24	288	5
NMTAP	25	48	1
NMTAP	25	72	0
NMTAP	25	96	1
NMTAP	25	120	0
NMTAP	25	144	1
NMTAP	25	168	0
NMTAP	25	192	1
NMTAP	25	240	3
NMTAP	25	336	6
NMHLD	26	0	6	72
NMHLD	26	72	5	72
NMTAP	26	144	4
NMHLD	26	192	3	72
NMHLD	26	264	2	72
NMTAP	26	336	1
NMTAP	27	0	1
NMTAP	27	96	0
NMTAP	27	96	4
NMTAP	27	144	0
NMTAP	27	144	4
NMTAP	27	240	2
NMTAP	27	240	6
NMTAP	27	288	2
NMHLD	27	288	6	96
NMTAP	28	0	7
NMSTR	28	96	0
NMSI_	28	96	0	96	48	3
NMSTR	28	96	5
NMSI_	28	96	5	96	48	2
NMTAP	29	0	3
NMHLD	29	96	2	96
NMTAP	29	192	4
NMHLD	29	240	5	96
NMTAP	29	336	4
NMTAP	30	48	4
NMTAP	30	48	5
NMTAP	30	96	3
NMTAP	30	96	4
NMHLD	30	144	2	96
NMTAP	30	144	3
NMTAP	30	240	4
NMHLD	30	288	5	96
NMTTP	31	0	5	E	0	M1
NMTTP	31	48	4	E	0	M1
NMTTP	31	96	3	E	0	M1
NMTAP	31	192	5
NMTAP	31	240	4
NMTAP	31	288	3
NMTAP	31	336	2
EXTAP	32	48	1
EXTAP	32	48	4
NMTAP	32	144	5
NMTAP	32	144	7
NMTAP	32	192	5
NMSTR	32	192	7
NMSV_	32	192	7	96	48	2
NMSTR	32	288	6
NMSCL	32	288	6	96	48	3
NMTAP	32	288	7
BRTAP	33	0	6
NMTAP	33	96	2
NMTAP	33	144	2
NMTAP	33	168	3
NMTAP	33	192	1
NMSTR	33	240	0
NMSI_	33	240	0	96	48	4
NMTAP	33	240	4
NMTAP	33	336	6
NMTAP	34	0	6
NMTAP	34	96	5
NMTAP	34	120	4
NMTAP	34	144	5
NMTAP	34	168	4
EXTAP	34	192	6
EXTAP	34	224	6
EXTAP	34	256	6
BXTAP	34	288	0
NMTAP	35	0	2
NMTAP	35	0	7
NMTAP	35	48	1
NMTAP	35	72	0
NMTAP	35	96	1
NMTAP	35	144	5
NMTAP	35	168	4
NMTAP	35	192	5
NMTAP	35	240	6
NMTAP	35	264	7
NMTAP	35	288	6
NMTAP	35	336	2
NMTAP	35	360	3
NMTAP	36	0	2
NMTAP	36	48	1
NMTAP	36	48	4
NMTAP	36	96	1
NMTAP	36	96	4
NMTAP	36	144	2
NMSTR	36	192	1
NMSI_	36	192	1	96	48	3
NMTAP	36	192	5
NMTAP	36	288	3
EXSTR	37	0	4
NMSCR	37	0	4	96	48	0
EXTAP	37	144	3
EXSTR	37	192	3
NMSCL	37	192	3	96	48	7
EXTAP	37	336	4
EXSTR	38	0	4
NMSCR	38	0	4	96	48	0
EXTAP	38	144	3
EXSTR	38	192	3
NMSCL	38	192	3	96	48	7
NMTAP	38	288	5
NMTAP	39	48	7
NMTAP	39	96	0
NMTAP	39	144	1
NMHLD	39	192	1	72
NMHLD	39	264	3	72
NMTAP	39	336	4
NMTAP	40	0	4
NMTAP	40	96	5
NMTAP	40	96	7
NMSTR	40	192	0
NMSV_	40	192	0	96	48	5
NMTAP	40	192	2
NMTAP	40	288	0
NMSTR	40	288	1
NMSCR	40	288	1	96	48	4
BRTAP	41	0	1
NMTAP	41	96	5
NMTAP	41	144	5
NMTAP	41	168	4
NMTAP	41	192	6
NMHLD	41	240	7	96
NMTAP	41	336	1
NMTAP	42	0	2
NMTAP	42	0	4
NMTAP	42	96	2
NMTAP	42	120	3
NMTAP	42	144	2
NMTAP	42	168	3
EXTAP	42	192	1
EXTAP	42	224	1
EXTAP	42	256	1
EXSTR	42	288	7
NMSCL	42	288	7	96	96	3
NMSTR	43	0	3
NMSUL	43	0	3	96	144	1
NMTAP	43	96	1
NMSTR	43	288	0
NMSCR	43	288	0	96	96	4
NMSTR	44	0	4
NMSUR	44	0	4	96	144	5
NMTAP	44	96	5
NMTAP	44	192	6
NMTAP	44	288	7
NMTAP	45	0	3
NMSTR	45	0	7
NMSCL	45	0	7	96	48	4
NMTAP	45	96	2
NMTAP	45	144	2
NMSTR	45	240	1
NMSCR	45	240	1	96	48	4
NMTAP	45	288	1
NMTAP	45	336	4
NMTAP	46	0	5
NMTAP	46	96	3
NMTAP	46	96	6
NMTAP	46	144	3
NMTAP	46	144	6
NMTAP	46	240	4
NMTAP	46	240	5
NMTAP	46	288	4
NMTAP	46	288	5
NMTAP	47	0	3
NMSTR	47	0	6
NMSI_	47	0	6	96	48	4
NMTAP	47	96	2
NMSTR	47	144	2
NMSI_	47	144	2	96	48	7
NMTAP	47	240	3
NMTAP	47	288	4
NMTAP	47	336	5
NMTAP	48	48	6
NMTAP	48	72	7
NMSTR	48	96	6
NMSCL	48	96	6	96	48	3
NMTAP	48	144	2
NMTAP	48	192	6
NMSTR	48	288	0
BRSCL	48	288	0	96	192	1
CNSUL	49	192	1	0	384	7
NMTAP	51	0	4
NMTAP	51	0	6
NMTAP	51	96	3
NMTAP	51	96	5
NMTAP	51	144	3
NMTAP	51	144	5
NMTAP	51	240	1
NMTAP	51	240	4
NMTAP	51	288	1
NMTAP	51	288	4
EXTAP	52	0	0
EXTAP	52	24	1
EXTAP	52	48	2
EXTAP	52	72	3
EXTAP	52	96	4
EXTAP	52	120	5
EXTAP	52	144	6
EXTAP	52	168	7
EXSTR	52	192	0
NMSI_	52	192	0	96	48	4
NMTAP	52	288	4
NMHLD	53	0	3	96
NMHLD	53	0	5	96
NMTTP	53	144	5	E	0	M1
NMTTP	53	160	4	B	0	M1
NMTTP	53	176	3	B	0	M1
NMTTP	53	192	3	E	0	M1
NMTAP	53	240	1
NMTAP	53	288	1
NMTAP	54	0	0
NMTAP	54	0	4
NMTAP	54	48	2
NMTAP	54	72	3
NMHLD	54	96	1	192
NMTAP	54	144	2
NMTAP	54	192	0
NMTAP	54	240	6
NMTAP	54	288	4
NMTAP	55	0	3
NMTAP	55	0	5
NMTAP	55	48	6
NMTAP	55	72	7
NMHLD	55	96	5	192
NMTAP	55	144	6
NMTAP	55	192	4
NMTAP	55	240	3
NMTAP	55	288	2
NMHLD	55	336	2	336
NMTTP	56	48	7	A	0	M1
NMTTP	56	64	7	B	0	M1
NMTTP	56	80	0	C	0	M1
NMTTP	56	96	3	B	0	M1
NMTTP	56	144	0	D	0	M1
NMTTP	56	160	0	A	0	M1
NMTTP	56	176	1	D	0	M1
NMTTP	56	192	1	A	0	M1
NMTTP	56	240	6	A	0	M1
NMTTP	56	256	6	D	0	M1
NMTTP	56	272	5	A	0	M1
NMTTP	56	288	5	D	0	M1
NMHLD	57	0	1	384
NMHLD	58	0	3	192
NMTAP	58	192	4
NMTAP	59	0	3
NMTAP	59	0	5
NMTAP	59	48	4
NMHLD	59	96	3	24
NMHLD	59	96	5	24
NMHLD	59	168	3	24
NMHLD	59	168	5	24
NMHLD	59	240	3	24
NMHLD	59	240	5	24
NMHLD	59	312	3	24
NMHLD	59	312	5	24
NMTAP	60	0	2
NMTAP	60	0	4
NMTAP	60	48	3
NMHLD	60	96	2	24
NMHLD	60	96	4	24
NMHLD	60	168	1	24
NMHLD	60	168	4	24
NMHLD	60	240	2	24
NMHLD	60	240	5	24
NMHLD	60	312	2	24
NMHLD	60	312	4	24
NMTAP	61	0	4
NMTAP	61	0	6
NMTAP	61	48	5
NMHLD	61	96	4	24
NMHLD	61	96	6	24
NMHLD	61	168	4	24
NMHLD	61	168	5	24
NMHLD	61	240	3	24
NMHLD	61	240	5	24
NMHLD	61	312	4	24
NMHLD	61	312	5	24
NMTAP	62	0	1
NMTAP	62	0	3
NMTAP	62	48	2
NMHLD	62	96	2	24
NMHLD	62	96	3	24
NMHLD	62	168	3	24
NMHLD	62	168	4	24
NMHLD	62	240	4	24
NMHLD	62	240	5	24
NMHLD	62	312	3	24
NMHLD	62	312	5	24
NMTAP	63	0	2
NMTAP	63	0	4
NMTAP	63	48	3
NMHLD	63	96	2	24
NMHLD	63	96	4	24
NMHLD	63	168	2	24
NMHLD	63	168	4	24
NMHLD	63	240	2	24
NMHLD	63	240	4	24
NMHLD	63	312	2	24
NMHLD	63	312	4	24
BRTAP	64	0	3
BRTAP	64	0	5
BRTAP	64	48	6
BRHLD	64	96	0	24
BRHLD	64	96	7	24
BRHLD	64	168	0	24
BRHLD	64	168	7	24
BRHLD	64	240	0	24
BRHLD	64	240	7	24
BRHLD	64	312	0	24
BRHLD	64	312	1	24
NMTAP	65	0	1
NMTAP	65	0	3
NMTAP	65	48	2
NMHLD	65	96	1	24
NMHLD	65	96	3	24
NMHLD	65	168	2	24
NMHLD	65	168	3	24
NMHLD	65	240	2	24
NMHLD	65	240	4	24
NMHLD	65	312	2	24
NMHLD	65	312	3	24
NMTAP	66	0	4
NMTAP	66	0	6
NMTAP	66	48	5
NMHLD	66	96	4	24
NMHLD	66	96	5	24
NMHLD	66	168	3	24
NMHLD	66	168	4	24
NMHLD	66	240	2	24
NMHLD	66	240	3	24
NMHLD	66	312	2	24
NMHLD	66	312	4	24
NMTAP	67	0	3
NMSTR	67	0	5
NMSCR	67	0	5	96	288	1
NMTAP	67	48	4
NMHLD	67	96	3	24
NMHLD	67	168	3	24
NMHLD	67	240	3	24
NMHLD	67	312	3	24
CNSCL	68	0	1	0	288	5
NMTAP	68	0	4
NMTAP	68	48	4
NMHLD	68	96	3	24
NMHLD	68	168	3	24
NMHLD	68	240	3	24
NMHLD	68	312	3	24
NMSTR	69	0	2
NMSCL	69	0	2	96	288	6
NMTAP	69	0	4
NMTAP	69	48	3
NMHLD	69	96	4	24
NMHLD	69	168	4	24
NMHLD	69	240	4	24
NMHLD	69	312	4	24
NMTAP	70	0	3
CNSCR	70	0	6	0	288	2
NMTAP	70	48	3
NMHLD	70	96	4	24
NMHLD	70	168	4	24
NMHLD	70	240	4	24
NMHLD	70	312	4	24
NMSTR	71	0	3
NMSCL	71	0	3	96	144	0
NMTAP	71	0	5
NMTAP	71	48	4
NMHLD	71	96	5	24
NMHLD	71	168	5	24
NMHLD	71	240	4	24
NMHLD	71	312	3	24
NMTAP	72	0	2
NMSTR	72	0	4
NMSCR	72	0	4	96	144	7
NMTAP	72	48	3
NMHLD	72	96	2	24
NMHLD	72	168	2	24
NMHLD	72	240	3	24
NMHLD	72	312	4	24
NMSTR	73	0	3
NMSCL	73	0	3	96	144	0
NMTAP	73	0	5
NMTAP	73	48	4
NMHLD	73	96	5	24
NMHLD	73	168	5	24
NMHLD	73	240	4	24
NMHLD	73	312	3	24
EXTAP	74	48	1
EXTAP	74	48	3
EXTAP	74	96	3
EXTAP	74	96	4
EXTAP	74	144	4
EXTAP	74	144	6
EXSTR	74	192	0
NMSV_	74	192	0	96	48	5
EXTAP	74	192	7
NMTAP	74	288	0
NMSTR	74	288	1
NMSCR	74	288	1	96	48	4
BRTAP	75	0	1
NMTAP	75	96	3
NMTAP	75	96	6
NMTAP	75	144	5
NMTAP	75	168	4
NMTAP	75	192	6
NMSTR	75	240	7
NMSUL	75	240	7	96	48	3
NMTAP	75	336	0
NMTAP	76	0	0
NMTAP	76	96	2
NMTAP	76	120	4
NMTAP	76	144	2
NMTAP	76	168	4
EXSTR	76	192	1
NMSI_	76	192	1	96	48	4
EXTAP	76	224	1
EXTAP	76	256	1
EXTAP	76	288	7
NMTAP	77	0	0
NMTAP	77	0	5
NMTAP	77	48	6
NMTAP	77	72	7
NMTAP	77	96	6
NMTAP	77	144	2
NMTAP	77	168	3
NMTAP	77	192	2
NMTAP	77	240	1
NMTAP	77	264	0
NMTAP	77	288	1
NMTAP	77	336	5
NMTAP	77	360	4
NMTAP	78	0	5
NMTAP	78	48	3
NMTAP	78	48	6
NMTAP	78	96	3
NMTAP	78	96	6
NMTAP	78	144	1
NMSTR	78	192	0
NMSI_	78	192	0	96	48	3
NMTAP	78	192	4
NMTAP	78	288	3
EXSTR	79	0	4
NMSCR	79	0	4	96	48	0
EXTAP	79	144	3
EXSTR	79	192	3
NMSCL	79	192	3	96	48	7
EXTAP	79	336	4
EXSTR	80	0	4
NMSCR	80	0	4	96	48	0
EXTAP	80	144	3
EXSTR	80	192	3
NMSCL	80	192	3	96	48	7
NMTAP	80	288	5
NMTAP	81	48	6
NMTAP	81	48	7
NMTAP	81	96	0
NMTAP	81	96	5
NMTAP	81	144	1
NMTAP	81	144	4
NMTAP	81	192	2
NMTAP	81	192	3
NMTAP	81	264	1
NMTAP	81	264	2
NMTAP	81	336	0
NMTAP	81	336	1
NMSTR	82	0	0
NMSI_	82	0	0	96	48	4
NMSTR	82	0	1
NMSI_	82	0	1	96	48	5
BRTAP	82	96	0
BRTAP	82	96	1
NMTAP	82	192	0
NMSTR	82	192	7
NMSV_	82	192	7	96	48	2
NMSTR	82	288	6
NMSCL	82	288	6	96	48	3
NMTAP	82	288	7
BRTAP	83	0	6
NMTAP	83	96	1
NMTAP	83	96	4
NMTAP	83	144	2
NMTAP	83	168	3
NMTAP	83	192	1
NMSTR	83	240	0
NMSLR	83	240	0	96	48	4
NMTAP	83	336	6
NMTAP	84	0	6
NMTAP	84	96	5
NMTAP	84	120	3
NMTAP	84	144	5
NMTAP	84	168	3
EXSTR	84	192	6
NMSI_	84	192	6	96	48	3
EXTAP	84	224	6
EXTAP	84	256	6
EXSTR	84	288	0
NMSCR	84	288	0	96	96	4
NMSTR	85	0	4
BRSI_	85	0	4	96	48	7
NMTAP	85	96	6
NMTAP	85	192	0
NMTAP	85	192	5
NMSTR	85	288	4
NMSCR	85	288	4	96	96	0
NMSTR	86	0	0
BRSUR	86	0	0	96	96	6
NMTAP	86	96	1
NMTAP	86	192	2
NMTAP	86	288	3
EXSTR	87	0	4
NMSCL	87	0	4	96	48	0
NMTAP	87	0	7
NMTAP	87	96	5
EXSTR	87	144	5
NMSI_	87	144	5	96	48	7
NMTAP	87	240	0
NMTAP	87	288	0
NMTAP	88	0	6
NMTAP	88	0	7
NMTAP	88	96	4
NMTAP	88	96	5
NMHLD	88	144	4	48
NMHLD	88	144	5	48
NMTAP	88	240	2
NMTAP	88	240	3
NMHLD	88	288	2	48
NMHLD	88	288	3	48
NMSTR	89	0	1
NMSCR	89	0	1	96	48	4
NMTAP	89	0	4
NMTAP	89	96	5
NMTAP	89	144	5
NMSTR	89	240	6
NMSI_	89	240	6	96	48	4
NMTAP	89	288	3
NMTAP	89	336	3
NMTAP	90	48	2
NMTAP	90	72	3
NMTAP	90	96	2
NMTAP	90	144	0
NMTAP	90	144	7
NMTAP	90	240	5
NMTAP	90	264	4
NMTAP	90	288	5
NMTAP	90	336	0
NMTAP	90	336	7
BXTAP	91	0	0
BXTAP	91	0	7
NMTAP	91	48	6
NMHLD	91	72	6	48
NMTAP	91	120	4
NMHLD	91	144	4	48
NMTAP	91	192	2
NMHLD	91	216	2	48
NMTAP	91	264	0
NMHLD	91	288	0	48
NMTAP	91	336	6
NMHLD	91	360	6	48
NMTAP	92	24	4
NMHLD	92	48	4	48
NMTAP	92	96	2
NMHLD	92	120	2	48
NMSTR	92	168	0
NMSI_	92	168	0	96	48	3
NMSV_	92	168	0	96	48	5
NMTAP	92	192	0
NMTAP	93	0	3
NMTAP	93	0	6
NMTAP	93	48	3
NMTAP	93	48	6
NMTAP	93	96	5
NMTAP	93	120	4
NMTAP	93	168	2
NMTAP	93	192	3
NMTAP	93	240	6
NMTAP	93	264	7
NMTAP	93	312	1
NMTAP	93	336	0
NMTAP	94	0	3
NMTAP	94	0	6
NMTAP	94	48	5
NMTAP	94	72	4
NMTAP	94	120	4
NMHLD	94	144	7	72
NMHLD	94	216	5	72
NMTAP	94	288	3
NMHLD	95	0	1	48
NMHLD	95	0	4	48
NMHLD	95	72	1	48
NMHLD	95	72	2	48
NMHLD	95	144	0	48
NMHLD	95	144	3	48
NMTAP	95	240	4
NMTAP	95	240	7
NMTAP	95	288	4
NMTAP	95	288	7
NMTAP	96	0	2
NMTAP	96	0	6
NMTAP	96	48	2
NMTAP	96	48	6
NMHLD	96	144	4	72
NMHLD	96	216	6	72
NMTAP	96	288	7
NMTAP	97	0	0
NMTAP	97	0	1
NMTAP	97	48	2
NMTAP	97	72	3
NMTAP	97	120	5
NMTAP	97	144	4
NMTAP	97	192	1
NMTAP	97	216	0
NMTAP	97	264	6
NMTAP	97	288	7
NMTAP	97	336	3
NMTAP	97	336	4
EXHLD	98	0	2	0
NMHLD	98	32	2	0
NMHLD	98	64	2	0
EXHLD	98	96	0	0
NMHLD	98	128	0	0
NMHLD	98	160	0	0
EXHLD	98	192	7	0
NMHLD	98	224	7	0
NMHLD	98	256	7	0
EXHLD	98	288	5	0
NMHLD	98	320	5	0
NMHLD	98	352	5	0
BXTAP	99	0	3
BXTAP	99	0	4
NMTAP	99	96	0
NMTAP	99	144	1
NMTAP	99	144	7
NMTAP	99	240	3
NMTAP	99	288	2
NMTAP	99	288	4
NMTAP	99	336	3
NMTAP	100	0	4
NMTAP	100	48	5
NMTAP	100	96	0
NMTAP	100	96	6
NMTAP	100	144	7
NMSTR	100	192	0
NMSI_	100	192	0	96	48	4
NMTAP	100	192	1
NMTAP	100	288	2
EXHLD	101	0	2	0
EXHLD	101	12	3	0
NMTAP	101	96	3
NMTAP	101	96	6
EXHLD	101	144	5	0
EXHLD	101	156	4	0
NMTAP	101	240	2
NMTAP	101	240	3
EXHLD	101	312	7	0
EXHLD	101	324	0	0
EXHLD	102	0	1	96
EXHLD	102	12	6	84
NMTAP	102	144	0
NMTAP	102	144	7
NMTAP	102	240	2
NMTAP	102	264	3
NMSTR	102	288	1
NMSCR	102	288	1	96	48	5
NMTAP	102	336	4
NMTAP	103	144	0
NMTAP	103	144	7
NMTAP	103	240	1
NMTAP	103	240	4
NMTAP	103	288	1
NMTAP	103	288	4
NMTAP	104	0	0
NMTAP	104	0	6
NMTAP	104	48	0
NMSTR	104	48	6
NMSI_	104	48	6	96	48	3
NMTAP	104	144	3
NMTAP	104	144	6
NMSTR	104	192	2
NMSI_	104	192	2	96	48	7
NMTAP	104	288	2
NMTAP	105	0	0
NMTAP	105	0	4
NMTAP	105	96	2
NMTAP	105	96	3
NMTAP	105	144	2
NMHLD	105	144	3	96
NMTAP	105	240	0
NMHLD	105	288	0	96
EXTAP	106	0	5
EXTAP	106	24	4
EXTAP	106	48	3
EXTAP	106	72	2
EXTAP	106	96	1
EXTAP	106	120	0
EXTAP	106	144	7
EXTAP	106	168	6
BXTAP	106	192	1
BXTAP	106	192	5
NMTAP	106	264	3
NMTAP	106	336	4
NMSTR	107	0	2
NMSCR	107	0	2	96	192	4
NMSTR	108	0	6
NMSCL	108	0	6	96	192	4
NMTAP	108	48	3
NMTAP	108	96	2
NMSTR	109	0	2
NMSXR	109	0	2	96	480	2
NMSTR	109	0	4
NMSXL	109	0	4	96	480	4

T_REC_TAP	488
T_REC_BRK	9
T_REC_XTP	49
T_REC_BXX	7
T_REC_HLD	146
T_REC_XHO	12
T_REC_BHO	9
T_REC_BXH	0
T_REC_STR	50
T_REC_BST	0
T_REC_XST	21
T_REC_XBS	0
T_REC_TTP	21
T_REC_THO	0
T_REC_SLD	70
T_REC_BSL	3
T_REC_ALL	885
T_NUM_TAP	629
T_NUM_BRK	28
T_NUM_HLD	158
T_NUM_SLD	70
T_NUM_ALL	885
T_JUDGE_TAP	645
T_JUDGE_HLD	239
T_JUDGE_SLD	73
T_JUDGE_ALL	957
TTM_EACHPAIRS	174
TTM_SCR_TAP	314500
TTM_SCR_BRK	72800
TTM_SCR_HLD	158000
TTM_SCR_SLD	105000
TTM_SCR_ALL	650300
TTM_SCR_S	628100
TTM_SCR_SS	647500
TTM_RAT_ACV	10043

