VERSION	0.00.00	1.04.00
FES_MODE	0
BPM_DEF	178.000	178.000	178.000	178.000
MET_DEF	4	4
RESOLUTION	384
CLK_DEF	384
COMPATIBLE_CODE	MA2

BPM	0	0	178.000
MET	0	0	4	4

NMHLD	3	0	2	96
NMTAP	3	96	3
NMTAP	3	192	2
NMTAP	3	192	4
NMTAP	3	288	2
NMTAP	3	288	4
NMHLD	4	0	5	96
NMTAP	4	96	4
NMTAP	4	192	3
NMTAP	4	192	5
NMTAP	4	288	3
NMTAP	4	288	5
NMTAP	5	0	2
NMTAP	5	96	1
NMTAP	5	96	3
NMTAP	5	192	5
NMTAP	5	288	4
NMTAP	5	288	6
NMTAP	6	0	7
NMTAP	6	96	0
NMTAP	6	96	6
NMTAP	6	192	1
NMTAP	6	192	5
NMTAP	6	288	2
NMTAP	6	288	4
NMHLD	7	0	5	96
NMTAP	7	96	4
NMTAP	7	192	3
NMTAP	7	192	5
NMTAP	7	288	3
NMTAP	7	288	5
NMHLD	8	0	2	96
NMTAP	8	96	3
NMTAP	8	192	2
NMTAP	8	192	4
NMTAP	8	288	2
NMTAP	8	288	4
NMTAP	9	0	5
NMTAP	9	96	4
NMTAP	9	96	6
NMTAP	9	192	2
NMTAP	9	288	1
NMTAP	9	288	3
NMTAP	10	0	0
NMTAP	10	96	1
NMTAP	10	96	7
NMSTR	10	192	6
NMSI_	10	192	6	96	96	2
BRTAP	11	0	0
NMHLD	13	0	1	576
NMTAP	13	96	3
NMTAP	13	192	3
NMTAP	13	288	3
NMTAP	14	0	2
NMTAP	14	96	2
NMTAP	14	192	0
NMTAP	14	288	0
NMTAP	14	288	1
NMHLD	15	0	7	288
NMTAP	15	96	4
NMTAP	15	192	5
NMSTR	15	288	6
NMSSR	15	288	6	96	192	2
NMTAP	17	0	1
NMTAP	17	48	1
NMTAP	17	96	3
NMTAP	17	192	2
NMTAP	17	192	4
NMTAP	17	288	3
NMTAP	17	288	5
NMTAP	18	0	6
NMTAP	18	48	6
NMTAP	18	96	4
NMTAP	18	192	3
NMTAP	18	192	5
EXSTR	18	288	2
NMSXR	18	288	2	96	288	6
NMTAP	18	288	4
NMTAP	20	0	7
NMTAP	20	96	0
NMTAP	20	96	6
NMTAP	20	192	1
NMTAP	20	192	5
BRTAP	20	288	1
BRTAP	20	288	5
NMHLD	21	0	6	576
NMTAP	21	96	4
NMTAP	21	192	4
NMTAP	21	288	4
NMTAP	22	0	5
NMTAP	22	96	5
NMTAP	22	192	7
NMTAP	22	288	6
NMTAP	22	288	7
NMHLD	23	0	0	288
NMTAP	23	96	3
NMTAP	23	192	2
NMSTR	23	288	1
BRSCL	23	288	1	96	192	5
NMTAP	25	0	5
NMTAP	25	48	5
NMTAP	25	96	4
NMTAP	25	192	4
NMSTR	25	192	6
NMSI_	25	192	6	96	96	3
NMTAP	26	0	1
NMTAP	26	48	1
NMTAP	26	96	3
NMTAP	26	192	1
NMTAP	26	192	3
NMSTR	26	288	0
NMSF_	26	288	0	96	144	4
EXTAP	27	240	3
EXTAP	27	240	5
EXTAP	27	288	3
EXTAP	27	288	5
NMTAP	28	0	2
NMTAP	28	0	4
NMTAP	28	96	0
NMTAP	28	96	6
BRTAP	28	192	1
BRTAP	28	192	5
NMHLD	29	0	6	384
NMTTP	29	192	5	E	0	M1
NMHLD	30	0	1	384
NMTTP	30	192	3	E	0	M1
NMHLD	31	0	4	192
NMSTR	31	192	3
NMSUR	31	192	3	96	240	4
BRTAP	32	288	1
BRTAP	32	288	6
BRTAP	33	0	1
BRTAP	33	0	6
NMTAP	33	96	2
NMTAP	33	96	3
NMTAP	33	192	1
NMHLD	33	240	1	96
NMTAP	33	336	0
NMTAP	34	0	0
NMTAP	34	96	6
NMTAP	34	144	6
NMTAP	34	192	7
NMTAP	34	288	0
NMTAP	34	288	5
NMTAP	35	0	2
NMTAP	35	48	2
NMTAP	35	96	3
NMTAP	35	144	3
NMTAP	35	192	1
NMTAP	35	240	1
NMHLD	35	288	7	96
NMHLD	36	0	6	96
NMHLD	36	96	5	96
NMTAP	36	192	4
NMTAP	36	288	2
NMTAP	36	288	3
NMSTR	37	0	0
NMSI_	37	0	0	96	48	4
NMSTR	37	0	1
NMSI_	37	0	1	96	48	3
NMSTR	37	192	6
NMSI_	37	192	6	96	48	4
NMSTR	37	192	7
NMSI_	37	192	7	96	48	3
NMSTR	38	0	0
NMSI_	38	0	0	96	48	4
NMSTR	38	0	1
NMSI_	38	0	1	96	48	3
NMTAP	38	192	6
NMTAP	38	192	7
NMTAP	38	288	6
NMTAP	38	288	7
NMTAP	39	0	5
NMTAP	39	48	5
NMTAP	39	96	4
NMHLD	39	192	3	72
NMHLD	39	264	2	72
NMTAP	39	336	1
BXTAP	40	0	1
BXTAP	40	96	0
BXTAP	40	96	1
BXTAP	40	192	6
BXTAP	40	192	7
BXTAP	40	288	4
BXTAP	40	288	5
BXTAP	41	0	3
BXTAP	41	0	6
NMTAP	41	96	4
NMTAP	41	96	5
NMTAP	41	192	6
NMHLD	41	240	6	96
NMTAP	41	336	7
NMTAP	42	0	7
NMTAP	42	96	1
NMTAP	42	144	1
NMTAP	42	192	0
NMTAP	42	288	2
NMTAP	42	288	3
EXSTR	43	0	2
NMSUL	43	0	2	96	96	5
EXHLD	43	0	4	192
EXHLD	43	288	3	192
EXSTR	43	288	5
BRSUR	43	288	5	96	96	2
EXSTR	44	192	3
BRSV_	44	192	3	96	96	0
EXSTR	44	192	4
NMSV_	44	192	4	96	96	7
NMTAP	45	96	1
NMHLD	45	144	1	96
NMTAP	45	240	0
NMTAP	45	288	0
NMTAP	46	0	6
NMTAP	46	0	7
NMTAP	46	96	5
NMHLD	46	144	5	96
NMTAP	46	240	4
NMTAP	46	288	4
NMTAP	47	0	3
NMTAP	47	0	6
NMTAP	47	96	2
NMTAP	47	96	5
NMTAP	47	192	1
NMTAP	47	192	4
NMSTR	47	288	2
BRSXR	47	288	2	96	288	4
NMSTR	47	288	5
NMSXL	47	288	5	96	288	3
BRTAP	49	0	2
BRTAP	49	0	5
NMHLD	49	192	6	96
NMTAP	49	288	4
NMTAP	50	0	3
NMTAP	50	96	2
NMTAP	50	96	3
NMTAP	50	192	4
NMTAP	50	288	4
NMTAP	50	288	5
NMTAP	51	0	1
NMTAP	51	96	2
NMTAP	51	96	3
NMTAP	51	192	6
NMSTR	51	288	4
NMSCL	51	288	4	96	144	0
NMTAP	51	288	5
EXTAP	52	288	0
EXTAP	52	288	7
NMHLD	53	0	1	96
NMTAP	53	96	3
NMTAP	53	192	5
NMTAP	53	240	5
NMTAP	53	288	3
NMHLD	54	0	6	96
NMTAP	54	96	4
NMTAP	54	192	2
NMTAP	54	240	2
NMTAP	54	288	4
NMTAP	55	0	3
NMTAP	55	0	5
NMTAP	55	96	6
NMTAP	55	192	1
NMTAP	55	192	7
NMTAP	55	288	2
NMHLD	56	0	1	96
NMTAP	56	96	0
NMTAP	56	192	0
NMTAP	56	192	7
NMSTR	56	288	6
NMSCL	56	288	6	96	192	2
NMTAP	56	288	7
NMSTR	57	288	0
NMSCR	57	288	0	96	240	5
NMTAP	59	0	6
NMHLD	59	96	6	576
NMTTP	59	192	1	E	0	M1
NMTTP	59	288	0	E	0	M1
NMTTP	60	0	7	E	0	M1
NMTTP	60	96	6	E	0	M1
NMTTP	60	192	5	E	0	M1
NMTTP	60	288	4	E	0	M1
NMTAP	61	0	1
NMHLD	61	96	1	576
NMTTP	61	192	7	E	0	M1
NMTTP	61	288	0	E	0	M1
NMTTP	62	0	1	E	0	M1
NMTTP	62	96	2	E	0	M1
NMTTP	62	192	3	E	0	M1
NMTTP	62	288	4	E	0	M1
NMHLD	63	0	5	96
NMHLD	63	96	4	96
NMHLD	63	192	3	96
NMTAP	63	288	2
EXHLD	64	0	1	96
EXHLD	64	96	0	96
EXHLD	64	192	7	96
EXHLD	64	288	6	96
NMSTR	65	0	5
NMSI_	65	0	5	96	96	1
NMTAP	66	0	0
NMTAP	66	96	1
NMTAP	66	96	7
NMTAP	66	192	2
NMTAP	66	192	6
NMSTR	66	288	3
NMSCR	66	288	3	96	192	7
NMHLD	66	288	5	1152
CNSUR	67	192	7	0	288	1
NMTAP	68	288	1
NMSTR	69	0	1
NMSCR	69	0	1	96	192	4
NMTAP	70	0	4
NMTAP	70	96	4
NMTAP	70	96	5
NMTAP	70	192	3
NMTAP	70	288	2
NMTAP	70	288	3
NMHLD	71	0	1	384
NMTAP	71	96	3
NMTAP	71	192	4
NMTAP	71	288	5
NMHLD	72	0	5	384
NMTAP	72	96	4
NMTAP	72	192	3
NMTAP	72	288	2
NMTAP	73	0	2
NMTAP	73	96	2
NMTAP	73	96	5
NMTAP	73	192	4
NMTAP	73	240	4
NMSTR	73	288	3
NMSUR	73	288	3	96	192	4
BRTAP	74	288	1
BRTAP	74	288	6
BRTAP	75	0	1
BRTAP	75	0	6
NMTAP	75	96	4
NMTAP	75	96	5
NMTAP	75	192	6
NMHLD	75	240	6	96
NMTAP	75	336	7
NMTAP	76	0	7
NMTAP	76	96	1
NMTAP	76	144	1
NMTAP	76	192	0
NMTAP	76	192	1
NMTAP	76	288	2
NMTAP	76	288	7
NMTAP	77	0	6
NMTAP	77	48	6
NMTAP	77	96	4
NMTAP	77	144	5
NMTAP	77	192	1
NMTAP	77	240	1
NMTAP	77	288	3
NMTAP	77	336	2
NMHLD	78	0	5	96
NMHLD	78	96	7	96
NMHLD	78	192	0	96
NMTAP	78	288	2
NMSTR	79	0	0
NMSI_	79	0	0	96	48	5
NMSTR	79	0	1
NMSI_	79	0	1	96	48	4
NMSTR	79	192	6
NMSI_	79	192	6	96	48	3
NMSTR	79	192	7
NMSI_	79	192	7	96	48	2
NMSTR	80	0	0
NMSI_	80	0	0	96	48	5
NMSTR	80	0	1
NMSI_	80	0	1	96	48	4
NMTAP	80	192	6
NMTAP	80	192	7
NMTAP	80	288	6
NMTAP	80	288	7
NMTAP	81	0	5
NMTAP	81	48	5
NMTAP	81	96	4
NMHLD	81	192	3	72
NMHLD	81	264	2	72
NMTAP	81	336	1
BRTAP	82	0	1
BRTAP	82	96	0
BRTAP	82	96	1
BRTAP	82	192	6
BRTAP	82	192	7
BRTAP	82	288	4
BRTAP	82	288	5
BRTAP	83	0	3
BRTAP	83	0	6
NMTAP	83	96	2
NMTAP	83	192	1
NMHLD	83	240	1	96
NMTAP	83	336	0
NMTAP	84	0	0
NMTAP	84	96	6
NMTAP	84	144	6
NMTAP	84	192	6
NMTAP	84	192	7
NMTAP	84	288	4
NMTAP	84	288	5
NMHLD	85	0	3	192
NMSTR	85	0	5
NMSCR	85	0	5	96	96	0
NMSTR	85	288	2
BRSCL	85	288	2	96	96	7
NMHLD	85	288	4	192
EXTAP	86	192	0
EXTAP	86	192	7
EXSTR	86	288	0
NMSUL	86	288	0	96	96	3
EXSTR	86	288	7
BRSUR	86	288	7	96	96	4
NMTAP	87	192	2
NMTAP	87	192	5
NMTAP	87	288	2
NMTAP	87	288	5
NMTAP	88	0	1
NMTAP	88	0	6
NMTAP	88	96	5
NMHLD	88	144	5	96
NMTAP	88	240	4
NMTAP	88	288	4
NMTAP	89	0	3
NMTAP	89	0	4
NMTAP	89	96	2
NMTAP	89	144	2
NMTAP	89	240	3
NMTAP	89	240	4
EXSTR	89	288	3
NMSI_	89	288	3	96	48	1
EXSTR	89	288	4
NMSI_	89	288	4	96	48	6
EXSTR	90	96	3
NMSI_	90	96	3	96	48	0
EXSTR	90	96	4
NMSI_	90	96	4	96	48	7
BXSTR	90	288	3
NMSXR	90	288	3	96	288	0
BXSTR	90	288	4
NMSXL	90	288	4	96	288	7
NMHLD	92	0	6	96
NMHLD	92	96	4	96
NMHLD	92	192	3	96
EXTAP	92	288	2
NMTAP	93	0	1
NMTAP	93	48	1
NMTAP	93	96	0
NMTAP	93	96	1
NMTAP	93	192	6
NMTAP	93	240	6
NMTAP	93	288	6
NMTAP	93	288	7
NMTAP	94	0	4
NMTAP	94	0	6
NMTAP	94	96	2
NMTAP	94	96	3
NMTAP	94	192	4
NMTAP	94	192	5
NMTAP	94	288	1
NMTAP	94	288	3
NMHLD	95	0	0	96
NMTAP	95	96	3
NMTAP	95	192	4
NMTAP	95	288	3
NMTAP	95	288	5
NMHLD	96	0	7	96
NMTAP	96	96	4
NMTAP	96	192	3
NMTAP	96	288	2
NMTAP	96	288	4
NMTAP	97	0	1
NMTAP	97	48	1
NMTAP	97	96	3
NMTAP	97	192	6
NMTAP	97	240	6
NMTAP	97	288	4
EXTAP	98	0	4
EXTAP	98	0	6
EXTAP	98	32	4
EXTAP	98	32	6
EXTAP	98	96	3
EXTAP	98	96	5
EXTAP	98	128	3
EXTAP	98	128	5
EXTAP	98	192	2
EXTAP	98	192	4
EXTAP	98	224	2
EXTAP	98	224	4
EXTAP	98	288	1
EXTAP	98	288	3
EXTAP	98	320	1
EXTAP	98	320	3
NMTAP	99	0	2
NMTAP	99	96	2
NMTAP	99	96	3
NMSTR	99	192	4
NMSI_	99	192	4	96	48	0
NMTAP	99	192	5
NMTAP	100	0	6
NMTAP	100	0	7
NMTAP	100	96	4
NMTAP	100	96	5
NMTAP	100	192	2
NMSTR	100	192	3
NMSI_	100	192	3	96	48	7
NMHLD	101	0	2	96
NMTAP	101	96	0
NMHLD	101	144	0	96
NMTAP	101	240	7
NMHLD	101	288	7	96
NMSTR	102	0	5
NMSCL	102	0	5	96	96	2
NMSTR	102	192	1
NMSUR	102	192	1	96	96	6
NMTAP	103	0	7
NMTAP	103	96	7
NMTAP	103	192	0
NMTAP	103	192	6
NMTAP	103	288	1
NMTAP	103	288	5
NMTAP	104	0	0
NMTAP	104	96	0
NMTAP	104	192	1
NMTAP	104	192	7
NMTAP	104	288	2
NMTAP	104	288	6
NMTAP	105	0	4
NMTAP	105	0	5
NMTAP	105	96	6
NMTAP	105	96	7
NMTAP	105	192	0
NMTAP	105	192	1
NMSTR	105	288	2
NMSXR	105	288	2	96	288	7
NMSTR	105	288	3
NMSXL	105	288	3	96	288	7
NMSTR	107	0	0
NMSCR	107	0	0	96	192	3
NMHLD	107	0	6	1536
NMSTR	108	0	4
NMSCL	108	0	4	96	144	2
NMHLD	109	0	2	768

T_REC_TAP	312
T_REC_BRK	24
T_REC_XTP	25
T_REC_BXX	9
T_REC_HLD	52
T_REC_XHO	6
T_REC_BHO	0
T_REC_BXH	0
T_REC_STR	37
T_REC_BST	0
T_REC_XST	11
T_REC_XBS	2
T_REC_TTP	14
T_REC_THO	0
T_REC_SLD	44
T_REC_BSL	6
T_REC_ALL	542
T_NUM_TAP	399
T_NUM_BRK	41
T_NUM_HLD	58
T_NUM_SLD	44
T_NUM_ALL	542
T_JUDGE_TAP	434
T_JUDGE_HLD	264
T_JUDGE_SLD	50
T_JUDGE_ALL	748
TTM_EACHPAIRS	130
TTM_SCR_TAP	199500
TTM_SCR_BRK	106600
TTM_SCR_HLD	58000
TTM_SCR_SLD	66000
TTM_SCR_ALL	430100
TTM_SCR_S	413250
TTM_SCR_SS	426000
TTM_RAT_ACV	10096

