VERSION	0.00.00	1.04.00
FES_MODE	0
BPM_DEF	100.000	100.000	100.000	100.000
MET_DEF	4	4
RESOLUTION	384
CLK_DEF	384
COMPATIBLE_CODE	MA2

BPM	0	0	100.000
MET	0	0	4	4

NMTTP	1	288	4	E	0	M1
NMTAP	2	0	5
NMHLD	2	48	5	336
NMTAP	2	96	3
NMTAP	2	192	4
NMTAP	2	240	4
NMTAP	2	288	3
NMTAP	3	0	2
NMHLD	3	48	2	336
NMTAP	3	96	4
NMTAP	3	192	3
NMTAP	3	240	3
NMTAP	3	288	4
NMTAP	4	0	5
NMHLD	4	48	5	144
NMTAP	4	96	4
NMTAP	4	144	3
NMTAP	4	192	2
NMHLD	4	240	2	144
NMTAP	4	288	3
NMTAP	4	336	4
NMTTP	5	0	5	E	0	M1
NMTAP	5	48	3
NMTAP	5	48	5
NMTTP	5	96	3	E	0	M1
NMTAP	5	144	2
NMTAP	5	144	4
NMTTP	5	192	4	E	0	M1
NMTAP	5	240	2
NMTAP	5	240	5
NMSTR	5	288	3
NMSCL	5	288	3	96	48	0
NMTAP	5	304	4
NMTAP	5	320	3
NMTAP	5	336	4
NMSTR	6	0	3
NMSCR	6	0	3	96	48	6
NMSTR	6	96	3
NMSCL	6	96	3	96	48	0
NMSTR	6	192	3
NMSCR	6	192	3	96	48	6
NMTAP	6	288	3
NMHLD	7	0	6	48
NMHLD	7	48	4	48
NMHLD	7	96	3	48
NMHLD	7	144	1	48
NMTAP	7	192	5
NMTAP	7	240	5
NMSTR	7	288	0
NMSXL	7	288	0	96	144	3
NMTAP	7	336	7
NMTAP	8	0	6
NMTAP	8	48	5
NMSTR	8	96	4
NMSXL	8	96	4	96	144	7
NMTAP	8	144	5
NMTAP	8	192	2
NMTAP	8	240	1
NMSTR	8	288	0
NMSI_	8	288	0	96	48	5
NMTAP	8	336	0
CNSLL	9	48	5	0	96	1
BRTAP	9	240	2
BRHLD	9	240	5	80
BRTAP	9	320	3
BRTAP	9	352	2
BRTAP	9	352	4
BRSTR	10	0	1
NMSCR	10	0	1	96	48	5
BRTAP	10	0	3
NMHLD	10	96	7	96
NMTAP	10	192	4
NMTAP	10	240	4
NMTAP	10	288	3
NMTAP	10	288	5
NMTAP	10	336	2
NMSTR	11	0	1
NMSLR	11	0	1	96	48	5
NMTAP	11	48	0
NMTAP	11	96	7
NMTAP	11	144	7
NMSTR	11	192	3
NMSV_	11	192	3	96	48	0
NMSTR	11	192	5
NMSV_	11	192	5	96	48	0
NMTAP	11	240	4
NMSTR	12	0	1
NMSXL	12	0	1	96	96	5
NMTAP	12	48	0
NMTAP	12	96	6
NMTAP	12	192	7
NMTAP	12	240	7
NMSTR	12	288	6
NMSI_	12	288	6	96	48	1
NMTAP	12	336	3
NMSTR	13	0	2
NMSI_	13	0	2	96	48	5
NMTAP	13	0	6
NMTAP	13	96	2
NMSTR	13	96	6
NMSCR	13	96	6	96	48	1
NMSTR	13	192	2
NMSCR	13	192	2	96	48	5
NMTAP	13	192	6
NMTAP	13	240	3
NMTAP	13	336	6
NMSTR	14	0	6
NMSCL	14	0	6	96	48	2
NMHLD	14	96	1	96
NMTAP	14	192	7
NMTAP	14	240	7
NMTAP	14	288	2
NMTAP	14	288	4
NMTAP	14	336	5
NMTAP	15	0	3
NMSTR	15	0	6
NMSLL	15	0	6	96	48	2
NMTAP	15	48	7
NMHLD	15	96	1	144
NMHLD	15	192	4	48
NMSTR	15	288	2
BRSCL	15	288	2	96	48	7
NMTAP	16	0	2
NMSTR	16	0	6
BRSCL	16	0	6	96	48	3
NMTAP	16	96	1
NMTAP	16	96	6
NMTAP	16	192	0
NMTAP	16	240	0
NMTTP	16	288	2	B	0	M1
NMTTP	16	288	2	A	0	M1
NMTTP	16	288	3	B	0	M1
NMTTP	16	288	3	E	0	M1
NMHLD	17	0	0	48
NMHLD	17	0	6	48
NMTAP	17	96	1
NMTAP	17	96	7
NMTAP	17	176	3
NMSTR	17	192	4
NMSI_	17	192	4	96	32	0
NMTAP	17	240	3
NMTAP	17	240	5
NMTTP	17	288	5	A	0	M1
NMTTP	17	288	6	E	0	M1
NMTTP	17	288	6	A	0	M1
NMTTP	17	288	6	D	1	M1
NMSTR	18	0	1
NMSCR	18	0	1	96	48	5
NMTAP	18	0	4
NMTAP	18	48	6
NMTAP	18	96	1
NMSTR	18	96	7
NMSXR	18	96	7	96	96	4
NMTAP	18	144	7
NMTAP	18	192	0
NMTAP	18	240	2
NMSTR	18	288	3
NMSCR	18	288	3	96	48	6
NMTAP	18	336	2
NMTAP	18	336	4
NMSTR	19	0	3
NMSCL	19	0	3	96	48	0
NMTAP	19	48	2
NMSTR	19	96	3
NMSXL	19	96	3	96	96	7
NMTAP	19	144	4
NMTAP	19	192	3
NMTAP	19	240	2
NMHLD	19	288	2	32
NMTAP	19	368	3
NMTAP	19	368	7
NMTAP	20	32	4
NMTAP	20	32	6
NMTAP	20	80	5
NMSTR	20	96	4
NMSCL	20	96	4	96	48	1
NMTAP	20	144	3
NMTAP	20	144	5
NMSTR	20	192	4
NMSLR	20	192	4	96	48	0
NMTAP	20	240	5
NMSTR	20	288	3
NMSV_	20	288	3	96	48	6
NMTAP	20	288	4
NMTAP	20	336	2
NMSTR	21	0	5
NMSCL	21	0	5	96	48	2
NMSTR	21	96	7
NMSCR	21	96	7	96	48	3
NMTAP	21	192	4
CNSXR	21	240	3	0	96	4
NMTAP	21	240	5
NMTAP	21	288	6
NMTAP	22	0	3
NMSTR	22	0	6
NMSCL	22	0	6	96	48	2
NMTAP	22	48	1
NMSTR	22	96	0
NMSXL	22	96	0	96	96	3
NMTAP	22	96	6
NMTAP	22	144	0
NMTAP	22	192	7
NMTAP	22	240	5
NMSTR	22	288	4
NMSCL	22	288	4	96	48	1
NMTAP	22	336	3
NMTAP	22	336	5
NMSTR	23	0	4
NMSCR	23	0	4	96	48	7
NMTAP	23	48	5
NMSTR	23	96	4
NMSSL	23	96	4	96	96	0
NMTAP	23	144	3
NMTAP	23	192	4
NMTAP	23	240	5
NMSTR	23	288	6
NMSI_	23	288	6	96	32	4
NMSTR	23	336	1
NMSI_	23	336	1	96	48	5
NMSTR	24	0	6
NMSCR	24	0	6	96	48	1
NMTAP	24	48	1
NMSTR	24	96	6
NMSI_	24	96	6	96	48	3
NMSTR	24	144	2
NMSI_	24	144	2	96	48	5
NMTAP	24	192	6
NMTAP	24	240	2
NMSTR	24	288	7
NMSI_	24	288	7	96	48	2
NMTAP	24	336	4
NMTAP	24	336	6
NMTAP	25	0	3
NMSTR	25	0	7
NMSI_	25	0	7	96	48	4
NMTAP	25	48	3
NMTAP	25	96	3
NMSTR	25	96	7
NMSI_	25	96	7	96	32	1
NMTAP	25	144	3
NMTAP	25	192	3
NMSTR	25	192	7
NMSI_	25	192	7	96	32	5
NMTAP	25	240	3
NMTAP	25	288	3
NMTAP	25	288	7
NMTAP	25	304	2
NMTAP	25	320	1
NMTAP	25	336	0
NMTAP	25	352	7
NMTAP	25	368	6
NMTAP	26	0	5
NMHLD	26	96	4	48
NMHLD	26	96	6	48
NMHLD	26	192	3	48
NMHLD	26	192	5	48
NMTTP	26	288	2	A	0	M1
NMTTP	26	288	3	B	0	M1
NMTTP	26	288	3	E	0	M1
NMTTP	26	336	1	B	0	M1
NMTTP	26	336	2	E	0	M1
NMTTP	26	336	2	D	0	M1
NMTTP	27	0	0	E	0	M1
NMTTP	27	0	0	A	0	M1
NMTTP	27	0	1	D	0	M1
NMTTP	27	96	4	B	0	M1
NMTTP	27	96	5	E	0	M1
NMTTP	27	96	5	A	0	M1
NMTTP	27	144	6	B	0	M1
NMTTP	27	144	6	E	0	M1
NMTTP	27	144	6	D	0	M1
NMTTP	27	192	0	E	0	M1
NMTTP	27	192	7	A	0	M1
NMTTP	27	192	7	D	0	M1
NMHLD	27	288	0	48
NMHLD	27	288	7	48
NMHLD	28	0	4	48
NMHLD	28	0	6	48
NMHLD	28	96	1	48
NMHLD	28	96	3	48
NMHLD	28	192	2	48
NMHLD	28	192	4	48
NMSTR	28	288	0
NMSCR	28	288	0	96	32	1
NMTAP	28	288	7
NMTAP	28	336	0
NMHLD	28	336	7	336
CNSV_	29	32	1	0	64	2
CNSI_	29	96	2	0	32	4
CNSCL	29	128	4	0	32	3
CNSI_	29	160	3	0	32	5
CNSXL	29	192	5	0	96	6
NMTAP	30	0	5
NMTAP	30	24	4
NMTAP	30	48	3
NMTAP	30	72	2
NMTAP	30	96	4
NMTAP	30	120	5
NMTAP	30	144	4
NMTAP	30	168	3
NMHLD	30	192	2	48
NMTAP	30	240	4
NMTAP	30	288	3
NMTAP	30	288	4
NMTAP	30	336	3
NMTAP	30	336	5
NMTAP	31	0	5
NMTAP	31	24	4
NMTAP	31	48	3
NMTAP	31	72	2
NMTAP	31	96	2
NMTAP	31	120	5
NMTAP	31	144	4
NMTAP	31	168	3
NMTAP	31	192	2
NMTAP	31	240	2
NMTAP	31	240	4
NMTAP	31	288	5
NMTAP	31	336	3
NMTAP	31	336	5
NMTAP	32	0	4
NMTAP	32	24	3
NMTAP	32	48	2
NMTAP	32	72	5
NMTAP	32	96	4
NMTAP	32	120	3
NMTAP	32	144	2
NMTAP	32	168	4
NMTAP	32	192	5
NMTAP	32	240	3
NMTAP	32	240	5
NMTAP	32	288	2
NMTAP	32	336	2
NMTAP	32	336	4
NMHLD	33	0	5	48
NMTAP	33	48	4
NMHLD	33	72	3	48
NMTAP	33	120	4
NMHLD	33	144	5	48
NMTAP	33	192	4
NMTAP	33	240	2
NMTAP	33	240	3
NMSTR	33	288	1
NMSCL	33	288	1	96	96	6
NMTAP	33	288	4
NMTAP	33	336	1
NMTAP	33	336	4
NMTAP	34	0	3
NMTAP	34	48	2
NMSTR	34	96	1
NMSV_	34	96	1	96	96	6
NMTAP	34	144	1
NMTAP	34	192	3
NMTAP	34	240	2
NMSTR	34	288	1
NMSI_	34	288	1	96	96	6
NMTAP	34	336	1
NMTAP	35	0	3
NMTAP	35	48	2
NMSTR	35	96	1
NMSV_	35	96	1	96	96	6
NMTAP	35	144	1
NMTAP	35	192	3
NMTAP	35	240	2
NMSTR	35	288	1
NMSCL	35	288	1	96	96	6
NMTAP	35	336	1
NMTAP	36	0	3
NMTAP	36	48	2
NMSTR	36	96	1
NMSI_	36	96	1	96	96	6
NMTAP	36	144	1
NMTAP	36	192	3
NMTAP	36	240	2
NMSTR	36	288	1
NMSV_	36	288	1	96	96	6
NMTAP	36	336	1
NMTAP	37	0	3
NMTAP	37	48	2
NMSTR	37	96	1
NMSLL	37	96	1	96	96	5
NMTAP	37	144	1
NMTAP	37	192	3
NMTAP	37	240	2
NMTAP	37	288	1
NMTAP	37	336	1
NMTTP	38	0	4	E	0	M1
NMTTP	38	32	5	E	0	M1
NMTTP	38	64	6	E	0	M1
NMTTP	38	96	7	E	0	M1
NMTTP	38	128	0	E	0	M1
NMTTP	38	160	1	E	0	M1
NMTTP	38	192	2	E	0	M1
NMTAP	38	240	1
NMTAP	38	240	3
NMSTR	38	288	0
NMSCR	38	288	0	96	48	3
NMTAP	38	304	4
NMTAP	38	320	0
NMSTR	38	336	4
BRSCR	38	336	4	96	48	7
NMSTR	39	0	0
NMSI_	39	0	0	96	48	4
NMSTR	39	48	4
NMSI_	39	48	4	96	48	1
NMTAP	39	96	0
NMTAP	39	144	7
NMSTR	39	192	5
NMSCR	39	192	5	96	48	1
NMTAP	39	240	5
NMTAP	39	288	2
NMTAP	39	336	2
NMSTR	40	0	1
NMSI_	40	0	1	96	32	3
NMTAP	40	0	5
NMTAP	40	48	1
NMTAP	40	48	5
NMTAP	40	96	6
CNSV_	40	128	3	0	64	4
NMTAP	40	144	7
CNSI_	40	192	4	0	32	6
NMSTR	40	192	7
NMSUR	40	192	7	96	48	3
NMTAP	40	240	7
NMHLD	40	288	4	32
NMTAP	40	368	5
NMTAP	41	32	4
NMTAP	41	32	6
NMTAP	41	80	6
NMSTR	41	96	7
NMSXR	41	96	7	96	96	7
NMTAP	41	144	7
NMTAP	41	192	0
NMTAP	41	240	1
NMSTR	41	288	2
NMSCL	41	288	2	96	96	5
NMTAP	41	336	2
NMSTR	42	0	5
NMSCR	42	0	5	96	96	2
NMSTR	42	96	2
NMSCL	42	96	2	96	96	5
NMTAP	42	192	5
NMSTR	42	288	4
NMSLR	42	288	4	96	96	0
NMTAP	42	336	3
NMTAP	43	0	2
NMSTR	43	0	4
NMSXR	43	0	4	96	96	7
NMTAP	43	48	3
NMTAP	43	96	4
NMTAP	43	144	5
NMTAP	43	192	5
NMTAP	43	240	4
NMHLD	43	288	0	0
NMHLD	43	288	6	0
NMHLD	43	312	0	0
NMHLD	43	312	6	0
NMHLD	43	336	1	0
NMHLD	43	336	5	0
NMHLD	43	360	1	0
NMHLD	43	360	5	0
NMSTR	44	0	2
NMSI_	44	0	2	96	48	6
NMTAP	44	0	4
NMTAP	44	48	3
NMSTR	44	96	2
NMSCL	44	96	2	96	32	0
NMTAP	44	96	4
NMTAP	44	144	3
NMTAP	44	192	2
NMTAP	44	192	4
NMTAP	44	240	3
NMSTR	44	288	0
NMSI_	44	288	0	96	48	6
NMTAP	44	288	5
NMTAP	44	336	0
NMHLD	44	336	5	336
CNSI_	45	48	6	0	48	1
CNSI_	45	96	1	0	48	5
CNSI_	45	144	5	0	48	2
CNSI_	45	192	2	0	48	4
NMTAP	45	288	3
NMTAP	46	0	6
NMTAP	46	0	7
NMTAP	46	48	4
NMTAP	46	48	5
NMSTR	46	96	2
BRSUR	46	96	2	96	96	3
NMSTR	46	96	3
BRSCR	46	96	3	96	96	2
NMTAP	46	144	0
NMTAP	46	144	1
BRSTR	47	0	7
NMSI_	47	0	7	96	48	3
NMTAP	47	48	6
NMSTR	47	96	5
NMSI_	47	96	5	96	48	1
NMTAP	47	144	4
NMSTR	47	192	3
NMSI_	47	192	3	96	48	7
NMTAP	47	240	2
NMSTR	47	288	1
NMSI_	47	288	1	96	48	5
NMTAP	47	336	0
NMSTR	48	0	7
NMSI_	48	0	7	96	48	3
NMTAP	48	48	6
NMSTR	48	96	5
NMSI_	48	96	5	96	48	1
NMTAP	48	144	4
NMSTR	48	192	3
NMSXL	48	192	3	96	144	7
NMTAP	48	240	2
NMTAP	48	288	1
NMTAP	48	336	1
NMSTR	49	0	0
NMSUR	49	0	0	96	48	4
NMSTR	49	96	0
NMSCL	49	96	0	96	48	5
NMSTR	49	192	0
NMSV_	49	192	0	96	48	3
NMTAP	49	240	1
NMTAP	49	288	0
NMTAP	49	288	6
NMTAP	49	336	7
NMSTR	50	0	0
NMSCL	50	0	0	96	48	5
NMSTR	50	0	1
NMSCR	50	0	1	96	48	4
NMTAP	50	48	2
NMTAP	50	48	7
NMSTR	50	96	0
NMSI_	50	96	0	96	48	4
NMSTR	50	96	1
NMSI_	50	96	1	96	48	5
BRTAP	50	192	0
BRTAP	50	192	1
BRTAP	50	288	3
BRTAP	50	288	6
NMSTR	51	0	7
NMSV_	51	0	7	96	48	1
NMTAP	51	48	4
NMSTR	51	96	7
NMSI_	51	96	7	96	48	3
NMTAP	51	144	4
NMSTR	51	192	7
NMSV_	51	192	7	96	48	5
NMTAP	51	240	2
NMTAP	51	288	7
NMTAP	51	336	2
NMHLD	52	0	1	48
NMTAP	52	0	4
NMTAP	52	48	3
NMTAP	52	96	3
NMHLD	52	96	6	48
NMTAP	52	144	4
NMSTR	52	192	3
NMSCL	52	192	3	96	32	1
NMSTR	52	192	4
NMSCR	52	192	4	96	32	6
NMTAP	52	240	2
NMTAP	52	240	5
NMSTR	53	0	1
NMSI_	53	0	1	96	48	5
NMTAP	53	16	4
NMTAP	53	32	2
NMTAP	53	48	4
NMTAP	53	96	1
NMSTR	53	192	6
NMSI_	53	192	6	96	48	0
NMTAP	53	208	3
NMTAP	53	224	5
NMTAP	53	240	3
NMSTR	53	288	3
NMSCL	53	288	3	96	48	0
NMTAP	53	288	6
NMSTR	54	0	3
NMSCR	54	0	3	96	48	6
NMTAP	54	48	5
NMSTR	54	96	3
NMSCL	54	96	3	96	48	0
NMTAP	54	144	1
NMTAP	54	192	3
NMTAP	54	240	4
NMTAP	54	288	3
NMTAP	54	304	4
NMTAP	54	320	5
NMTAP	54	336	6
NMTAP	54	352	7
NMTAP	54	368	0
NMHLD	55	0	1	672
NMSTR	55	192	3
NMSUR	55	192	3	96	96	4
NMTTP	56	288	4	E	0	M1
NMSTR	57	0	5
NMSCR	57	0	5	96	48	7
NMTAP	57	96	3
NMTAP	57	144	3
NMSTR	57	192	2
NMSCL	57	192	2	96	48	0
NMTAP	57	288	4
NMTAP	57	336	4
NMSTR	58	0	5
NMSCR	58	0	5	96	48	7
NMTAP	58	96	3
NMTAP	58	144	3
NMTAP	58	192	2
NMTAP	58	240	2
NMSTR	58	288	4
NMSI_	58	288	4	96	96	7
NMTAP	58	336	4
NMTAP	58	352	5
NMTAP	58	368	3
NMHLD	59	0	2	384
CNSCR	59	96	7	0	96	0
CNSI_	59	192	0	0	96	3
CNSCR	59	288	3	0	96	4

T_REC_TAP	305
T_REC_BRK	9
T_REC_XTP	0
T_REC_BXX	0
T_REC_HLD	46
T_REC_XHO	0
T_REC_BHO	1
T_REC_BXH	0
T_REC_STR	99
T_REC_BST	2
T_REC_XST	0
T_REC_XBS	0
T_REC_TTP	38
T_REC_THO	0
T_REC_SLD	96
T_REC_BSL	5
T_REC_ALL	601
T_NUM_TAP	442
T_NUM_BRK	17
T_NUM_HLD	46
T_NUM_SLD	96
T_NUM_ALL	601
T_JUDGE_TAP	453
T_JUDGE_HLD	192
T_JUDGE_SLD	101
T_JUDGE_ALL	746
TTM_EACHPAIRS	79
TTM_SCR_TAP	221000
TTM_SCR_BRK	44200
TTM_SCR_HLD	46000
TTM_SCR_SLD	144000
TTM_SCR_ALL	455200
TTM_SCR_S	439900
TTM_SCR_SS	453500
TTM_RAT_ACV	10037

