VERSION	0.00.00	1.04.00
FES_MODE	0
BPM_DEF	100.000	100.000	100.000	100.000
MET_DEF	4	4
RESOLUTION	384
CLK_DEF	384
COMPATIBLE_CODE	MA2

BPM	0	0	100.000
MET	0	0	4	4

NMHLD	2	0	3	192
NMHLD	2	192	4	192
NMHLD	3	0	3	192
NMHLD	3	192	4	192
NMHLD	4	0	2	192
NMHLD	4	192	3	192
NMHLD	5	0	4	192
NMTAP	5	192	5
NMTAP	5	288	3
NMTAP	5	288	4
NMTAP	6	0	2
NMTAP	6	48	2
NMTAP	6	96	3
NMTAP	6	192	5
NMTAP	6	240	5
NMTAP	6	288	4
NMTAP	7	0	4
NMSTR	7	0	5
NMSCR	7	0	5	96	96	0
NMSTR	7	192	1
NMSCR	7	192	1	96	96	4
NMTAP	8	0	6
NMTAP	8	48	6
NMTAP	8	96	7
NMTAP	8	192	1
NMTAP	8	240	1
NMTAP	8	288	0
NMTAP	9	0	2
NMSTR	9	0	7
BRSI_	9	0	7	96	144	3
EXTAP	10	0	2
NMTAP	10	96	2
NMTAP	10	96	3
NMTAP	10	192	5
NMTAP	10	240	5
NMTAP	10	288	4
NMTAP	10	288	6
NMTAP	11	0	3
NMTAP	11	96	2
NMTAP	11	96	3
NMTAP	11	192	5
NMTAP	11	240	5
NMTAP	11	288	4
NMTAP	11	288	6
NMTAP	12	0	3
NMHLD	12	0	5	96
NMTAP	12	96	4
NMTAP	12	192	2
NMTAP	12	240	2
NMTAP	12	288	1
NMTAP	12	288	3
NMTAP	13	0	0
NMTAP	13	0	7
NMTAP	13	96	6
NMTAP	13	96	7
NMTAP	13	192	5
NMTAP	13	240	5
EXTAP	13	288	4
EXTAP	13	288	6
BRTAP	14	0	1
BRTAP	14	0	5
NMTAP	14	96	2
NMTAP	14	96	3
NMTAP	14	192	5
NMTAP	14	240	5
NMTAP	14	288	4
NMTAP	14	288	6
NMTAP	15	0	2
NMTAP	15	0	3
NMTAP	15	96	1
NMTAP	15	96	4
NMTAP	15	192	6
NMTAP	15	240	6
NMTAP	15	288	5
NMTAP	15	288	7
NMTAP	16	0	0
NMTAP	16	0	6
NMTAP	16	96	1
NMTAP	16	96	7
NMTAP	16	192	2
NMTAP	16	192	5
NMTAP	16	240	2
NMTAP	16	240	5
NMSTR	16	288	2
NMSXR	16	288	2	96	192	2
NMSTR	16	288	5
NMSXL	16	288	5	96	192	5
BRTAP	18	0	3
BRTAP	18	0	5
NMHLD	18	96	1	96
NMTAP	18	96	7
NMTAP	18	192	0
NMTAP	18	240	7
NMTAP	18	288	0
NMTAP	18	288	6
NMTAP	19	0	2
NMTAP	19	0	4
NMTAP	19	96	3
NMHLD	19	96	5	96
NMTAP	19	192	4
NMTAP	19	240	3
NMTAP	19	288	2
NMTAP	19	288	4
NMTAP	20	0	1
NMTAP	20	0	3
NMTAP	20	96	4
NMTAP	20	96	6
NMTAP	20	192	1
NMTAP	20	240	1
NMTAP	20	288	0
NMTAP	20	288	2
NMHLD	21	0	2	96
NMTAP	21	0	7
NMTAP	21	96	3
NMTAP	21	192	4
NMTAP	21	192	5
NMTAP	21	288	2
NMTAP	21	288	7
BRTAP	22	0	3
BRTAP	22	0	5
NMTAP	22	48	2
NMHLD	22	96	1	96
NMHLD	22	192	7	96
NMTAP	22	288	4
NMTAP	23	0	2
NMTAP	23	0	4
NMTAP	23	48	5
NMHLD	23	96	6	96
NMHLD	23	192	0	96
NMTAP	23	288	3
NMTAP	24	0	2
NMTAP	24	48	2
NMTAP	24	96	1
NMTAP	24	96	3
NMTAP	24	192	5
NMTAP	24	240	5
NMHLD	24	288	4	96
NMTAP	24	288	6
NMTAP	25	0	6
NMTAP	25	48	7
NMTAP	25	96	0
NMTAP	25	144	1
NMTAP	25	192	2
NMTAP	25	240	3
NMTAP	25	288	4
NMTAP	25	336	5
EXHLD	26	0	6	96
NMHLD	26	96	5	96
NMHLD	26	192	4	96
NMTAP	26	288	3
NMTAP	26	336	3
NMTAP	27	0	2
NMTAP	27	0	4
NMTAP	27	96	4
NMTAP	27	144	4
NMTAP	27	192	3
NMTAP	27	192	5
NMTAP	27	288	2
NMTAP	27	288	4
NMHLD	28	0	1	96
NMHLD	28	96	2	96
NMHLD	28	192	3	96
NMTAP	28	288	4
NMTAP	28	336	4
NMTAP	29	0	3
NMSTR	29	0	5
BRSCR	29	0	5	96	96	0
NMSTR	29	192	1
BRSV_	29	192	1	96	96	4
NMTAP	30	0	7
NMTAP	30	48	7
NMTAP	30	96	7
NMTAP	30	144	7
NMTAP	30	192	6
NMTAP	30	240	6
NMTAP	30	288	6
NMTAP	30	336	6
NMTAP	31	0	5
NMTAP	31	48	5
NMTAP	31	96	5
NMTAP	31	144	5
NMTAP	31	192	3
NMTAP	31	192	4
NMTAP	31	240	3
NMTAP	31	240	4
NMTAP	31	288	3
NMTAP	31	288	4
NMTAP	32	0	2
NMTAP	32	48	2
NMTAP	32	96	2
NMTAP	32	144	2
NMTAP	32	192	1
NMTAP	32	240	1
NMTAP	32	288	1
NMTAP	32	336	1
NMTAP	33	0	0
NMTAP	33	48	0
NMTAP	33	96	0
NMTAP	33	144	0
NMTAP	33	192	1
NMTAP	33	192	7
NMTAP	33	240	1
NMTAP	33	240	7
EXTAP	33	288	1
EXTAP	33	288	7
NMTTP	34	0	2	B	0	M1
NMTTP	34	0	3	E	0	M1
NMTTP	34	48	3	B	0	M1
NMTTP	34	96	4	B	0	M1
NMTTP	34	144	5	E	0	M1
NMTTP	34	192	5	B	0	M1
NMTTP	34	192	5	A	0	M1
NMTTP	34	240	6	B	0	M1
NMTTP	34	288	7	E	0	M1
NMTTP	34	336	7	A	0	M1
NMTTP	35	0	0	E	0	M1
NMTTP	35	0	0	D	0	M1
NMTTP	35	48	0	B	0	M1
NMTTP	35	96	1	B	0	M1
NMTTP	35	144	2	E	0	M1
NMTTP	35	192	2	A	0	M1
NMTTP	35	240	3	E	0	M1
NMTTP	35	288	4	B	0	M1
NMTTP	35	288	4	E	0	M1
NMTTP	36	0	6	B	0	M1
NMTTP	36	0	6	E	0	M1
NMTTP	36	48	5	B	0	M1
NMTTP	36	96	4	B	0	M1
NMTTP	36	144	4	E	0	M1
NMTTP	36	192	3	B	0	M1
NMTTP	36	192	3	A	0	M1
NMTTP	36	240	2	B	0	M1
NMTTP	36	288	2	E	0	M1
NMTTP	36	336	1	A	0	M1
NMTTP	37	0	1	E	0	M1
NMTTP	37	0	1	D	0	M1
NMTTP	37	48	0	B	0	M1
NMTTP	37	96	7	B	0	M1
NMTTP	37	144	7	E	0	M1
NMTTP	37	192	6	A	0	M1
NMTTP	37	240	6	E	0	M1
NMTTP	37	288	4	B	0	M1
NMTTP	37	288	5	E	0	M1
NMTHO	38	0	0	192	C	0	M1
BXTAP	39	0	0
BXTAP	39	0	1
EXTAP	39	96	2
EXTAP	39	96	4
NMTAP	39	192	6
NMTAP	39	240	7
NMTAP	39	288	0
NMTAP	39	288	5
NMTAP	40	0	2
NMTAP	40	0	7
NMTAP	40	96	4
NMTAP	40	96	5
NMTAP	40	192	2
NMTAP	40	240	3
NMTAP	40	288	1
NMTAP	40	288	4
NMTAP	41	0	6
NMTAP	41	0	7
NMTAP	41	96	4
NMTAP	41	96	5
NMTAP	41	192	2
NMTAP	41	240	3
NMTAP	41	288	1
NMTAP	41	288	4
NMSTR	42	0	0
NMSI_	42	0	0	96	96	4
NMSTR	42	192	7
NMSI_	42	192	7	96	96	3
NMHLD	43	0	2	96
NMHLD	43	96	3	96
NMHLD	43	192	4	96
NMTAP	44	0	4
NMTAP	44	0	5
NMTAP	44	48	6
NMTAP	44	96	0
NMTAP	44	96	7
NMTAP	44	192	2
NMTAP	44	192	3
NMTAP	44	240	1
NMTAP	44	288	0
NMTAP	44	288	7
NMSTR	45	0	6
NMSI_	45	0	6	96	96	2
NMSTR	45	192	1
NMSI_	45	192	1	96	96	5
NMTAP	46	0	6
NMTAP	46	48	6
NMTAP	46	96	6
NMTAP	46	96	7
NMTAP	46	192	0
NMTAP	46	192	1
BRTAP	46	288	2
BRTAP	46	288	7
NMTAP	47	0	4
NMTAP	47	0	6
NMTAP	47	96	1
NMTAP	47	96	3
NMTAP	47	192	3
NMTAP	47	192	5
BRTAP	47	288	0
BRTAP	47	288	1
BRTAP	47	336	0
BRTAP	47	336	1
NMTAP	48	0	2
NMTAP	48	0	7
NMTAP	48	96	0
NMTAP	48	96	5
NMSTR	48	192	2
NMSCL	48	192	2	96	96	7
NMTAP	48	192	3
NMSTR	49	0	6
NMSI_	49	0	6	96	96	2
NMTAP	49	192	1
NMTAP	49	288	0
NMTAP	49	288	1
NMTAP	50	0	2
NMTAP	50	48	2
NMTAP	50	96	1
NMTAP	50	96	3
NMTAP	50	192	4
NMTAP	50	192	5
BXTAP	50	288	2
BXTAP	50	288	6
NMTAP	51	0	1
NMTAP	51	0	3
NMTAP	51	96	4
NMTAP	51	96	6
NMTAP	51	192	1
NMTAP	51	240	0
NMTAP	51	240	1
BRTAP	51	288	2
BRTAP	51	288	7
NMTAP	52	0	0
NMTAP	52	0	5
NMTAP	52	96	2
NMTAP	52	96	3
NMTAP	52	192	5
NMTAP	52	240	5
BRTAP	52	288	4
BRTAP	52	288	6
NMTAP	53	0	0
NMTAP	53	0	1
NMTAP	53	48	0
NMTAP	53	48	1
NMTAP	53	96	2
NMTAP	53	96	7
NMTAP	53	192	6
NMTAP	53	192	7
NMTAP	53	240	6
NMTAP	53	240	7
NMTAP	53	288	0
NMTAP	53	288	5
NMTAP	54	0	4
NMTAP	54	0	5
NMTAP	54	48	4
NMTAP	54	48	5
NMTAP	54	96	6
NMTAP	54	144	7
NMTAP	54	192	0
NMTAP	54	192	1
NMTAP	54	240	0
NMTAP	54	240	1
NMTAP	54	288	2
NMTAP	54	336	3
BRHLD	55	0	2	288
BRHLD	55	0	4	384
NMHLD	56	192	3	96
NMHLD	56	192	4	96
NMHLD	57	0	5	96
NMHLD	57	96	4	96
NMHLD	57	192	3	96
NMTTP	57	288	3	E	0	M1
NMTTP	57	336	4	E	0	M1
NMTTP	58	0	5	E	0	M1
NMTTP	58	96	5	B	0	M1
NMTTP	58	144	4	E	0	M1
NMTTP	58	192	2	B	0	M1
NMTTP	58	288	1	B	0	M1
NMTTP	58	288	6	B	0	M1
NMTTP	59	0	3	B	0	M1
NMTTP	59	0	3	E	0	M1
NMTTP	59	0	4	B	0	M1
NMTTP	59	0	5	E	0	M1

T_REC_TAP	251
T_REC_BRK	16
T_REC_XTP	7
T_REC_BXX	4
T_REC_HLD	29
T_REC_XHO	1
T_REC_BHO	2
T_REC_BXH	0
T_REC_STR	13
T_REC_BST	0
T_REC_XST	0
T_REC_XBS	0
T_REC_TTP	50
T_REC_THO	1
T_REC_SLD	10
T_REC_BSL	3
T_REC_ALL	387
T_NUM_TAP	321
T_NUM_BRK	25
T_NUM_HLD	31
T_NUM_SLD	10
T_NUM_ALL	387
T_JUDGE_TAP	341
T_JUDGE_HLD	184
T_JUDGE_SLD	13
T_JUDGE_ALL	538
TTM_EACHPAIRS	96
TTM_SCR_TAP	160500
TTM_SCR_BRK	65000
TTM_SCR_HLD	31000
TTM_SCR_SLD	15000
TTM_SCR_ALL	271500
TTM_SCR_S	260950
TTM_SCR_SS	269000
TTM_RAT_ACV	10092

