VERSION	0.00.00	1.04.00
FES_MODE	0
BPM_DEF	183.000	183.000	183.000	183.000
MET_DEF	4	4
RESOLUTION	384
CLK_DEF	384
COMPATIBLE_CODE	MA2

BPM	0	0	183.000
MET	0	0	4	4
MET	17	0	4	2
MET	17	192	4	4
MET	50	192	4	2
MET	51	0	4	4

NMSTR	1	0	4
NMSI_	1	0	4	96	384	7
NMTAP	1	96	3
NMTAP	1	192	3
NMTAP	1	288	3
NMTAP	2	0	3
NMTAP	2	96	3
CNSCR	2	96	7	0	96	0
NMTAP	2	192	3
NMTAP	2	288	3
NMTAP	3	0	3
NMTAP	3	96	3
NMTAP	3	192	3
NMTAP	3	288	2
NMTAP	3	336	2
NMTAP	4	0	3
NMTAP	4	96	3
NMTAP	4	192	3
NMTAP	4	288	4
NMTAP	4	336	4
NMTAP	5	0	3
NMTAP	5	96	3
NMTAP	5	192	3
NMTAP	5	288	2
NMTAP	5	336	2
NMTAP	6	0	3
NMTAP	6	96	3
NMTAP	6	192	3
NMTAP	6	288	4
NMTAP	6	336	4
NMTAP	7	0	3
NMTAP	7	96	3
NMTAP	7	192	3
NMTAP	7	288	2
NMTAP	7	336	2
NMTAP	8	0	4
NMTAP	8	96	4
NMTAP	8	192	4
NMTAP	8	288	5
NMTAP	8	336	5
NMTAP	9	0	4
NMTAP	9	96	4
NMTAP	9	192	4
NMTAP	9	288	3
NMTAP	9	336	3
NMTAP	10	0	4
NMTAP	10	96	4
NMTAP	10	192	4
NMTAP	10	288	5
NMTAP	10	336	5
NMTAP	11	0	4
NMTAP	11	96	4
NMTAP	11	192	4
NMTAP	11	288	3
NMTAP	11	336	3
NMTAP	12	0	4
NMTAP	12	96	4
NMTAP	12	192	4
NMTAP	12	288	5
NMTAP	12	336	5
NMTAP	13	0	4
NMTAP	13	96	4
NMTAP	13	192	4
NMTAP	13	288	3
NMTAP	13	336	3
NMTAP	14	0	4
NMTAP	14	96	4
NMTAP	14	192	4
NMTAP	14	288	5
NMTAP	14	336	5
NMTAP	15	0	4
NMTAP	15	96	4
NMTAP	15	192	4
NMTAP	15	288	3
NMTAP	15	336	3
NMTAP	16	0	4
NMTAP	16	96	2
NMTAP	16	96	5
NMSTR	16	192	0
NMSI_	16	192	0	96	48	4
NMSTR	16	240	7
NMSI_	16	240	7	96	48	3
NMHLD	17	144	3	48
NMHLD	17	144	4	48
NMTAP	17	288	6
NMTAP	17	336	6
NMTAP	17	360	4
NMTAP	18	0	5
NMTAP	18	48	3
NMTAP	18	48	4
NMTAP	18	96	1
NMTAP	18	144	1
NMTAP	18	168	3
NMTAP	18	192	2
NMTAP	18	240	3
NMTAP	18	240	4
NMTAP	18	288	6
NMTAP	18	336	6
NMTAP	18	360	4
NMTAP	19	0	5
NMTAP	19	48	2
NMTAP	19	48	4
NMTAP	19	96	1
NMTAP	19	144	0
NMTAP	19	144	7
NMTAP	19	192	6
NMTAP	19	240	3
NMTAP	19	240	5
NMTAP	19	288	1
NMTAP	19	336	1
NMTAP	19	360	3
NMTAP	20	0	2
NMTAP	20	48	3
NMTAP	20	48	4
NMTAP	20	96	6
NMTAP	20	144	6
NMTAP	20	168	4
NMTAP	20	192	5
NMTAP	20	240	3
NMTAP	20	240	4
NMTAP	20	288	1
NMTAP	20	336	1
NMTAP	20	360	3
NMTAP	21	0	2
NMTAP	21	48	3
NMTAP	21	48	4
NMTAP	21	96	6
NMTAP	21	144	6
NMTAP	21	168	4
NMTAP	21	192	5
NMTAP	21	240	2
NMTAP	21	240	4
NMSTR	21	288	1
NMSI_	21	288	1	96	48	5
NMTAP	21	336	0
NMTAP	22	0	6
NMSTR	22	48	7
NMSI_	22	48	7	96	48	3
NMTAP	22	96	0
NMTAP	22	144	2
NMSTR	22	192	1
NMSI_	22	192	1	96	48	5
NMTAP	22	240	0
NMTAP	22	288	6
NMSTR	22	336	7
NMSI_	22	336	7	96	48	3
NMTAP	23	0	0
NMTAP	23	48	2
NMSTR	23	96	1
NMSI_	23	96	1	96	48	4
NMTAP	23	144	0
NMTAP	23	192	6
NMSTR	23	240	7
NMSUL	23	240	7	96	48	3
NMTAP	23	288	0
NMTAP	23	336	2
NMSTR	24	0	1
NMSV_	24	0	1	96	48	4
NMTAP	24	48	0
NMTAP	24	96	6
NMSTR	24	144	7
NMSI_	24	144	7	96	48	4
NMTAP	24	192	0
NMTAP	24	240	2
NMSTR	24	288	1
NMSXR	24	288	1	96	144	4
NMTAP	24	336	0
NMTAP	25	0	4
NMTAP	25	192	3
NMTAP	25	192	5
NMTAP	25	288	1
NMTAP	25	336	1
NMTAP	25	360	3
NMTAP	26	0	2
NMTAP	26	48	3
NMTAP	26	48	4
NMTAP	26	96	6
NMTAP	26	144	6
NMTAP	26	168	4
NMTAP	26	192	5
NMTAP	26	240	3
NMTAP	26	240	4
NMTAP	26	288	1
NMTAP	26	336	1
NMTAP	26	360	3
NMTAP	27	0	2
NMTAP	27	48	3
NMTAP	27	48	5
NMTAP	27	96	6
NMTAP	27	144	0
NMTAP	27	144	7
NMTAP	27	192	1
NMTAP	27	240	2
NMTAP	27	240	4
NMTAP	27	288	6
NMTAP	27	336	6
NMTAP	27	360	4
NMTAP	28	0	5
NMTAP	28	48	3
NMTAP	28	48	4
NMTAP	28	96	1
NMTAP	28	144	1
NMTAP	28	168	3
NMTAP	28	192	2
NMTAP	28	240	3
NMTAP	28	240	4
NMTAP	28	288	6
NMTAP	28	336	6
NMTAP	28	360	4
NMTAP	29	0	5
NMTAP	29	48	3
NMTAP	29	48	4
NMTAP	29	96	2
NMTAP	29	144	2
NMTAP	29	168	4
NMTAP	29	192	3
NMSTR	29	288	5
NMSCR	29	288	5	96	48	7
NMTAP	29	336	4
NMTAP	30	0	3
NMSTR	30	48	2
NMSCL	30	48	2	96	48	0
NMTAP	30	96	3
NMTAP	30	144	4
NMSTR	30	192	5
NMSI_	30	192	5	96	48	7
NMTAP	30	240	4
NMTAP	30	288	3
NMSTR	30	336	2
NMSI_	30	336	2	96	48	0
NMTAP	31	0	3
NMTAP	31	48	4
NMTAP	31	96	5
NMTAP	31	144	4
NMTAP	31	192	3
NMTAP	31	240	2
NMTAP	31	288	3
NMTAP	31	336	4
NMTTP	32	0	5	E	0	M1
NMTTP	32	48	4	E	0	M1
NMTTP	32	96	3	E	0	M1
NMTTP	32	144	2	B	0	M1
NMTTP	32	192	3	B	0	M1
NMTTP	32	240	4	B	0	M1
NMSTR	32	288	5
NMSUL	32	288	5	96	192	3
NMTAP	32	336	5
BRSTR	34	192	1
NMSI_	34	192	1	96	48	6
BRTAP	34	192	4
NMTAP	34	288	1
NMSTR	34	288	5
NMSI_	34	288	5	96	48	2
NMSTR	35	0	1
NMSI_	35	0	1	96	48	4
NMTAP	35	0	5
NMTAP	35	96	1
NMSTR	35	96	5
NMSI_	35	96	5	96	48	0
NMSTR	35	192	2
NMSI_	35	192	2	96	48	7
NMTAP	35	192	5
NMTAP	35	288	2
NMSTR	35	288	4
NMSI_	35	288	4	96	48	6
NMTAP	36	0	2
NMTAP	36	0	4
CNSI_	36	48	6	0	48	3
NMSTR	36	96	1
BRSI_	36	96	1	96	48	5
CNSI_	36	96	3	0	48	7
NMTAP	36	192	1
EXSTR	36	192	6
NMSI_	36	192	6	96	48	3
NMSTR	36	288	1
NMSCL	36	288	1	96	48	6
NMTAP	36	288	6
NMTAP	37	0	1
NMSTR	37	0	4
NMSI_	37	0	4	96	48	7
NMSTR	37	96	3
NMSI_	37	96	3	96	48	0
NMTAP	37	96	4
NMTAP	37	192	3
NMSTR	37	192	5
NMSI_	37	192	5	96	48	7
NMSTR	37	288	2
NMSI_	37	288	2	96	48	0
NMTAP	37	288	5
NMTAP	38	0	2
NMSTR	38	0	4
NMSI_	38	0	4	96	48	7
NMSTR	38	96	0
BRSF_	38	96	0	96	48	4
NMTAP	38	96	4
EXTAP	38	192	0
NMSTR	38	288	2
NMSI_	38	288	2	96	48	5
NMTAP	38	288	6
NMTAP	39	0	2
NMSTR	39	0	7
NMSI_	39	0	7	96	48	3
NMSTR	39	96	1
NMSCR	39	96	1	96	48	4
NMTAP	39	96	7
NMTAP	39	192	1
NMSTR	39	192	5
NMSCR	39	192	5	96	48	0
NMSTR	39	288	2
NMSI_	39	288	2	96	48	4
NMTAP	39	288	5
NMTAP	40	0	6
CNSI_	40	48	4	0	48	1
CNSI_	40	96	1	0	48	5
NMSTR	40	96	7
NMSI_	40	96	7	96	48	3
NMSTR	40	192	4
NMSI_	40	192	4	96	48	0
NMTAP	40	192	7
NMTAP	40	288	4
NMSTR	40	288	5
NMSI_	40	288	5	96	48	7
NMSTR	41	0	3
NMSI_	41	0	3	96	48	1
NMTAP	41	0	5
NMTAP	41	96	3
NMSTR	41	96	4
NMSI_	41	96	4	96	48	0
NMSTR	41	192	1
NMSI_	41	192	1	96	48	5
NMTAP	41	192	4
NMTAP	41	288	1
NMSTR	41	288	6
NMSI_	41	288	6	96	48	2
NMSTR	42	0	3
BRSI_	42	0	3	96	48	0
NMTAP	42	0	6
NMTAP	42	96	3
NMTAP	42	96	5
BRTAP	42	192	1
BRSTR	42	192	6
NMSI_	42	192	6	96	48	4
NMSTR	42	288	1
NMSI_	42	288	1	96	48	5
NMTAP	42	336	2
NMSTR	43	0	6
NMSI_	43	0	6	96	48	3
NMTAP	43	48	7
NMSTR	43	96	2
NMSI_	43	96	2	96	48	0
NMTAP	43	144	1
NMTAP	43	192	5
NMTAP	43	240	4
NMSTR	43	288	3
NMSI_	43	288	3	96	48	1
NMTAP	43	288	5
NMTAP	44	0	7
CNSI_	44	48	1	0	48	4
NMTAP	44	48	7
CNSI_	44	96	4	0	48	0
NMSTR	44	96	6
BRSI_	44	96	6	96	48	3
EXSTR	44	192	1
NMSI_	44	192	1	96	48	4
NMSTR	44	288	6
NMSCR	44	288	6	96	48	0
NMTAP	44	336	5
NMSTR	45	0	3
NMSI_	45	0	3	96	48	1
NMTAP	45	48	2
NMSTR	45	96	4
NMSI_	45	96	4	96	48	6
NMTAP	45	144	5
NMSTR	45	192	1
NMSI_	45	192	1	96	48	3
NMTAP	45	240	2
NMSTR	45	288	6
NMSI_	45	288	6	96	48	4
NMTAP	45	336	5
NMTAP	46	0	2
NMTAP	46	48	1
NMSTR	46	96	7
BRSF_	46	96	7	96	48	3
NMTAP	46	288	1
NMSTR	46	288	5
NMSI_	46	288	5	96	48	3
NMTAP	46	336	6
NMSTR	47	0	0
NMSI_	47	0	0	96	48	3
NMTAP	47	48	7
NMSTR	47	96	6
NMSI_	47	96	6	96	48	0
NMTAP	47	144	5
NMTAP	47	192	1
NMTAP	47	240	2
NMTAP	47	288	3
NMSTR	47	288	5
NMSI_	47	288	5	96	48	3
NMTAP	48	0	1
NMTAP	48	48	1
CNSI_	48	48	3	0	48	6
NMSTR	48	96	0
NMSI_	48	96	0	96	48	4
CNSI_	48	96	6	0	48	2
NMSTR	48	192	7
NMSI_	48	192	7	96	48	3
NMSTR	48	288	2
NMSI_	48	288	2	96	48	0
NMTAP	48	336	1
NMSTR	49	0	4
NMSI_	49	0	4	96	48	6
NMTAP	49	48	5
NMSTR	49	96	0
NMSI_	49	96	0	96	48	4
NMTAP	49	144	1
NMSTR	49	192	7
NMSI_	49	192	7	96	48	5
NMTAP	49	240	6
NMSTR	49	288	3
NMSI_	49	288	3	96	48	1
NMTAP	49	336	2
NMSTR	50	0	4
NMSI_	50	0	4	96	48	0
NMTAP	50	48	5
NMSTR	50	96	2
NMSCR	50	96	2	96	48	5
NMTAP	50	144	1
NMHLD	50	192	7	192
NMTTP	51	0	0	B	0	M1
NMTTP	51	0	1	B	0	M1
NMTTP	51	0	1	E	0	M1
NMTTP	51	240	4	B	0	M1
NMTTP	51	240	4	A	0	M1
NMTTP	51	240	5	B	0	M1
NMTTP	51	240	5	E	0	M1
NMTTP	51	240	5	A	0	M1
NMTTP	51	240	5	D	0	M1
NMTHO	52	0	0	240	C	0	M1
NMTTP	52	0	1	B	0	M1
NMTTP	52	0	2	B	0	M1
NMTTP	52	0	2	E	0	M1
NMTTP	52	0	3	E	0	M1
NMTTP	52	240	6	B	0	M1
NMTTP	52	240	7	B	0	M1
NMTTP	52	240	7	E	0	M1
NMTTP	53	0	0	B	0	M1
NMTTP	53	0	0	A	0	M1
NMTTP	53	0	0	D	0	M1
NMTTP	53	0	1	E	0	M1
NMTTP	53	240	2	B	0	M1
NMTTP	53	240	3	E	0	M1
NMTTP	53	240	3	A	0	M1
NMTTP	53	240	3	D	0	M1
NMTHO	54	0	0	240	C	0	M1
NMTTP	54	0	4	B	0	M1
NMTTP	54	0	5	B	0	M1
NMTTP	54	0	5	E	0	M1
NMTTP	54	0	6	B	0	M1
NMTTP	54	240	0	B	0	M1
NMTTP	54	240	0	E	0	M1
NMTTP	54	240	1	E	0	M1
NMTTP	55	0	7	B	0	M1
NMTTP	55	0	7	E	0	M1
NMTTP	55	0	7	A	0	M1
NMTTP	55	0	7	D	0	M1
NMTTP	55	240	4	B	0	M1
NMTTP	55	240	4	A	0	M1
NMTTP	55	240	4	D	0	M1
NMTTP	55	240	5	D	0	M1
NMTTP	56	0	0	B	0	M1
NMTHO	56	0	0	240	C	0	M1
NMTTP	56	0	1	B	0	M1
NMTTP	56	0	2	B	0	M1
NMTTP	56	0	2	E	0	M1
NMTTP	56	240	5	B	0	M1
NMTTP	56	240	6	B	0	M1
NMTTP	56	240	6	E	0	M1
NMTTP	57	0	0	B	0	M1
NMTTP	57	0	0	E	0	M1
NMTTP	57	0	0	A	0	M1
NMTTP	57	0	7	B	0	M1
NMTTP	57	0	7	A	0	M1
NMTTP	57	240	3	B	0	M1
NMTTP	57	240	3	E	0	M1
NMTTP	57	240	3	A	0	M1
NMTTP	57	240	4	E	0	M1
NMTHO	58	0	0	240	C	0	M1
NMTTP	58	0	6	B	0	M1
NMTTP	58	0	6	E	0	M1
NMTTP	58	0	7	B	0	M1
NMTTP	58	0	7	E	0	M1
NMTTP	58	240	3	B	0	M1
NMTTP	58	240	4	B	0	M1
NMTTP	58	240	4	E	0	M1
EXSTR	59	0	1
NMSI_	59	0	1	96	48	5
NMTTP	59	0	6	A	0	M1
NMTTP	59	0	7	E	0	M1
NMTTP	59	0	7	D	0	M1
EXTAP	59	96	1
NMTAP	59	240	0
NMTTP	59	240	4	B	0	M1
NMTTP	59	240	5	B	0	M1
NMTTP	59	240	5	E	0	M1
NMTAP	59	288	0
NMSTR	60	0	1
NMSV_	60	0	1	96	48	4
NMTTP	60	0	2	B	0	M1
NMTTP	60	0	3	B	0	M1
NMTTP	60	0	3	E	0	M1
NMTAP	60	96	1
NMTAP	60	240	0
NMTTP	60	240	7	E	0	M1
NMTTP	60	240	7	A	0	M1
NMTTP	60	240	7	D	0	M1
NMTAP	60	288	0
NMSTR	61	0	1
NMSI_	61	0	1	96	48	5
NMTTP	61	0	5	E	0	M1
NMTTP	61	0	5	A	0	M1
NMTTP	61	0	5	D	0	M1
NMTAP	61	96	1
NMTAP	61	240	0
NMTTP	61	240	6	B	0	M1
NMTTP	61	240	6	E	0	M1
NMTTP	61	240	7	E	0	M1
NMTAP	61	288	0
NMTTP	62	0	0	E	0	M1
NMTTP	62	0	0	D	0	M1
NMSTR	62	0	1
NMSUR	62	0	1	96	48	5
NMTTP	62	0	7	A	0	M1
NMTAP	62	96	1
NMTAP	62	240	0
NMTTP	62	240	4	B	0	M1
NMTTP	62	240	5	B	0	M1
NMTTP	62	240	5	E	0	M1
NMTAP	62	288	0
NMTTP	63	0	3	B	0	M1
NMTTP	63	0	3	E	0	M1
NMTTP	63	0	4	E	0	M1
NMSTR	63	0	6
NMSI_	63	0	6	96	48	2
NMTAP	63	96	6
NMTTP	63	240	1	A	0	M1
NMTTP	63	240	2	E	0	M1
NMTTP	63	240	2	D	0	M1
NMTAP	63	240	7
NMTAP	63	288	7
NMTTP	64	0	0	B	0	M1
NMTTP	64	0	0	A	0	M1
NMTTP	64	0	1	E	0	M1
NMSTR	64	0	6
NMSV_	64	0	6	96	48	3
NMTAP	64	96	6
NMTTP	64	240	4	E	0	M1
NMTTP	64	240	4	A	0	M1
NMTTP	64	240	4	D	0	M1
NMTAP	64	240	7
NMTAP	64	288	7
NMTTP	65	0	2	B	0	M1
NMTTP	65	0	3	B	0	M1
NMTTP	65	0	3	E	0	M1
NMSTR	65	0	6
NMSI_	65	0	6	96	48	2
NMTAP	65	96	6
NMTTP	65	240	4	B	0	M1
NMTTP	65	240	5	B	0	M1
NMTTP	65	240	5	E	0	M1
NMTAP	65	240	7
NMTAP	65	288	7
NMTTP	66	0	3	E	0	M1
NMTTP	66	0	3	A	0	M1
NMTTP	66	0	3	D	0	M1
NMSTR	66	0	6
NMSUL	66	0	6	96	48	2
NMTAP	66	96	6
NMTAP	66	240	0
NMTAP	66	240	7
NMSTR	66	288	0
NMSI_	66	288	0	96	48	4
NMSTR	66	288	7
NMSI_	66	288	7	96	48	3
CNSXR	67	48	3	0	240	1
CNSXL	67	48	4	0	240	6
NMTAP	68	0	5
NMTAP	68	48	4
NMTAP	68	96	3
NMHLD	68	144	2	240
NMTAP	69	0	5
NMTAP	69	48	4
NMHLD	69	96	3	96
NMTAP	69	192	4
NMTAP	69	240	3
NMHLD	69	288	2	96
NMTAP	70	0	5
NMTAP	70	48	4
NMTAP	70	96	3
NMHLD	70	144	2	240
NMTAP	71	0	5
NMTAP	71	48	4
NMHLD	71	96	3	96
NMTAP	71	192	4
NMTAP	71	240	3
NMHLD	71	288	2	96
NMTAP	72	0	5
NMTAP	72	48	4
NMTAP	72	96	3
NMHLD	72	144	2	240
NMTAP	73	0	5
NMTAP	73	48	4
NMHLD	73	96	3	96
NMTAP	73	192	4
NMTAP	73	240	3
NMHLD	73	288	2	96
NMTAP	74	0	5
NMTAP	74	48	4
NMTAP	74	96	3
NMHLD	74	144	2	240
NMTAP	75	0	5
NMTAP	75	48	4
NMHLD	75	96	3	96
NMTAP	75	192	4
NMTAP	75	240	3
NMSTR	75	288	2
NMSCL	75	288	2	96	384	5
NMTAP	76	0	2
NMTAP	77	0	3
CNSCR	77	0	5	0	384	2
NMTAP	77	96	3
NMTAP	77	192	4
NMSTR	77	288	5
NMSCR	77	288	5	96	384	2
NMTAP	78	0	5
CNSCL	79	0	2	0	384	5
NMTAP	79	0	4
NMTAP	79	96	4
NMTAP	79	192	3
NMSTR	79	288	2
NMSCL	79	288	2	96	384	5
NMTAP	80	0	2
NMTAP	81	0	3
CNSCR	81	0	5	0	384	2
NMTAP	81	96	3
NMTAP	81	192	4
NMSTR	81	288	5
NMSCR	81	288	5	96	384	2
NMTAP	82	0	5
NMSTR	83	288	1
NMSI_	83	288	1	96	48	3
BRSTR	84	0	0
NMSI_	84	0	0	96	48	4
BRTAP	84	0	1
NMTAP	84	96	0
NMSTR	84	96	7
NMSI_	84	96	7	96	48	3
NMSTR	84	192	6
NMSI_	84	192	6	96	48	4
NMTAP	84	192	7
NMSTR	84	288	1
NMSI_	84	288	1	96	48	3
NMTAP	84	288	6
NMSTR	85	0	0
NMSI_	85	0	0	96	48	4
NMTAP	85	0	1
NMTAP	85	96	0
NMSTR	85	96	7
NMSI_	85	96	7	96	48	3
NMSTR	85	192	6
NMSI_	85	192	6	96	48	4
NMTAP	85	192	7
NMSTR	85	288	0
NMSF_	85	288	0	96	48	4
NMTAP	85	288	6
NMTAP	86	0	0
NMSTR	86	96	2
NMSI_	86	96	2	96	48	0
NMTAP	86	96	6
NMTAP	86	192	2
NMSTR	86	192	3
NMSI_	86	192	3	96	48	7
NMTAP	86	288	3
NMSTR	86	288	4
NMSI_	86	288	4	96	48	0
NMTAP	87	0	4
NMSTR	87	0	5
NMSI_	87	0	5	96	48	7
NMSTR	87	96	3
NMSXR	87	96	3	96	48	1
NMTAP	87	96	5
NMTAP	87	192	3
NMSTR	87	192	4
NMSXL	87	192	4	96	48	6
NMTAP	87	288	3
NMTAP	87	288	4
EXSTR	88	0	2
NMSI_	88	0	2	96	48	0
EXTAP	88	0	5
NMTAP	88	96	2
NMSTR	88	96	6
NMSI_	88	96	6	96	48	4
NMTAP	88	192	6
NMSTR	88	192	7
NMSI_	88	192	7	96	48	3
NMSTR	88	288	4
NMSXL	88	288	4	96	48	6
NMSXR	88	288	4	96	48	2
NMTAP	88	288	7
NMSTR	89	96	3
NMSXL	89	96	3	96	48	5
NMSXR	89	96	3	96	48	1
NMSTR	89	288	4
NMSCL	89	288	4	96	96	0
NMSTR	90	0	0
NMSCL	90	0	0	96	96	4
NMSTR	90	96	4
NMSLL	90	96	4	96	96	0
NMSTR	90	192	0
NMSLL	90	192	0	96	96	4
NMSTR	90	288	4
BRSCL	90	288	4	96	96	0
BRSTR	91	0	0
BRSCL	91	0	0	96	96	4
BRSTR	91	96	4
BRSLL	91	96	4	96	96	0
BRSTR	91	192	0
BRSI_	91	192	0	96	48	4
BRTAP	91	288	4
BRSTR	92	0	1
NMSI_	92	0	1	96	48	3
BRTAP	92	0	7
NMSTR	92	96	5
NMSI_	92	96	5	96	48	7
NMTAP	92	144	4
NMSTR	92	192	1
NMSI_	92	192	1	96	48	4
NMTAP	92	240	0
NMSTR	92	288	7
NMSI_	92	288	7	96	48	3
NMTAP	92	336	6
NMSTR	93	0	2
NMSI_	93	0	2	96	48	7
NMTAP	93	48	1
NMTAP	93	96	4
NMTAP	93	144	5
NMTAP	93	192	1
NMTAP	93	192	4
NMTAP	93	240	2
NMSTR	93	288	3
BRSV_	93	288	3	96	48	0
NMSTR	93	288	5
BRSV_	93	288	5	96	48	0
NMSTR	94	96	1
NMSCL	94	96	1	96	48	7
NMTAP	94	144	2
NMSTR	94	192	4
NMSI_	94	192	4	96	48	7
NMTAP	94	240	5
NMSTR	94	288	3
NMSI_	94	288	3	96	48	0
NMTAP	94	336	2
NMSTR	95	0	6
NMSI_	95	0	6	96	48	4
NMTAP	95	48	7
NMSTR	95	96	1
NMSI_	95	96	1	96	48	3
NMTAP	95	144	0
NMTAP	95	192	4
NMTAP	95	240	5
NMSTR	95	288	0
NMSI_	95	288	0	96	48	3
NMSV_	95	288	0	96	48	5
NMTAP	95	288	6
EXSTR	96	96	2
NMSI_	96	96	2	96	48	4
EXTAP	96	96	6
NMTAP	96	144	1
NMSTR	96	192	7
NMSI_	96	192	7	96	48	4
NMTAP	96	240	0
NMSTR	96	288	1
NMSCR	96	288	1	96	48	3
NMTAP	96	336	2
NMSTR	97	0	5
NMSCR	97	0	5	96	48	7
NMTAP	97	48	4
NMSTR	97	96	2
NMSXL	97	96	2	96	96	5
NMTAP	97	192	6
NMTAP	97	240	6
NMSTR	97	288	7
NMSI_	97	288	7	96	48	1
NMSTR	98	0	4
NMSI_	98	0	4	96	48	0
NMTAP	98	48	3
NMSTR	98	96	5
NMSI_	98	96	5	96	48	7
NMTAP	98	144	6
NMSTR	98	192	3
NMSI_	98	192	3	96	48	1
NMTAP	98	240	2
NMSTR	98	288	4
NMSI_	98	288	4	96	48	0
NMTAP	98	336	5
NMSTR	99	0	1
NMSI_	99	0	1	96	48	5
NMTAP	99	48	2
NMSTR	99	96	6
NMSI_	99	96	6	96	48	1
NMTAP	99	144	7
NMSTR	99	192	3
NMSI_	99	192	3	96	48	7
NMTAP	99	240	4
NMTAP	99	288	5
NMTAP	99	336	5
NMTAP	100	0	0
NMTAP	100	0	6
EXTAP	100	96	1
NMTAP	100	144	1
NMTAP	100	168	3
NMTAP	100	192	2
NMTAP	100	216	4
NMTAP	100	240	3
EXTAP	100	288	6
NMTAP	100	336	6
NMTAP	100	360	4
NMTAP	101	0	5
NMTAP	101	24	3
NMTAP	101	48	4
EXTAP	101	96	1
NMTAP	101	144	1
NMTAP	101	168	3
NMTAP	101	192	2
NMTAP	101	240	3
NMTAP	101	240	5
NMTAP	101	288	6
NMTAP	101	336	0
NMTAP	101	336	7
NMTAP	102	0	1
NMTAP	102	48	2
NMTAP	102	48	4
EXTAP	102	96	6
NMTAP	102	144	6
NMTAP	102	168	4
NMTAP	102	192	5
NMTAP	102	216	3
NMTAP	102	240	4
EXTAP	102	288	1
NMTAP	102	336	1
NMTAP	102	360	3
NMTAP	103	0	2
NMTAP	103	24	4
NMTAP	103	48	3
EXTAP	103	96	6
NMTAP	103	144	6
NMTAP	103	168	4
NMTAP	103	192	5
NMTAP	103	216	3
NMTAP	103	240	4
NMTAP	103	288	1
NMTAP	103	336	1
NMTAP	103	360	3
NMTAP	104	0	2
NMTAP	104	48	3
NMTAP	104	48	5
NMSTR	104	96	6
NMSI_	104	96	6	96	48	2
NMTAP	104	144	7
NMTAP	104	192	2
NMTAP	104	192	6
NMTAP	104	240	1
NMTAP	104	288	1
NMTAP	104	312	3
NMTAP	104	336	1
NMTAP	104	360	3
NMSTR	105	0	0
NMSI_	105	0	0	96	48	4
NMTAP	105	48	7
NMTAP	105	96	0
NMTAP	105	96	5
NMTAP	105	144	6
NMTAP	105	192	6
NMTAP	105	216	4
NMTAP	105	240	6
NMTAP	105	264	4
NMSTR	105	288	7
NMSI_	105	288	7	96	48	3
NMTAP	105	336	3
NMTAP	106	0	2
NMTAP	106	0	7
NMTAP	106	48	1
NMTAP	106	96	1
NMTAP	106	120	3
NMTAP	106	144	1
NMTAP	106	168	3
NMSTR	106	192	1
NMSI_	106	192	1	96	48	5
NMTAP	106	240	0
NMTAP	106	288	1
NMTAP	106	288	5
NMTAP	106	336	6
NMTAP	107	0	6
NMTAP	107	24	4
NMTAP	107	48	6
NMTAP	107	72	4
NMSTR	107	96	6
NMSI_	107	96	6	96	48	2
NMTAP	107	144	7
NMHLD	107	192	0	192
CNSI_	107	240	2	0	48	4
BRTAP	108	0	5
EXTAP	108	96	6
NMTAP	108	144	6
NMTAP	108	168	4
NMTAP	108	192	5
NMTAP	108	216	3
NMTAP	108	240	4
EXTAP	108	288	1
NMTAP	108	336	1
NMTAP	108	360	3
NMTAP	109	0	2
NMTAP	109	24	4
NMTAP	109	48	3
EXTAP	109	96	6
NMTAP	109	144	6
NMTAP	109	168	4
NMTAP	109	192	5
NMTAP	109	240	2
NMTAP	109	240	4
NMTAP	109	288	1
NMTAP	109	336	0
NMTAP	109	336	7
NMTAP	110	0	6
NMTAP	110	48	3
NMTAP	110	48	5
EXTAP	110	96	1
NMTAP	110	144	1
NMTAP	110	168	3
NMTAP	110	192	2
NMTAP	110	216	4
NMTAP	110	240	3
EXTAP	110	288	6
NMTAP	110	336	6
NMTAP	110	360	4
NMTAP	111	0	5
NMTAP	111	24	3
NMTAP	111	48	4
EXTAP	111	96	1
NMTAP	111	144	1
NMTAP	111	168	3
NMTAP	111	192	2
NMTAP	111	216	4
NMTAP	111	240	3
EXTAP	111	288	6
NMTAP	111	336	6
NMTAP	111	360	4
NMTAP	112	0	5
NMTAP	112	48	2
NMTAP	112	48	4
BRTAP	112	96	1
NMTAP	112	120	3
NMTAP	112	144	2
NMTAP	112	168	3
NMTAP	112	192	2
NMTAP	112	216	3
BRTAP	112	240	1
NMTAP	112	264	3
NMTAP	112	288	2
NMTAP	112	312	3
NMTAP	112	336	2
NMTAP	112	360	3
BRTAP	113	0	0
NMTAP	113	24	3
NMTAP	113	48	2
NMTAP	113	72	3
NMTAP	113	96	2
NMTAP	113	120	3
BRTAP	113	144	7
NMTAP	113	168	3
NMTAP	113	192	2
NMTAP	113	216	3
NMTAP	113	240	2
NMTAP	113	264	3
BRTAP	113	288	6
NMTAP	113	312	3
NMTAP	113	336	2
NMTAP	113	360	3
NMTAP	114	0	2
NMTAP	114	24	3
BRTAP	114	48	5
NMTAP	114	72	3
NMTAP	114	96	2
NMTAP	114	120	3
NMTAP	114	144	2
NMTAP	114	168	3
BRTAP	114	192	4
NMTAP	114	216	3
NMTAP	114	240	2
NMTAP	114	264	3
NMTAP	114	288	2
NMTAP	114	312	3
BRTAP	114	336	1
NMTAP	114	360	3
NMTAP	115	0	2
NMTAP	115	24	3
NMTAP	115	48	2
NMTAP	115	72	3
BRSTR	115	96	0
BRSCR	115	96	0	96	96	7
EXSTR	115	288	0
NMSI_	115	288	0	96	24	3
CNSCR	116	24	3	0	24	4

T_REC_TAP	538
T_REC_BRK	14
T_REC_XTP	17
T_REC_BXX	0
T_REC_HLD	15
T_REC_XHO	0
T_REC_BHO	0
T_REC_BXH	0
T_REC_STR	132
T_REC_BST	8
T_REC_XST	6
T_REC_XBS	0
T_REC_TTP	113
T_REC_THO	4
T_REC_SLD	137
T_REC_BSL	12
T_REC_ALL	996
T_NUM_TAP	806
T_NUM_BRK	34
T_NUM_HLD	19
T_NUM_SLD	137
T_NUM_ALL	996
T_JUDGE_TAP	828
T_JUDGE_HLD	64
T_JUDGE_SLD	149
T_JUDGE_ALL	1041
TTM_EACHPAIRS	91
TTM_SCR_TAP	403000
TTM_SCR_BRK	88400
TTM_SCR_HLD	19000
TTM_SCR_SLD	205500
TTM_SCR_ALL	715900
TTM_SCR_S	691150
TTM_SCR_SS	712500
TTM_RAT_ACV	10047

