VERSION	0.00.00	1.04.00
FES_MODE	0
BPM_DEF	183.000	183.000	183.000	183.000
MET_DEF	4	4
RESOLUTION	384
CLK_DEF	384
COMPATIBLE_CODE	MA2

BPM	0	0	183.000
MET	0	0	4	4
MET	17	0	4	2
MET	17	192	4	4
MET	50	192	4	2
MET	51	0	4	4

NMTAP	1	0	3
NMTAP	1	96	3
NMTAP	1	192	3
NMTAP	1	288	2
NMTAP	1	336	2
NMTAP	2	0	3
NMTAP	2	96	3
NMTAP	2	192	3
NMTAP	2	288	4
NMTAP	2	336	4
NMTAP	3	0	3
NMTAP	3	96	3
NMTAP	3	192	3
NMTAP	3	288	2
NMTAP	3	336	2
NMTAP	4	0	3
NMTAP	4	96	3
NMTAP	4	192	3
NMTAP	4	288	2
NMTAP	4	336	2
NMTAP	5	0	4
NMTAP	5	96	4
NMTAP	5	192	4
NMTAP	5	288	5
NMTAP	5	336	5
NMTAP	6	0	4
NMTAP	6	96	4
NMTAP	6	192	4
NMTAP	6	288	3
NMTAP	6	336	3
NMTAP	7	0	4
NMTAP	7	96	4
NMTAP	7	192	4
NMTAP	7	288	5
NMTAP	7	336	5
NMTAP	8	0	4
NMTAP	8	96	4
NMTAP	8	192	4
NMTAP	8	288	5
NMTAP	8	336	5
NMTAP	9	0	3
NMTAP	9	96	3
NMTAP	9	192	3
NMTAP	9	288	2
NMTAP	9	336	2
NMTAP	10	0	3
NMTAP	10	96	3
NMTAP	10	192	3
NMTAP	10	288	4
NMTAP	10	336	4
NMTAP	11	0	3
NMTAP	11	96	3
NMTAP	11	192	3
NMTAP	11	288	2
NMTAP	11	336	2
NMTAP	12	0	3
NMTAP	12	96	3
NMTAP	12	192	3
NMTAP	12	288	2
NMTAP	12	336	2
NMTAP	13	0	4
NMTAP	13	96	4
NMTAP	13	192	4
NMTAP	13	288	5
NMTAP	13	336	5
NMTAP	14	0	4
NMTAP	14	96	4
NMTAP	14	192	4
NMTAP	14	288	3
NMTAP	14	336	3
NMTAP	15	0	4
NMTAP	15	96	4
NMTAP	15	192	4
NMTAP	15	288	5
NMTAP	15	336	5
NMTAP	16	0	4
NMTAP	16	96	4
NMTAP	16	192	4
NMTAP	16	288	2
NMTAP	16	288	5
NMHLD	16	336	2	192
NMTAP	16	336	5
NMTAP	17	144	4
NMTAP	17	192	4
NMHLD	17	288	6	144
NMTAP	17	336	4
NMTAP	18	0	3
NMHLD	18	48	2	144
NMTAP	18	96	4
NMTAP	18	144	5
NMHLD	18	192	6	144
NMTAP	18	240	4
NMTAP	18	288	3
NMHLD	18	336	2	144
NMTAP	19	0	4
NMTAP	19	48	5
NMTAP	19	96	6
NMTAP	19	144	4
NMTAP	19	192	3
NMTAP	19	240	2
NMHLD	19	288	1	144
NMTAP	19	336	3
NMTAP	20	0	4
NMHLD	20	48	5	144
NMTAP	20	96	3
NMTAP	20	144	2
NMHLD	20	192	1	144
NMTAP	20	240	3
NMTAP	20	288	4
NMHLD	20	336	5	144
NMTAP	21	0	3
NMTAP	21	48	2
NMTAP	21	96	1
NMTAP	21	144	4
NMTAP	21	192	5
NMTAP	21	240	6
NMHLD	21	288	7	144
NMTAP	21	336	0
NMTAP	22	0	0
NMHLD	22	48	1	144
NMTAP	22	96	0
NMTAP	22	144	0
NMHLD	22	192	7	144
NMTAP	22	240	0
NMTAP	22	288	0
NMHLD	22	336	1	144
NMTAP	23	0	0
NMTAP	23	48	0
NMHLD	23	96	7	144
NMTAP	23	144	0
NMTAP	23	192	0
NMHLD	23	240	1	144
NMTAP	23	288	0
NMTAP	23	336	0
NMHLD	24	0	7	144
NMTAP	24	48	0
NMTAP	24	96	0
NMHLD	24	144	1	144
NMTAP	24	192	0
NMTAP	24	240	0
NMSTR	24	288	7
NMSF_	24	288	7	96	96	3
NMTAP	24	336	7
NMTAP	25	192	2
NMTAP	25	192	4
NMHLD	25	288	1	144
NMTAP	25	336	3
NMTAP	26	0	4
NMHLD	26	48	5	144
NMTAP	26	96	3
NMTAP	26	144	2
NMHLD	26	192	1	144
NMTAP	26	240	3
NMTAP	26	288	4
NMHLD	26	336	5	144
NMTAP	27	0	3
NMTAP	27	48	2
NMTAP	27	96	1
NMTAP	27	144	3
NMTAP	27	192	4
NMTAP	27	240	5
NMHLD	27	288	6	144
NMTAP	27	336	4
NMTAP	28	0	3
NMHLD	28	48	2	144
NMTAP	28	96	4
NMTAP	28	144	5
NMHLD	28	192	6	144
NMTAP	28	240	4
NMTAP	28	288	3
NMHLD	28	336	2	144
NMTAP	29	0	4
NMTAP	29	48	5
NMTAP	29	96	6
NMTAP	29	144	3
NMTAP	29	192	2
NMTAP	29	240	1
NMHLD	29	288	0	144
NMTAP	29	336	7
NMTAP	30	0	7
NMHLD	30	48	6	144
NMTAP	30	96	7
NMTAP	30	144	7
NMHLD	30	192	0	144
NMTAP	30	240	7
NMTAP	30	288	7
NMHLD	30	336	6	144
NMTAP	31	0	7
NMTAP	31	48	7
NMHLD	31	96	0	144
NMTAP	31	144	7
NMTAP	31	192	7
NMHLD	31	240	6	144
NMTAP	31	288	7
NMTAP	31	336	7
NMHLD	32	0	0	144
NMTAP	32	48	7
NMTAP	32	96	7
NMHLD	32	144	6	144
NMTAP	32	192	7
NMTAP	32	240	7
NMSTR	32	288	0
NMSUR	32	288	0	96	192	3
NMTAP	32	336	0
EXHLD	33	192	5	384
BRTAP	34	192	4
NMSTR	34	288	6
NMSI_	34	288	6	96	48	3
NMSTR	34	288	7
NMSI_	34	288	7	96	48	2
NMTAP	35	0	6
NMTAP	35	0	7
NMHLD	35	96	1	96
NMHLD	35	192	3	96
NMHLD	35	288	4	96
NMTAP	36	0	6
NMTAP	36	48	6
NMSTR	36	96	0
NMSI_	36	96	0	96	48	4
NMTAP	36	192	5
NMTAP	36	288	6
NMTAP	36	336	6
NMTAP	37	0	4
NMTAP	37	96	2
NMTAP	37	144	2
NMSTR	37	192	3
NMSI_	37	192	3	96	48	7
NMSTR	37	288	1
NMSI_	37	288	1	96	48	5
NMTAP	38	0	5
NMTAP	38	96	4
NMTAP	38	192	2
NMTAP	38	192	3
NMSTR	38	288	0
NMSI_	38	288	0	96	48	5
NMSTR	38	288	1
NMSI_	38	288	1	96	48	4
NMTAP	39	0	0
NMTAP	39	0	1
NMHLD	39	96	6	96
NMHLD	39	192	4	96
NMHLD	39	288	3	96
NMTAP	40	0	1
NMTAP	40	48	1
NMTAP	40	96	5
NMTAP	40	192	2
NMTAP	40	192	4
NMTAP	40	288	6
NMTAP	40	336	6
NMTAP	41	0	4
NMTAP	41	48	4
NMTAP	41	96	7
NMTAP	41	144	7
NMTAP	41	192	0
NMTAP	41	240	0
NMTAP	41	288	3
NMTAP	41	336	3
NMTAP	42	0	2
NMTAP	42	0	4
NMSTR	42	96	0
NMSI_	42	96	0	96	48	3
NMSTR	42	96	7
NMSI_	42	96	7	96	48	4
BXTAP	42	192	0
BXTAP	42	192	7
NMSTR	42	288	5
NMSI_	42	288	5	96	48	2
NMSTR	43	0	1
NMSI_	43	0	1	96	48	6
NMSTR	43	96	5
NMSI_	43	96	5	96	48	0
NMSTR	43	192	1
NMSI_	43	192	1	96	48	4
NMSTR	43	288	7
NMSCL	43	288	7	96	48	4
NMSTR	44	0	3
NMSCL	44	0	3	96	48	0
NMSTR	44	96	7
NMSCL	44	96	7	96	48	4
NMTAP	44	192	3
NMSTR	44	288	1
BRSCL	44	288	1	96	48	6
NMTAP	45	0	4
NMSTR	45	96	5
BRSCL	45	96	5	96	48	2
NMTAP	45	192	0
NMSTR	45	288	1
BRSCL	45	288	1	96	48	6
NMTAP	46	0	4
NMSTR	46	96	5
BRSI_	46	96	5	96	48	3
NMTAP	46	192	0
BRSTR	46	288	1
NMSI_	46	288	1	96	48	4
NMSTR	47	0	0
NMSI_	47	0	0	96	48	5
NMSTR	47	96	2
NMSI_	47	96	2	96	48	7
NMSTR	47	192	3
NMSI_	47	192	3	96	48	6
NMSTR	47	288	1
NMSI_	47	288	1	96	48	5
NMSTR	48	0	7
NMSI_	48	0	7	96	48	3
NMTAP	48	96	4
NMTAP	48	192	2
NMTAP	48	288	1
NMTAP	48	336	1
NMTAP	49	0	7
NMTAP	49	48	7
NMTAP	49	96	0
NMTAP	49	144	0
NMTAP	49	192	5
NMTAP	49	240	5
NMTAP	49	288	4
NMTAP	49	336	3
NMSTR	50	0	2
NMSCL	50	0	2	96	48	7
NMSTR	50	96	4
NMSI_	50	96	4	96	48	7
BXTAP	50	192	0
NMHLD	51	0	0	192
NMHLD	51	0	6	192
NMTAP	51	240	1
NMTAP	51	240	5
NMHLD	52	0	1	192
NMHLD	52	0	4	192
NMTAP	52	240	3
NMTAP	52	240	5
NMHLD	53	0	6	192
NMHLD	53	0	7	192
NMTAP	53	240	2
NMTAP	53	240	4
NMHLD	54	0	1	192
NMHLD	54	0	5	192
NMTAP	54	240	3
NMTAP	54	240	6
NMHLD	55	0	0	192
NMHLD	55	0	4	192
NMTTP	55	240	0	B	0	M1
NMTTP	55	240	0	E	0	M1
NMTTP	55	240	1	B	0	M1
NMTTP	55	240	2	E	0	M1
NMTTP	55	240	2	A	0	M1
NMHLD	56	0	3	192
NMHLD	56	0	6	192
NMTTP	56	240	3	B	0	M1
NMTTP	56	240	3	E	0	M1
NMTTP	56	240	4	B	0	M1
NMTTP	56	240	5	E	0	M1
NMTTP	56	240	5	A	0	M1
NMHLD	57	0	0	192
NMHLD	57	0	1	192
NMTTP	57	240	0	B	0	M1
NMTTP	57	240	0	E	0	M1
NMTTP	57	240	1	B	0	M1
NMTTP	57	240	2	E	0	M1
NMTTP	57	240	7	A	0	M1
NMHLD	58	0	3	192
NMHLD	58	0	5	192
NMTTP	58	240	1	A	0	M1
NMTTP	58	240	2	B	0	M1
NMTTP	58	240	2	E	0	M1
NMTTP	58	240	3	B	0	M1
NMTTP	58	240	4	E	0	M1
NMSTR	59	0	5
NMSI_	59	0	5	96	48	0
NMTAP	59	96	4
NMTAP	59	96	5
NMTAP	59	240	2
NMTAP	59	288	1
NMTAP	59	288	3
NMSTR	60	0	2
NMSI_	60	0	2	96	48	7
NMTAP	60	96	2
NMTAP	60	96	3
NMTAP	60	240	5
NMTAP	60	288	4
NMTAP	60	288	6
NMSTR	61	0	5
NMSI_	61	0	5	96	48	0
NMTAP	61	96	4
NMTAP	61	96	5
NMTAP	61	240	2
NMTAP	61	288	1
NMTAP	61	288	3
NMSTR	62	0	2
NMSI_	62	0	2	96	48	0
NMTAP	62	96	3
NMTAP	62	144	4
NMSTR	62	192	5
NMSI_	62	192	5	96	48	7
NMTAP	62	288	4
NMTAP	62	336	3
NMSTR	63	0	2
NMSI_	63	0	2	96	48	7
NMTAP	63	96	2
NMTAP	63	96	3
NMTAP	63	240	5
NMTAP	63	240	7
NMTAP	63	288	5
NMTAP	63	288	7
NMTAP	64	0	3
NMSTR	64	0	5
NMSI_	64	0	5	96	48	0
NMTAP	64	96	4
NMTAP	64	96	5
NMTAP	64	240	0
NMTAP	64	240	2
NMTAP	64	288	0
NMTAP	64	288	2
NMSTR	65	0	2
NMSI_	65	0	2	96	48	7
NMTAP	65	0	4
NMTAP	65	96	2
NMTAP	65	96	3
NMTAP	65	240	5
NMTAP	65	240	7
NMTAP	65	288	5
NMTAP	65	288	7
NMTAP	66	0	3
NMSTR	66	0	5
NMSI_	66	0	5	96	48	3
NMSTR	66	96	2
NMSI_	66	96	2	96	48	6
NMSTR	66	192	7
NMSI_	66	192	7	96	48	1
NMSTR	66	288	3
NMSXL	66	288	3	96	384	0
NMHLD	68	0	6	1536
NMTTP	69	0	5	E	0	M1
NMTTP	69	192	6	E	0	M1
NMTTP	70	0	7	E	0	M1
NMTTP	71	0	0	E	0	M1
NMTTP	71	192	1	E	0	M1
NMHLD	72	0	1	1536
NMTTP	73	0	3	E	0	M1
NMTTP	73	192	2	E	0	M1
NMTTP	74	0	1	E	0	M1
NMTTP	75	0	7	E	0	M1
NMTTP	75	192	6	E	0	M1
NMHLD	76	0	5	1536
NMTTP	77	0	7	E	0	M1
NMTTP	77	192	6	E	0	M1
NMTTP	78	0	5	E	0	M1
NMTTP	79	0	4	E	0	M1
NMTTP	79	192	3	E	0	M1
NMHLD	80	0	2	1536
NMTTP	81	0	1	E	0	M1
NMTTP	81	192	2	E	0	M1
NMTTP	82	0	3	E	0	M1
NMTTP	83	0	5	E	0	M1
NMTTP	83	192	6	E	0	M1
BRTAP	84	0	6
NMTAP	84	96	1
NMTAP	84	96	7
NMHLD	84	192	1	96
NMTAP	84	192	7
NMHLD	84	288	3	96
NMHLD	85	0	4	96
NMSTR	85	96	6
NMSI_	85	96	6	96	48	2
NMSTR	85	192	1
NMSI_	85	192	1	96	48	7
NMSTR	85	288	5
NMSI_	85	288	5	96	48	3
NMHLD	86	0	0	96
NMTAP	86	96	2
NMTAP	86	144	2
NMHLD	86	192	1	48
NMHLD	86	192	3	48
NMHLD	86	288	1	48
NMHLD	86	288	3	48
NMHLD	87	0	2	48
NMHLD	87	0	4	48
NMHLD	87	96	3	48
NMHLD	87	96	5	48
NMHLD	87	192	4	48
NMHLD	87	192	6	48
NMHLD	87	288	4	48
NMHLD	87	288	6	48
NMTAP	88	0	3
NMTAP	88	0	7
NMSTR	88	96	2
NMSI_	88	96	2	96	48	5
NMSTR	88	192	6
NMSI_	88	192	6	96	48	1
NMTAP	88	288	3
NMTAP	89	0	7
NMSTR	89	96	6
NMSSL	89	96	6	96	144	2
NMHLD	89	192	0	192
EXTAP	90	0	3
NMHLD	90	96	1	48
NMHLD	90	96	7	48
NMHLD	90	192	1	48
NMHLD	90	192	7	48
NMHLD	90	288	3	48
NMHLD	90	288	5	48
NMHLD	91	0	1	48
NMHLD	91	0	3	48
NMHLD	91	96	4	48
NMHLD	91	96	6	48
NMHLD	91	192	2	48
NMHLD	91	192	5	48
NMHLD	91	288	0	48
NMHLD	91	288	7	48
BRTAP	92	0	1
BRTAP	92	0	6
NMTAP	92	96	2
NMTAP	92	96	4
NMHLD	92	192	2	96
NMTAP	92	192	4
NMHLD	92	288	0	96
NMHLD	93	0	7	96
NMSTR	93	96	5
NMSI_	93	96	5	96	48	1
NMSTR	93	192	2
NMSI_	93	192	2	96	48	4
NMSTR	93	288	6
NMSI_	93	288	6	96	48	0
NMHLD	94	0	1	96
NMTAP	94	96	3
NMTAP	94	144	3
NMHLD	94	192	0	48
NMHLD	94	192	2	48
NMHLD	94	288	0	48
NMHLD	94	288	2	48
NMHLD	95	0	1	48
NMHLD	95	0	7	48
NMHLD	95	96	0	48
NMHLD	95	96	6	48
NMHLD	95	192	5	48
NMHLD	95	192	7	48
NMHLD	95	288	5	48
NMHLD	95	288	7	48
BRTAP	96	0	0
BRTAP	96	0	4
BRSTR	96	96	1
NMSI_	96	96	1	96	48	6
NMSTR	96	192	5
NMSI_	96	192	5	96	48	2
NMTAP	96	288	0
NMTAP	96	336	0
NMTAP	97	0	4
NMTAP	97	96	5
NMTAP	97	144	5
NMSTR	97	192	6
NMSUL	97	192	6	96	96	2
NMSUR	97	192	6	96	96	2
NMHLD	98	96	2	48
NMHLD	98	96	4	48
NMHLD	98	192	2	48
NMHLD	98	192	4	48
NMHLD	98	288	0	48
NMHLD	98	288	6	48
NMHLD	99	0	0	48
NMHLD	99	0	2	48
NMHLD	99	96	5	48
NMHLD	99	96	7	48
NMHLD	99	192	1	48
NMHLD	99	192	6	48
NMHLD	99	288	3	48
NMHLD	99	288	4	48
BRTAP	100	0	2
BRTAP	100	0	5
NMTAP	100	96	0
NMTAP	100	144	0
NMSTR	100	192	7
NMSI_	100	192	7	96	48	3
NMTAP	100	288	2
NMTAP	100	336	2
NMSTR	101	0	1
NMSI_	101	0	1	96	48	6
NMSTR	101	96	5
NMSI_	101	96	5	96	48	2
NMSTR	101	192	3
NMSI_	101	192	3	96	48	0
NMTAP	101	288	7
NMTAP	101	336	7
NMSTR	102	0	6
NMSCR	102	0	6	96	48	0
NMSTR	102	96	2
NMSCR	102	96	2	96	48	4
NMTAP	102	192	7
NMTAP	102	240	7
NMSTR	102	288	0
NMSI_	102	288	0	96	48	4
NMTAP	102	288	6
NMSTR	103	0	5
NMSI_	103	0	5	96	48	2
NMSTR	103	96	1
NMSI_	103	96	1	96	48	5
NMTAP	103	192	6
NMTAP	103	240	6
NMTAP	103	288	4
NMTAP	104	0	2
NMTAP	104	0	3
NMSTR	104	96	0
NMSI_	104	96	0	96	48	4
NMSTR	104	96	1
NMSI_	104	96	1	96	48	5
NMTAP	104	192	0
NMTAP	104	192	1
NMTAP	104	288	6
NMTAP	104	336	6
NMSTR	105	0	6
NMSI_	105	0	6	96	48	2
NMSTR	105	0	7
NMSI_	105	0	7	96	48	3
NMTAP	105	96	6
NMTAP	105	96	7
NMTAP	105	192	1
NMTAP	105	240	1
NMSTR	105	288	0
BRSI_	105	288	0	96	48	4
NMSTR	105	288	1
BRSI_	105	288	1	96	48	5
NMTAP	106	0	0
NMTAP	106	0	1
NMTAP	106	96	6
NMTAP	106	144	6
NMSTR	106	192	6
BRSI_	106	192	6	96	48	2
NMSTR	106	192	7
BRSI_	106	192	7	96	48	3
NMTAP	106	288	6
NMTAP	106	288	7
NMTAP	107	0	1
NMTAP	107	48	1
NMSTR	107	96	0
NMSSL	107	96	0	96	144	4
NMSTR	107	96	7
NMSSR	107	96	7	96	144	3
NMSTR	108	0	5
NMSI_	108	0	5	96	48	0
NMTAP	108	96	3
NMTAP	108	144	3
NMSTR	108	192	2
NMSI_	108	192	2	96	48	7
NMSTR	108	288	6
NMSI_	108	288	6	96	48	3
NMHLD	109	0	2	96
NMHLD	109	96	0	96
NMHLD	109	192	7	96
NMSTR	109	288	5
NMSI_	109	288	5	96	48	3
NMTAP	110	0	2
NMTAP	110	48	1
NMSTR	110	96	0
NMSI_	110	96	0	96	48	4
NMTAP	110	192	5
NMTAP	110	240	6
NMSTR	110	288	7
NMSI_	110	288	7	96	48	3
NMTAP	111	0	2
NMTAP	111	48	1
NMSTR	111	96	0
NMSI_	111	96	0	96	48	4
NMTAP	111	192	5
NMTAP	111	240	6
NMHLD	111	288	7	96
NMTAP	112	0	1
NMTAP	112	96	3
NMTAP	112	96	5
NMTAP	112	144	2
NMTAP	112	192	1
NMTAP	112	240	3
NMTAP	112	240	5
NMTAP	112	288	6
NMTAP	112	336	7
NMTAP	113	0	3
NMTAP	113	0	5
NMTAP	113	48	2
NMTAP	113	96	1
NMTAP	113	144	3
NMTAP	113	144	5
NMTAP	113	192	6
NMTAP	113	240	7
NMTAP	113	288	2
NMTAP	113	288	6
NMTAP	113	336	1
NMTAP	114	0	0
NMTAP	114	48	2
NMTAP	114	48	6
NMTAP	114	96	7
NMTAP	114	144	0
NMTAP	114	192	2
NMTAP	114	192	6
NMTAP	114	240	1
NMTAP	114	288	0
NMTAP	114	336	2
NMTAP	114	336	6
NMTAP	115	0	7
NMTAP	115	48	0
NMTAP	115	96	1
NMTAP	115	96	7
NMTAP	115	144	0
NMSTR	115	192	0
NMSI_	115	192	0	96	48	4
EXSTR	115	288	6
BRSI_	115	288	6	96	48	2
BXTAP	116	0	6

T_REC_TAP	360
T_REC_BRK	8
T_REC_XTP	1
T_REC_BXX	4
T_REC_HLD	124
T_REC_XHO	1
T_REC_BHO	0
T_REC_BXH	0
T_REC_STR	79
T_REC_BST	2
T_REC_XST	1
T_REC_XBS	0
T_REC_TTP	40
T_REC_THO	0
T_REC_SLD	74
T_REC_BSL	9
T_REC_ALL	703
T_NUM_TAP	481
T_NUM_BRK	23
T_NUM_HLD	125
T_NUM_SLD	74
T_NUM_ALL	703
T_JUDGE_TAP	495
T_JUDGE_HLD	392
T_JUDGE_SLD	83
T_JUDGE_ALL	970
TTM_EACHPAIRS	96
TTM_SCR_TAP	240500
TTM_SCR_BRK	59800
TTM_SCR_HLD	125000
TTM_SCR_SLD	111000
TTM_SCR_ALL	536300
TTM_SCR_S	518000
TTM_SCR_SS	534000
TTM_RAT_ACV	10043

