VERSION	0.00.00	1.04.00
FES_MODE	0
BPM_DEF	183.000	183.000	183.000	183.000
MET_DEF	4	4
RESOLUTION	384
CLK_DEF	384
COMPATIBLE_CODE	MA2

BPM	0	0	183.000
MET	0	0	4	4
MET	17	0	4	2
MET	17	192	4	4
MET	50	192	4	2
MET	51	0	4	4

NMHLD	1	0	4	384
NMTAP	1	288	3
NMHLD	2	0	3	384
NMTAP	2	288	5
NMHLD	3	0	5	384
NMSTR	3	288	4
NMSCL	3	288	4	96	144	2
NMHLD	5	0	3	384
NMTAP	5	288	4
NMHLD	6	0	4	384
NMTAP	6	288	2
NMHLD	7	0	2	384
NMSTR	7	288	4
NMSCR	7	288	4	96	144	7
NMHLD	9	0	6	384
NMTAP	9	288	4
NMHLD	10	0	4	384
NMTAP	10	288	5
NMHLD	11	0	5	288
NMSTR	11	288	4
NMSCL	11	288	4	96	144	1
NMHLD	13	0	1	384
NMTAP	13	288	3
NMHLD	14	0	3	384
NMTAP	14	288	2
NMHLD	15	0	2	288
NMTAP	15	288	3
NMTAP	16	0	4
NMTAP	16	96	5
NMTAP	16	192	4
NMHLD	16	192	5	144
EXHLD	16	288	3	48
NMTAP	17	192	3
NMTAP	17	192	6
NMTAP	17	288	5
NMTAP	18	0	4
NMTAP	18	96	2
NMTAP	18	192	1
NMTAP	18	192	4
NMTAP	18	288	2
NMTAP	19	0	3
NMTAP	19	96	5
NMTAP	19	192	4
NMTAP	19	192	6
NMTAP	19	288	5
NMTAP	20	0	3
NMTAP	20	96	2
NMTAP	20	192	1
NMTAP	20	192	3
NMTAP	20	288	1
NMTAP	20	288	3
NMTAP	21	0	2
NMTAP	21	0	4
NMTAP	21	96	2
NMTAP	21	96	4
BXTAP	21	192	3
BXTAP	21	192	5
NMTAP	21	288	2
NMTAP	22	0	4
NMTAP	22	96	3
NMTAP	22	96	5
NMTAP	22	192	4
NMTAP	22	192	6
NMTAP	22	288	5
NMTAP	23	0	3
NMTAP	23	96	2
NMTAP	23	96	4
NMTAP	23	192	1
NMTAP	23	288	7
NMTAP	24	0	6
NMTAP	24	96	0
NMTAP	24	96	6
NMTAP	24	192	1
NMTAP	24	192	5
NMTAP	24	288	1
NMTAP	24	288	5
NMHLD	25	0	2	192
NMTAP	25	0	4
NMTAP	25	192	3
NMTAP	25	288	3
NMTAP	25	288	4
NMTAP	26	0	5
NMTAP	26	96	4
NMTAP	26	96	5
NMTAP	26	192	6
NMTAP	26	288	6
NMTAP	26	288	7
NMTAP	27	0	1
NMTAP	27	48	1
NMTAP	27	96	0
NMTAP	27	192	1
NMTAP	27	192	7
NMTAP	27	288	2
NMTAP	27	288	6
NMTAP	28	0	5
NMTAP	28	96	4
NMTAP	28	96	5
NMTAP	28	192	3
NMTAP	28	192	4
NMTAP	28	288	2
NMTAP	28	288	3
NMTAP	29	0	2
NMTAP	29	48	2
NMTAP	29	96	3
BRTAP	29	192	1
BRHLD	29	192	4	96
NMTAP	29	288	2
NMTAP	29	336	2
NMTAP	30	0	3
NMTAP	30	96	5
NMTAP	30	144	5
NMTAP	30	192	4
NMTAP	30	288	1
NMTAP	30	336	1
NMTAP	31	0	3
NMTAP	31	96	6
NMTAP	31	144	6
NMTAP	31	192	4
NMTAP	31	288	1
NMTAP	31	336	1
NMTAP	32	0	0
NMTAP	32	96	6
NMTAP	32	144	6
NMTAP	32	192	7
NMTAP	32	288	0
NMTAP	32	336	0
NMTAP	33	0	7
NMHLD	33	96	1	288
NMTAP	33	96	6
NMHLD	33	192	5	192
BXTAP	34	192	0
BXTAP	34	192	7
NMTAP	34	288	4
NMTAP	34	288	5
NMTAP	35	0	1
NMTAP	35	0	6
NMTAP	35	96	2
NMTAP	35	96	3
NMTAP	35	192	4
NMTAP	35	192	5
NMTAP	35	288	6
NMTAP	35	288	7
NMTAP	36	0	0
NMTAP	36	0	1
NMTAP	36	96	2
NMTAP	36	96	3
NMTAP	36	192	1
NMTAP	36	192	4
NMTAP	36	288	5
NMTAP	36	336	5
NMTAP	37	0	4
NMTAP	37	96	3
NMTAP	37	96	6
NMTAP	37	192	0
NMTAP	37	192	1
NMTAP	37	288	2
NMTAP	37	288	4
NMTAP	38	0	6
NMTAP	38	0	7
NMTAP	38	96	3
NMTAP	38	96	5
NMHLD	38	192	2	96
NMHLD	38	288	0	96
NMHLD	39	0	7	96
NMTAP	39	96	5
NMTAP	39	192	4
NMTAP	39	192	5
NMTAP	39	288	2
NMTAP	39	288	7
NMTAP	40	0	2
NMTAP	40	0	3
NMTAP	40	96	0
NMTAP	40	96	5
NMHLD	40	192	1	96
NMHLD	40	288	3	96
NMHLD	41	0	4	96
NMTAP	41	96	6
NMTAP	41	192	4
NMTAP	41	192	5
NMTAP	41	288	3
NMTAP	41	288	4
NMTAP	42	0	2
NMTAP	42	0	3
BRTAP	42	96	0
BRTAP	42	96	6
BRTAP	42	192	0
BRTAP	42	192	6
NMTAP	42	288	4
NMTAP	42	288	5
NMTAP	43	0	1
NMTAP	43	0	3
NMTAP	43	96	0
NMTAP	43	96	7
NMTAP	43	192	4
NMTAP	43	192	6
NMTAP	43	288	3
NMTAP	43	288	4
NMTAP	44	0	2
NMTAP	44	48	2
NMTAP	44	96	3
NMHLD	44	192	5	96
NMTAP	44	288	4
NMHLD	45	0	1	96
NMTAP	45	96	3
NMHLD	45	192	6	96
NMTAP	45	288	7
NMTAP	46	0	0
NMTAP	46	0	5
NMTAP	46	96	0
NMTAP	46	96	5
BRTAP	46	192	2
BRTAP	46	192	3
BRTAP	46	288	0
BRTAP	46	288	1
BRTAP	47	0	6
BRTAP	47	0	7
BRTAP	47	96	4
BRTAP	47	96	5
NMTAP	47	192	2
NMTAP	47	288	1
NMTAP	47	288	3
NMTAP	48	0	0
NMTAP	48	96	1
NMTAP	48	96	7
NMTAP	48	192	6
NMTAP	48	288	6
NMTAP	48	288	7
NMTAP	49	0	0
NMTAP	49	0	5
NMTAP	49	96	2
NMTAP	49	96	3
NMTAP	49	192	4
NMTAP	49	240	4
NMTAP	49	288	3
NMTAP	50	0	2
NMTAP	50	0	4
NMTAP	50	96	1
NMTAP	50	96	5
BRTAP	50	192	0
NMSTR	50	288	0
NMSI_	50	288	0	96	384	3
CNSI_	52	0	3	0	384	6
CNSI_	53	0	6	0	384	1
CNSI_	54	0	1	0	384	4
CNSI_	55	0	4	0	384	7
CNSI_	56	0	7	0	384	2
CNSI_	57	0	2	0	384	5
BXTAP	59	0	3
BXTAP	59	0	6
NMTAP	59	96	5
NMHLD	59	192	4	96
NMTAP	59	192	5
NMHLD	59	288	6	96
NMHLD	60	0	5	96
NMHLD	60	96	4	96
NMTAP	60	192	3
NMTAP	60	288	2
NMTAP	60	288	3
BXTAP	61	0	1
BXTAP	61	0	4
NMTAP	61	96	2
NMTAP	61	192	2
NMHLD	61	192	3	96
NMHLD	61	288	1	96
NMHLD	62	0	2	96
NMHLD	62	96	3	96
NMTAP	62	192	4
NMTAP	62	288	2
BRTAP	63	0	0
BRTAP	63	0	1
NMTAP	63	96	1
NMHLD	63	192	0	96
NMTAP	63	192	1
NMHLD	63	288	2	96
NMHLD	64	0	1	96
NMHLD	64	96	0	96
NMTAP	64	192	7
NMTAP	64	288	6
NMTAP	64	288	7
BRTAP	65	0	0
BRTAP	65	0	5
NMTAP	65	96	6
NMTAP	65	192	6
NMHLD	65	192	7	96
NMHLD	65	288	5	96
NMHLD	66	0	6	96
NMHLD	66	96	7	96
NMTAP	66	192	0
NMSTR	66	288	0
BRSCL	66	288	0	96	192	5
BRSCR	66	288	0	96	192	3
BXHLD	68	0	4	2880
NMTTP	69	0	2	E	0	M1
NMTTP	70	0	0	E	0	M1
NMTTP	70	0	0	D	0	M1
NMTTP	71	0	6	E	0	M1
NMTTP	72	0	4	E	0	M1
NMTTP	72	0	4	D	0	M1
NMTTP	73	0	6	E	0	M1
NMTTP	74	0	0	E	0	M1
NMTTP	74	0	0	D	0	M1
NMTTP	75	0	2	E	0	M1
NMHLD	76	0	3	2880
NMTAP	76	0	4
NMTTP	77	0	5	E	0	M1
NMTHO	78	0	0	384	C	0	M1
NMTTP	80	0	0	E	0	M1
NMTTP	81	0	2	E	0	M1
NMTTP	81	0	2	D	0	M1
EXHLD	82	0	4	576
BXTAP	84	0	3
BXTAP	84	0	4
NMTAP	84	96	0
NMTAP	84	96	1
NMTAP	84	192	2
NMTAP	84	192	5
NMTAP	84	288	6
NMTAP	84	288	7
NMTAP	85	0	0
NMTAP	85	0	1
NMTAP	85	96	2
NMTAP	85	96	3
NMTAP	85	192	4
NMTAP	85	192	5
NMTAP	85	288	6
NMTAP	85	336	6
NMTAP	86	0	7
NMTAP	86	96	0
NMTAP	86	96	5
NMTAP	86	192	1
NMTAP	86	192	6
NMTAP	86	288	2
NMTAP	86	288	7
NMTAP	87	0	4
NMTAP	87	0	5
NMTAP	87	96	0
NMTAP	87	96	6
NMTAP	87	192	2
NMTAP	87	192	3
NMTAP	87	288	1
NMTAP	87	288	7
NMHLD	88	0	6	96
NMHLD	88	96	4	96
NMHLD	88	192	3	96
NMTAP	88	288	1
NMTAP	89	0	0
NMTAP	89	0	1
NMTAP	89	96	3
NMTAP	89	96	6
NMTAP	89	192	6
NMTAP	89	192	7
NMTAP	89	288	1
NMTAP	89	288	4
NMHLD	90	0	0	96
NMHLD	90	96	2	96
NMHLD	90	192	4	96
NMTAP	90	288	5
NMTAP	91	0	6
NMTAP	91	0	7
NMTAP	91	96	0
NMTAP	91	96	7
NMTAP	91	192	0
NMTAP	91	192	1
BRTAP	91	288	2
BRTAP	91	288	6
BRTAP	92	0	2
BRTAP	92	0	6
NMTAP	92	96	0
NMTAP	92	96	1
NMTAP	92	192	5
NMTAP	92	192	7
NMTAP	92	288	2
NMTAP	92	288	3
NMTAP	93	0	4
NMTAP	93	0	5
NMTAP	93	96	1
NMTAP	93	96	3
NMTAP	93	192	6
NMTAP	93	240	6
NMTAP	93	288	7
NMTAP	94	0	0
NMHLD	94	0	5	96
NMTAP	94	96	4
NMHLD	94	192	2	96
NMTAP	94	192	7
NMTAP	94	288	3
NMTAP	95	0	1
NMTAP	95	0	4
NMTAP	95	96	2
NMTAP	95	96	3
NMTAP	95	192	4
NMTAP	95	192	5
NMTAP	95	288	3
NMTAP	95	288	6
BRTAP	96	0	0
BRTAP	96	0	1
BRTAP	96	96	4
BRTAP	96	96	5
BRTAP	96	192	6
BRTAP	96	192	7
BRTAP	96	288	2
BRTAP	96	288	3
NMTAP	97	0	1
NMTAP	97	48	1
NMTAP	97	96	3
NMTAP	97	192	5
NMTAP	97	240	5
NMTAP	97	288	4
NMTAP	98	0	2
NMTAP	98	96	2
NMTAP	98	96	3
NMTAP	98	192	1
NMTAP	98	192	4
NMTAP	98	288	6
NMTAP	98	288	7
NMTAP	99	0	0
NMTAP	99	48	0
NMTAP	99	96	7
NMTAP	99	192	1
NMTAP	99	192	6
BRTAP	99	288	1
BRTAP	99	288	6
EXTAP	100	0	3
EXTAP	100	0	4
NMTAP	100	96	6
NMTAP	100	144	6
NMTAP	100	192	0
NMTAP	100	240	0
NMTAP	100	288	7
NMTAP	100	336	7
NMTAP	101	0	1
NMTAP	101	48	1
NMTAP	101	96	0
NMTAP	101	192	2
NMTAP	101	192	7
NMTAP	101	288	2
NMTAP	101	288	7
NMTAP	102	0	1
NMTAP	102	48	1
NMTAP	102	96	7
NMTAP	102	144	7
NMTAP	102	192	0
NMTAP	102	240	0
NMTAP	102	288	6
NMTAP	102	336	6
NMTAP	103	0	7
NMTAP	103	96	0
NMTAP	103	96	5
NMTAP	103	192	1
NMTAP	103	192	6
NMTAP	103	288	2
NMTAP	103	288	7
BXTAP	104	0	4
BXTAP	104	0	5
NMTAP	104	96	6
NMTAP	104	144	6
NMTAP	104	192	0
NMTAP	104	240	0
NMTAP	104	288	7
NMTAP	104	336	7
NMTAP	105	0	1
NMTAP	105	48	1
NMTAP	105	96	0
NMTAP	105	192	2
NMTAP	105	192	7
NMTAP	105	288	2
NMTAP	105	288	7
NMTAP	106	0	1
NMTAP	106	48	1
NMTAP	106	96	7
NMTAP	106	144	7
NMTAP	106	192	0
NMTAP	106	240	0
NMTAP	106	288	6
NMTAP	106	336	6
NMTAP	107	0	7
NMSTR	107	96	0
NMSI_	107	96	0	96	96	4
NMTAP	107	96	5
BXTAP	108	0	4
BXTAP	108	0	5
NMTAP	108	96	6
NMTAP	108	144	6
NMTAP	108	192	0
NMTAP	108	240	0
NMTAP	108	288	7
NMTAP	108	336	7
NMTAP	109	0	1
NMTAP	109	48	1
NMTAP	109	96	0
NMTAP	109	144	0
NMTAP	109	192	2
NMTAP	109	240	2
NMTAP	109	288	0
NMTAP	109	288	2
NMTAP	110	0	1
NMTAP	110	48	1
NMTAP	110	96	7
NMTAP	110	144	7
NMTAP	110	192	0
NMTAP	110	240	0
NMTAP	110	288	6
NMTAP	110	336	6
NMTAP	111	0	7
NMTAP	111	48	7
NMTAP	111	96	5
NMTAP	111	144	5
NMTAP	111	192	7
NMTAP	111	288	0
NMTAP	111	288	6
BRTAP	112	0	1
NMTAP	112	48	1
NMTAP	112	96	0
NMTAP	112	144	0
NMTAP	112	192	2
NMTAP	112	240	2
NMTAP	112	288	6
NMTAP	112	336	6
NMTAP	113	0	7
NMTAP	113	48	7
NMTAP	113	96	5
NMTAP	113	144	5
NMTAP	113	192	1
NMTAP	113	240	1
NMTAP	113	288	0
NMTAP	113	336	0
NMTAP	114	0	2
NMTAP	114	48	2
NMTAP	114	96	6
NMTAP	114	144	6
NMTAP	114	192	7
NMTAP	114	240	7
NMTAP	114	288	5
NMTAP	114	336	5
NMTAP	115	0	1
NMTAP	115	48	1
NMTAP	115	96	0
NMTAP	115	144	0
NMTAP	115	192	0
NMTAP	115	192	2
EXSTR	115	288	0
NMSI_	115	288	0	96	48	4
EXSTR	115	288	1
NMSI_	115	288	1	96	48	5

T_REC_TAP	403
T_REC_BRK	33
T_REC_XTP	2
T_REC_BXX	14
T_REC_HLD	50
T_REC_XHO	2
T_REC_BHO	1
T_REC_BXH	1
T_REC_STR	6
T_REC_BST	0
T_REC_XST	2
T_REC_XBS	0
T_REC_TTP	14
T_REC_THO	1
T_REC_SLD	7
T_REC_BSL	2
T_REC_ALL	538
T_NUM_TAP	427
T_NUM_BRK	51
T_NUM_HLD	53
T_NUM_SLD	7
T_NUM_ALL	538
T_JUDGE_TAP	474
T_JUDGE_HLD	318
T_JUDGE_SLD	9
T_JUDGE_ALL	801
TTM_EACHPAIRS	136
TTM_SCR_TAP	213500
TTM_SCR_BRK	132600
TTM_SCR_HLD	53000
TTM_SCR_SLD	10500
TTM_SCR_ALL	409600
TTM_SCR_S	392400
TTM_SCR_SS	404500
TTM_RAT_ACV	10126

