VERSION	0.00.00	1.04.00
FES_MODE	0
BPM_DEF	185.000	185.000	185.000	185.000
MET_DEF	4	4
RESOLUTION	384
CLK_DEF	384
COMPATIBLE_CODE	MA2

BPM	0	0	185.000
MET	0	0	4	4

NMTAP	2	0	2
NMTAP	2	0	3
NMTAP	2	48	2
NMTAP	2	96	4
NMTAP	2	96	5
NMTAP	2	144	5
NMTAP	2	192	0
NMTAP	2	216	7
NMTAP	2	240	0
NMTAP	2	288	1
NMTAP	2	288	6
NMTAP	3	0	2
NMTAP	3	0	4
NMTAP	3	96	3
NMTAP	3	96	5
NMTAP	3	192	4
NMTAP	3	192	6
NMTTP	3	288	7	E	0	M1
NMTTP	3	288	7	A	0	M1
NMTAP	4	0	3
NMTAP	4	0	5
NMTAP	4	96	2
NMTAP	4	96	4
NMTAP	4	192	1
NMTAP	4	192	3
NMTTP	4	288	0	A	0	M1
NMTTP	4	288	1	E	0	M1
NMTAP	5	0	1
NMTAP	5	0	4
NMTAP	5	96	2
NMTAP	5	96	5
NMTAP	5	192	3
NMTAP	5	192	6
NMTTP	5	288	0	E	0	M1
NMTTP	5	288	0	D	0	M1
NMTAP	6	0	4
NMTAP	6	0	6
NMTAP	6	48	5
NMTAP	6	96	2
NMTAP	6	96	4
NMTAP	6	144	3
NMSTR	6	192	4
NMSI_	6	192	4	96	48	0
NMTAP	6	192	5
NMTAP	6	288	4
NMTAP	6	288	6
NMTAP	7	0	7
NMTAP	7	48	7
NMTAP	7	96	6
NMTAP	7	144	6
NMTAP	7	192	5
NMTAP	7	240	5
NMTAP	7	288	4
NMTAP	7	336	4
NMTAP	8	0	3
NMTAP	8	48	3
NMTAP	8	96	2
NMTAP	8	144	2
NMTAP	8	192	1
NMTAP	8	240	1
NMTAP	8	288	0
NMTAP	8	336	0
NMTAP	9	0	6
NMTAP	9	48	6
NMTAP	9	96	4
NMTAP	9	144	4
NMTAP	9	192	2
NMTAP	9	240	2
NMTAP	9	288	0
NMTAP	9	336	0
NMTAP	10	0	6
NMTAP	10	24	7
NMTAP	10	48	6
NMTAP	10	72	7
NMTAP	10	96	6
NMTAP	10	144	0
NMTAP	10	144	5
NMSTR	10	192	0
NMSUL	10	192	0	96	48	4
NMSUR	10	192	0	96	48	4
NMTAP	10	192	5
BRTAP	10	288	0
NMHLD	11	0	1	48
NMHLD	11	0	7	48
NMHLD	11	96	2	48
NMHLD	11	96	3	48
NMHLD	11	192	4	48
NMHLD	11	192	5	48
NMTAP	11	288	5
NMTAP	11	336	4
NMHLD	12	0	2	48
NMHLD	12	0	3	48
NMHLD	12	96	1	48
NMHLD	12	96	2	48
NMHLD	12	192	0	48
NMHLD	12	192	1	48
NMTAP	12	288	2
NMTAP	12	336	3
NMHLD	13	0	4	48
NMHLD	13	0	5	48
NMHLD	13	96	6	48
NMHLD	13	96	7	48
NMTAP	13	192	0
NMTAP	13	192	1
NMTAP	13	240	2
NMTAP	13	288	3
NMTAP	13	288	4
NMTAP	13	336	5
NMHLD	14	0	6	48
NMHLD	14	0	7	48
NMHLD	14	96	5	48
NMHLD	14	96	6	48
NMHLD	14	192	4	48
NMHLD	14	192	5	48
BRTAP	14	288	3
BRTAP	14	288	4
NMHLD	15	0	3	48
NMHLD	15	0	5	48
NMHLD	15	96	0	48
NMHLD	15	96	1	48
NMHLD	15	192	6	48
NMHLD	15	192	7	48
NMTAP	15	288	6
NMTAP	15	336	7
NMHLD	16	0	0	48
NMHLD	16	0	1	48
NMHLD	16	96	1	48
NMHLD	16	96	2	48
NMHLD	16	192	2	48
NMHLD	16	192	3	48
NMTAP	16	288	4
NMTAP	16	336	4
NMHLD	17	0	3	48
NMHLD	17	0	5	48
NMHLD	17	96	1	48
NMHLD	17	96	3	48
NMHLD	17	192	1	48
NMHLD	17	192	7	48
NMHLD	17	288	5	48
NMHLD	17	288	7	48
NMSTR	18	0	3
NMSXR	18	0	3	96	192	0
NMSTR	18	0	5
NMSXL	18	0	5	96	192	0
NMSTR	19	0	1
NMSXL	19	0	1	96	192	4
NMTAP	19	0	7
NMTAP	20	0	3
NMHLD	20	0	6	288
NMTTP	20	96	4	B	0	M1
NMTTP	20	96	4	A	0	M1
NMTTP	20	192	6	E	0	M1
NMTTP	20	192	6	D	0	M1
NMTTP	20	288	7	B	0	M1
NMTTP	20	288	7	A	0	M1
NMTAP	21	0	0
NMSTR	21	0	6
NMSXR	21	0	6	96	192	3
NMHLD	22	0	1	288
NMTAP	22	0	4
NMTTP	22	96	3	E	0	M1
NMTTP	22	96	3	D	0	M1
NMTTP	22	192	2	E	0	M1
NMTTP	22	192	2	D	0	M1
NMTTP	22	288	1	E	0	M1
NMTTP	22	288	1	D	0	M1
NMSTR	23	0	2
NMSXL	23	0	2	96	192	7
NMTAP	23	0	7
NMTAP	24	0	0
NMHLD	24	0	6	288
NMTTP	24	96	7	B	0	M1
NMTTP	24	96	7	A	0	M1
NMTTP	24	192	6	E	0	M1
NMTTP	24	192	6	D	0	M1
NMTTP	24	288	4	B	0	M1
NMTTP	24	288	4	A	0	M1
NMSTR	25	0	0
NMSUR	25	0	0	96	192	3
NMSTR	25	0	6
NMSUL	25	0	6	96	192	3
NMHLD	26	0	1	192
NMTAP	26	0	4
NMTAP	26	96	2
NMTTP	26	192	0	C	1	M1
NMHLD	27	0	5	96
NMTAP	27	96	4
NMTAP	27	240	6
NMTAP	27	288	4
NMTAP	27	288	6
NMHLD	28	0	6	96
NMTAP	28	96	4
NMTAP	28	240	5
NMTAP	28	288	4
NMTAP	28	288	5
NMHLD	29	0	2	96
NMTAP	29	96	3
NMTAP	29	240	1
NMTAP	29	288	1
NMTAP	29	288	3
NMHLD	30	0	1	96
NMTAP	30	96	3
NMTAP	30	240	2
NMTAP	30	288	1
NMTAP	30	288	3
NMTAP	31	0	1
NMTAP	31	0	3
NMTAP	31	48	2
NMTAP	31	96	2
NMTAP	31	144	2
NMTAP	31	192	4
NMTAP	31	192	6
NMTAP	31	240	5
NMTAP	31	288	5
NMTAP	31	336	5
NMTAP	32	0	0
NMTAP	32	0	3
NMTAP	32	48	1
NMTAP	32	96	2
NMTAP	32	144	3
NMTAP	32	192	4
NMTAP	32	192	7
NMTAP	32	240	6
NMTAP	32	288	5
NMTAP	32	336	4
NMTAP	33	0	3
NMTAP	33	48	3
NMTAP	33	96	2
NMTAP	33	96	4
NMTAP	33	144	2
NMTAP	33	144	4
NMTAP	33	192	1
NMTAP	33	192	5
NMTAP	33	240	1
NMTAP	33	240	5
NMTAP	33	288	0
NMTAP	33	288	6
NMTAP	33	336	0
NMTAP	33	336	6
NMTAP	34	0	7
NMTAP	34	24	7
NMTAP	34	48	7
NMTAP	34	72	7
NMTAP	34	96	7
NMTAP	34	144	0
NMTAP	34	144	6
NMSTR	34	192	1
NMSI_	34	192	1	96	48	4
NMSTR	34	192	5
NMSI_	34	192	5	96	48	0
EXTAP	34	288	1
EXTAP	34	288	5
NMTAP	35	0	2
NMTAP	35	0	3
NMTAP	35	48	1
NMTAP	35	96	4
NMTAP	35	96	5
NMTAP	35	144	6
NMTAP	35	192	0
NMTAP	35	192	1
NMTAP	35	240	2
NMTAP	35	288	6
NMTAP	35	288	7
NMTAP	35	336	5
NMTAP	36	0	0
NMTAP	36	0	4
NMSTR	36	48	1
NMSCL	36	48	1	96	96	3
NMTAP	36	72	3
NMTAP	36	96	2
NMTAP	36	144	1
NMTAP	36	144	7
EXTAP	36	240	7
NMTAP	36	288	6
NMTAP	36	336	5
NMTAP	37	0	3
NMTAP	37	0	4
NMTAP	37	48	2
NMTAP	37	96	0
NMTAP	37	96	1
NMTAP	37	144	7
NMTAP	37	192	2
NMTAP	37	192	6
NMTAP	37	240	5
NMTAP	37	264	4
NMTAP	37	312	2
NMTAP	37	336	3
NMSTR	38	0	6
NMSI_	38	0	6	96	48	3
NMTAP	38	48	3
NMSTR	38	96	6
NMSI_	38	96	6	96	48	0
NMTAP	38	144	1
NMSTR	38	192	6
NMSI_	38	192	6	96	48	2
NMTAP	38	240	4
BRTAP	38	288	6
NMTAP	39	0	1
NMTAP	39	0	4
NMTAP	39	48	2
NMTAP	39	72	3
NMTAP	39	96	2
NMTAP	39	144	5
NMTAP	39	168	5
NMTAP	39	192	4
NMTAP	39	240	2
NMTAP	39	264	3
NMTAP	39	288	1
NMTAP	39	312	4
NMTAP	39	336	0
NMTAP	40	0	5
NMSTR	40	0	7
NMSI_	40	0	7	96	48	3
NMSTR	40	48	1
NMSI_	40	48	1	96	48	5
BRTAP	40	96	7
BRTAP	40	144	1
NMTAP	40	240	6
NMTAP	40	288	3
NMTAP	40	288	5
NMTAP	40	336	2
NMTAP	40	336	4
NMTAP	41	0	1
NMTAP	41	0	3
NMTAP	41	48	0
NMTAP	41	96	4
NMTAP	41	96	6
NMTAP	41	144	7
NMTAP	41	192	1
NMTAP	41	216	0
NMTAP	41	240	2
NMTAP	41	264	7
NMTAP	41	288	3
NMTAP	41	312	6
NMTAP	41	336	4
NMTAP	41	360	5
NMSTR	42	0	4
NMSI_	42	0	4	96	48	2
NMTAP	42	48	4
NMSTR	42	96	6
NMSI_	42	96	6	96	48	0
NMTAP	42	144	6
NMSTR	42	192	5
NMSI_	42	192	5	96	48	1
NMTAP	42	240	5
BRTAP	42	288	6
NMSTR	43	0	0
NMSUR	43	0	0	96	48	4
NMTAP	43	48	7
NMTAP	43	96	0
NMSTR	43	96	6
NMSI_	43	96	6	96	48	2
NMTAP	43	192	6
NMHLD	43	264	3	72
NMTAP	43	336	7
NMTAP	44	0	2
NMSTR	44	0	6
NMSLL	44	0	6	96	72	2
NMTAP	44	48	1
NMSTR	44	96	0
NMSI_	44	96	0	96	48	4
NMTAP	44	96	6
NMTAP	44	192	0
NMHLD	44	264	3	72
NMTAP	44	336	0
NMSTR	45	0	1
NMSLR	45	0	1	96	72	5
NMTAP	45	0	5
NMTAP	45	48	6
NMTAP	45	96	1
NMSTR	45	96	7
NMSI_	45	96	7	96	48	3
NMTAP	45	192	7
NMHLD	45	264	4	72
NMTAP	45	336	7
NMTAP	46	0	2
NMTAP	46	0	6
NMTAP	46	48	1
NMTAP	46	48	5
NMTAP	46	96	0
NMTAP	46	120	7
NMSTR	46	192	3
NMSI_	46	192	3	96	48	7
NMTAP	46	192	6
NMTAP	46	240	2
NMTAP	46	264	4
BRTAP	46	288	3
NMTAP	47	0	0
NMSTR	47	0	6
NMSI_	47	0	6	96	48	3
NMTAP	47	48	1
NMSTR	47	96	2
NMSI_	47	96	2	96	48	7
NMTAP	47	96	6
NMTAP	47	192	2
NMSTR	47	192	4
NMSI_	47	192	4	96	48	0
NMTAP	47	288	0
NMTAP	47	288	4
NMTAP	48	0	1
NMTAP	48	0	7
NMTAP	48	48	2
NMTAP	48	48	6
NMSTR	48	96	5
NMSXL	48	96	5	96	144	3
NMTAP	48	120	4
NMTAP	48	144	5
NMTAP	48	240	3
NMTAP	48	288	2
NMTAP	48	336	1
NMTAP	49	0	0
NMTAP	49	0	4
NMTAP	49	48	5
NMTAP	49	96	3
NMTAP	49	96	6
NMTAP	49	144	2
BRTAP	49	192	7
NMTAP	49	216	1
NMTAP	49	240	6
NMTAP	49	264	1
NMTAP	49	288	5
NMTAP	49	312	1
NMTAP	49	336	4
NMSTR	49	360	1
NMSUR	49	360	1	96	120	2
NMTAP	50	0	3
NMTAP	50	96	4
NMTAP	50	144	5
NMTAP	50	192	6
BRTAP	50	288	3
BRTAP	50	288	7
NMHLD	51	0	1	48
NMHLD	51	0	3	48
NMHLD	51	96	4	48
NMHLD	51	96	6	48
NMHLD	51	192	1	48
NMHLD	51	192	7	48
NMHLD	51	264	3	48
NMHLD	51	264	5	48
NMTAP	51	336	2
NMTAP	51	336	6
NMSTR	52	0	2
NMSI_	52	0	2	96	48	0
NMTAP	52	0	6
NMTAP	52	96	2
NMSTR	52	96	7
NMSLL	52	96	7	96	96	1
EXTAP	52	192	0
NMTAP	52	240	2
NMTAP	52	288	4
NMTAP	53	0	2
NMTAP	53	0	7
NMTAP	53	48	1
NMTAP	53	72	0
NMTAP	53	120	3
NMTAP	53	144	4
NMTAP	53	192	0
NMTAP	53	192	5
NMTAP	53	240	6
NMTAP	53	264	7
NMTAP	53	312	4
NMTAP	53	336	3
NMTAP	54	0	2
NMTAP	54	0	6
NMTAP	54	32	2
NMTAP	54	32	6
NMTAP	54	64	2
NMTAP	54	64	6
NMTAP	54	96	1
NMTAP	54	96	5
NMTAP	54	128	1
NMTAP	54	128	5
NMTAP	54	160	1
NMTAP	54	160	5
NMSTR	54	192	1
NMSI_	54	192	1	96	48	3
NMSTR	54	192	5
NMSI_	54	192	5	96	48	7
NMHLD	55	0	4	48
NMHLD	55	0	6	48
NMHLD	55	96	1	48
NMHLD	55	96	3	48
NMHLD	55	192	0	48
NMHLD	55	192	6	48
NMHLD	55	264	3	48
NMHLD	55	264	5	48
NMTAP	55	336	2
NMTAP	55	336	6
NMSTR	56	0	0
NMSCR	56	0	0	96	48	3
NMSTR	56	0	4
NMSCR	56	0	4	96	48	7
NMSTR	56	96	0
NMSI_	56	96	0	96	48	5
NMSTR	56	96	4
NMSI_	56	96	4	96	48	1
NMTAP	56	192	0
NMTAP	56	192	4
NMTAP	57	0	1
NMTAP	57	0	5
NMTAP	57	48	2
NMTAP	57	72	3
NMTAP	57	120	1
NMTAP	57	144	0
NMTAP	57	192	1
NMTAP	57	192	7
NMTAP	57	240	5
NMTAP	57	264	4
NMTAP	57	312	6
NMTAP	57	336	7
NMSTR	58	0	0
NMSI_	58	0	0	96	48	4
NMTAP	58	0	6
NMTAP	58	48	1
NMTAP	58	96	0
NMTAP	58	96	2
NMTAP	58	192	2
NMTAP	58	216	3
NMTAP	58	240	1
BRTAP	58	288	0
BRTAP	58	288	6
NMSTR	59	0	3
NMSCL	59	0	3	96	672	4
NMTAP	59	0	4
NMSTR	61	0	3
BRSCL	61	0	3	96	672	4
NMSTR	63	0	3
NMSCL	63	0	3	96	192	7
NMSTR	64	0	6
NMSCL	64	0	6	96	192	2
NMSTR	65	0	1
NMSXR	65	0	1	96	288	4
NMTTP	66	0	5	B	0	M1
NMTTP	66	48	5	E	0	M1
NMTTP	66	96	2	B	0	M1
NMTTP	66	144	3	E	0	M1
NMTTP	66	192	7	E	0	M1
NMTTP	66	240	1	E	0	M1
NMTTP	66	288	0	E	0	M1
NMSTR	67	0	2
NMSLL	67	0	2	96	192	6
NMTAP	67	0	4
NMTAP	67	96	4
NMTAP	67	192	4
NMTAP	67	288	4
NMTAP	68	0	5
NMSTR	68	0	7
BRSLR	68	0	7	96	192	3
NMTAP	68	96	5
NMTAP	68	192	5
NMTAP	68	288	5
NMSTR	69	0	3
NMSCL	69	0	3	96	192	5
NMTAP	69	0	4
NMTAP	69	96	4
NMTAP	69	192	4
NMTAP	69	288	4
NMTAP	70	0	3
NMSTR	70	0	4
BRSLR	70	0	4	96	120	0
NMTAP	70	96	3
NMTAP	70	192	3
CNSI_	70	216	0	0	72	2
NMTAP	70	288	3
NMTAP	71	0	3
NMTAP	71	0	7
NMTAP	71	48	7
NMTAP	71	96	3
NMTAP	71	96	6
NMTAP	71	144	6
NMTAP	71	192	3
NMTAP	71	192	5
NMTAP	71	240	5
NMTAP	71	288	3
NMTAP	71	288	4
NMTAP	71	336	4
NMTAP	72	0	3
NMTAP	72	0	4
NMTAP	72	48	3
NMTAP	72	96	2
NMTAP	72	96	4
NMTAP	72	144	2
NMTAP	72	192	1
NMTAP	72	192	4
NMTAP	72	240	1
NMTAP	72	288	0
NMTAP	72	288	4
NMTAP	72	336	0
NMTAP	73	0	0
NMTAP	73	24	7
NMTAP	73	48	1
NMTAP	73	72	6
NMTAP	73	96	2
NMTAP	73	120	5
NMTAP	73	144	3
NMTAP	73	168	4
NMTAP	73	192	3
NMTAP	73	216	4
NMTAP	73	240	2
NMTAP	73	264	5
NMTAP	73	288	1
NMTAP	73	312	6
NMTAP	73	336	0
NMTAP	73	360	7
NMSTR	74	0	0
NMSI_	74	0	0	96	48	2
NMTAP	74	24	0
NMSTR	74	48	0
NMSI_	74	48	0	96	48	6
NMTAP	74	72	0
NMSTR	74	96	0
BRSI_	74	96	0	96	48	4
BRSTR	74	288	2
NMSI_	74	288	2	96	48	7
BRSTR	74	288	6
NMSI_	74	288	6	96	48	3
NMTAP	75	0	2
NMTAP	75	0	6
NMTAP	75	96	0
NMTAP	75	96	4
NMTAP	75	144	2
NMTAP	75	168	3
NMTAP	75	192	1
NMTAP	75	240	5
NMTAP	75	264	4
NMTAP	75	288	6
NMTAP	75	312	3
NMTAP	75	336	7
NMSTR	76	0	2
NMSI_	76	0	2	96	48	4
NMSTR	76	0	6
NMSI_	76	0	6	96	48	0
NMSTR	76	96	2
NMSLL	76	96	2	96	96	4
NMTAP	76	96	6
NMTAP	76	192	2
NMTAP	76	192	5
NMTAP	76	288	5
NMTAP	76	336	6
NMTAP	77	0	3
NMTAP	77	0	7
NMTAP	77	48	5
NMTAP	77	72	4
NMTAP	77	96	6
NMTAP	77	144	2
NMTAP	77	168	3
NMTAP	77	192	1
NMTAP	77	216	4
NMTAP	77	240	0
NMTAP	77	288	1
NMTAP	77	288	5
NMTAP	77	336	2
NMTAP	77	336	6
NMSTR	78	0	3
NMSUL	78	0	3	96	48	7
NMSTR	78	0	7
NMSUL	78	0	7	96	48	3
NMSTR	78	96	3
NMSCR	78	96	3	96	48	6
NMSTR	78	96	7
NMSCR	78	96	7	96	48	2
EXTAP	78	192	3
EXTAP	78	192	7
BRTAP	78	288	1
BRTAP	78	288	5
NMSTR	79	0	3
NMSUL	79	0	3	96	48	7
NMTAP	79	0	5
NMTAP	79	48	2
NMTAP	79	96	3
NMSTR	79	96	6
NMSV_	79	96	6	96	48	3
NMTAP	79	144	5
NMSTR	79	192	2
NMSCL	79	192	2	96	48	7
NMTAP	79	192	6
NMTAP	79	240	1
NMTAP	79	288	2
NMTAP	79	288	4
NMTAP	79	336	4
NMTAP	80	0	5
NMTAP	80	48	6
NMTAP	80	48	7
NMTAP	80	96	1
NMTAP	80	96	4
NMSTR	80	144	2
NMSI_	80	144	2	96	48	7
NMTAP	80	168	3
NMTAP	80	216	4
NMTAP	80	240	2
NMTAP	80	288	6
NMTAP	80	336	0
NMSTR	80	336	5
NMSLR	80	336	5	96	144	4
NMSTR	81	0	0
NMSI_	81	0	0	96	96	3
NMTAP	81	0	5
NMTAP	81	288	3
NMTAP	81	288	4
NMTAP	82	0	3
NMTAP	82	0	4
NMTAP	82	48	1
NMTAP	82	72	3
NMTAP	82	120	6
NMTAP	82	144	4
NMTAP	82	192	0
NMTAP	82	216	7
NMTAP	82	240	0
BRTAP	82	288	2
BRTAP	82	288	5
NMTAP	83	0	2
NMTAP	83	0	4
NMTAP	83	48	6
NMTAP	83	48	7
NMSTR	83	96	0
NMSI_	83	96	0	96	48	4
NMTAP	83	96	5
NMSTR	83	144	3
NMSI_	83	144	3	96	48	6
NMTAP	83	192	0
NMTAP	83	240	3
NMSTR	83	288	1
NMSCL	83	288	1	96	48	7
NMTAP	83	336	7
NMSTR	84	0	1
NMSCR	84	0	1	96	48	3
NMSTR	84	0	5
NMSCR	84	0	5	96	48	7
NMSTR	84	96	1
NMSLL	84	96	1	96	96	3
NMTAP	84	96	5
NMTAP	84	192	1
NMTAP	84	192	5
NMTAP	84	288	6
NMTAP	84	336	5
NMTAP	85	0	4
NMTAP	85	48	0
NMTAP	85	48	1
NMTAP	85	96	2
NMSTR	85	96	7
NMSI_	85	96	7	96	48	3
NMSTR	85	144	4
NMSI_	85	144	4	96	48	1
NMTAP	85	192	7
NMTAP	85	240	4
NMSTR	85	288	6
NMSCR	85	288	6	96	48	0
NMTAP	85	336	0
NMSTR	86	0	2
NMSCL	86	0	2	96	48	0
NMSTR	86	0	6
NMSCL	86	0	6	96	48	4
NMTAP	86	96	2
NMSTR	86	96	6
BRSI_	86	96	6	96	48	1
BRTAP	86	192	3
BRSTR	86	192	6
NMSI_	86	192	6	96	48	3
BRTAP	86	288	0
BRTAP	86	288	6
NMTAP	87	0	2
EXTAP	87	0	3
NMTAP	87	48	7
NMTAP	87	96	4
NMTAP	87	96	5
NMTAP	87	144	0
NMTAP	87	192	2
NMTAP	87	192	3
NMTAP	87	240	7
NMTAP	87	288	4
NMTAP	87	288	6
NMTAP	87	336	2
NMTAP	88	0	1
NMSTR	88	0	3
NMSI_	88	0	3	96	48	7
NMTAP	88	48	4
NMSTR	88	96	0
NMSI_	88	96	0	96	48	5
NMTAP	88	96	3
NMTAP	88	144	1
NMTAP	88	192	0
NMSTR	88	192	3
NMSUR	88	192	3	96	48	7
NMTAP	88	240	4
NMTAP	88	288	2
NMTAP	88	288	3
NMTAP	88	336	1
NMHLD	89	0	0	48
EXSTR	89	0	6
NMSXR	89	0	6	96	192	0
NMHLD	89	96	1	48
NMHLD	89	192	2	48
NMHLD	89	288	3	48
NMTAP	90	0	3
NMTAP	90	0	4
NMTAP	90	48	2
NMTAP	90	72	3
NMTAP	90	120	5
NMTAP	90	144	4
NMTAP	90	192	2
NMTAP	90	216	3
NMTAP	90	264	0
NMTAP	90	264	7
NMTAP	90	288	1
NMTAP	90	288	6
NMTAP	91	0	2
NMTAP	91	0	5
NMTAP	91	48	3
NMTAP	91	72	4
NMTAP	91	96	3
NMTAP	91	120	4
NMTAP	91	144	3
NMTAP	91	168	4
NMTAP	91	192	3
NMTAP	91	216	4
NMTAP	91	240	5
NMTAP	91	264	6
BRTAP	91	288	3
BRTAP	91	288	7
NMTAP	92	0	1
NMTAP	92	0	5
NMTAP	92	48	6
NMTAP	92	72	7
NMTAP	92	96	5
NMTAP	92	120	0
NMTAP	92	144	4
NMTAP	92	168	1
NMHLD	92	192	3	48
NMTAP	92	240	2
NMTAP	92	264	3
NMTAP	92	312	5
NMTAP	92	336	4
NMTAP	93	0	1
NMTAP	93	24	0
NMTAP	93	48	1
NMTAP	93	72	0
NMTAP	93	96	2
NMTAP	93	120	7
NMTAP	93	144	2
NMTAP	93	168	7
NMTAP	93	192	2
NMTAP	93	216	3
NMTAP	93	240	4
NMTAP	93	264	5
NMTAP	93	288	6
NMTAP	93	312	7
NMTAP	93	336	0
NMTAP	93	360	1
NMTAP	94	0	2
NMTAP	94	0	6
NMTAP	94	48	2
NMTAP	94	48	6
NMSTR	94	96	1
NMSI_	94	96	1	96	48	3
NMSTR	94	96	5
NMSI_	94	96	5	96	48	7
NMTAP	94	192	1
NMTAP	94	192	5
NMTAP	94	288	2
NMTAP	94	288	6
NMTAP	95	0	1
NMTAP	95	0	5
NMTAP	95	48	0
NMTAP	95	72	4
NMTAP	95	96	1
NMTAP	95	120	5
NMTAP	95	144	2
NMTAP	95	168	6
NMTAP	95	192	3
NMTAP	95	216	2
NMTAP	95	240	1
NMTAP	95	264	0
NMHLD	95	288	6	48
NMHLD	95	288	7	48
NMTAP	96	0	1
NMTAP	96	0	5
NMTAP	96	48	6
NMTAP	96	72	7
NMTAP	96	96	5
NMTAP	96	120	7
NMTAP	96	144	4
NMTAP	96	168	7
NMTAP	96	192	3
NMTAP	96	216	2
NMTAP	96	240	1
NMTAP	96	264	0
NMTAP	96	288	7
NMTAP	96	312	6
NMTAP	96	336	1
NMTAP	96	336	5
NMTAP	97	0	0
NMTAP	97	0	4
NMTAP	97	24	1
NMTAP	97	48	2
NMTAP	97	72	3
NMTAP	97	96	4
NMTAP	97	120	5
NMTAP	97	144	6
NMTAP	97	168	7
NMTAP	97	192	0
NMTAP	97	216	1
NMTAP	97	240	7
NMTAP	97	264	6
NMTAP	97	288	1
NMTAP	97	312	2
NMTAP	97	336	6
NMTAP	97	360	5
NMSTR	98	0	3
NMSI_	98	0	3	96	48	1
NMSTR	98	0	4
NMSI_	98	0	4	96	48	6
NMSTR	98	96	3
NMSI_	98	96	3	96	48	7
NMSTR	98	96	4
NMSI_	98	96	4	96	48	0
NMTAP	98	192	3
NMTAP	98	192	4
BRTAP	98	288	2
BRTAP	98	288	5
NMHLD	99	0	1	288
NMTAP	99	0	3
NMTAP	99	96	3
NMTAP	99	192	4
NMTAP	99	288	4
NMTAP	99	336	5
NMTAP	99	360	5
NMTAP	100	0	4
NMHLD	100	0	6	288
NMTAP	100	96	4
NMTAP	100	192	3
NMTAP	100	288	2
NMTAP	101	0	1
NMTAP	101	0	4
NMTAP	101	48	6
NMTAP	101	72	7
NMTAP	101	96	6
NMTAP	101	144	1
NMTAP	101	168	0
NMTAP	101	192	2
NMTAP	101	216	7
NMTAP	101	240	3
NMTAP	101	264	6
NMTAP	101	288	4
NMTAP	101	312	5
NMTAP	101	336	4
NMTAP	102	0	3
NMTAP	102	0	6
NMTAP	102	48	2
NMTAP	102	72	3
NMTAP	102	96	2
NMTAP	102	144	5
NMTAP	102	144	7
NMTAP	102	192	0
NMTAP	102	216	4
NMTAP	102	240	0
NMTAP	102	264	4
NMSTR	102	288	1
NMSI_	102	288	1	96	48	4
NMSTR	102	288	5
NMSI_	102	288	5	96	48	0
NMTAP	103	0	1
NMTAP	103	0	5
CNSI_	103	48	0	0	48	5
CNSI_	103	48	4	0	48	1

T_REC_TAP	633
T_REC_BRK	24
T_REC_XTP	7
T_REC_BXX	0
T_REC_HLD	78
T_REC_XHO	0
T_REC_BHO	0
T_REC_BXH	0
T_REC_STR	89
T_REC_BST	3
T_REC_XST	1
T_REC_XBS	0
T_REC_TTP	32
T_REC_THO	0
T_REC_SLD	89
T_REC_BSL	5
T_REC_ALL	961
T_NUM_TAP	762
T_NUM_BRK	32
T_NUM_HLD	78
T_NUM_SLD	89
T_NUM_ALL	961
T_JUDGE_TAP	789
T_JUDGE_HLD	113
T_JUDGE_SLD	94
T_JUDGE_ALL	996
TTM_EACHPAIRS	214
TTM_SCR_TAP	381000
TTM_SCR_BRK	83200
TTM_SCR_HLD	78000
TTM_SCR_SLD	133500
TTM_SCR_ALL	675700
TTM_SCR_S	652350
TTM_SCR_SS	672500
TTM_RAT_ACV	10047

