VERSION	0.00.00	1.04.00
FES_MODE	0
BPM_DEF	207.000	207.000	207.000	207.000
MET_DEF	4	4
RESOLUTION	384
CLK_DEF	384
COMPATIBLE_CODE	MA2

BPM	0	0	207.000
MET	0	0	4	4
MET	69	0	4	7
MET	72	192	4	4
MET	76	192	4	7
MET	78	96	4	4
MET	84	96	4	2
MET	84	288	4	4

BRTAP	1	0	2
BRTAP	1	0	5
NMTAP	1	96	4
NMTAP	1	120	3
NMTAP	1	144	4
NMTAP	1	168	3
NMTAP	1	192	4
NMTAP	1	264	3
NMTAP	1	264	5
NMHLD	1	336	2	96
NMTAP	1	336	4
NMTAP	2	48	3
NMTAP	2	96	3
NMSTR	2	192	0
NMSV_	2	192	0	96	48	3
NMSTR	2	192	6
NMSV_	2	192	6	96	48	3
NMSTR	3	0	2
NMSI_	3	0	2	96	48	0
NMTAP	3	0	4
NMTAP	3	96	5
NMTAP	3	144	6
NMSTR	3	192	7
NMSI_	3	192	7	96	48	5
NMTAP	3	288	3
NMTAP	3	336	2
NMSTR	4	0	1
NMSI_	4	0	1	96	48	5
NMTAP	4	96	4
NMTAP	4	192	4
NMTAP	4	192	6
NMTAP	4	240	7
NMTAP	4	288	0
NMTAP	4	336	1
NMTAP	5	0	2
NMSTR	5	0	3
NMSI_	5	0	3	96	48	7
NMTAP	5	96	0
NMTAP	5	192	0
NMTAP	5	192	6
NMTAP	5	240	5
NMTAP	5	288	4
NMTAP	5	336	3
NMSTR	6	0	1
NMSI_	6	0	1	96	48	5
NMTAP	6	0	2
NMTAP	6	96	7
NMTAP	6	192	4
NMSTR	6	192	6
NMSI_	6	192	6	96	48	2
NMTAP	6	288	0
NMSTR	7	0	1
NMSI_	7	0	1	96	48	7
NMTAP	7	0	3
NMTAP	7	96	4
NMTAP	7	144	5
NMSTR	7	192	6
NMSI_	7	192	6	96	48	4
NMTAP	7	288	2
NMTAP	7	336	1
NMSTR	8	0	0
NMSI_	8	0	0	96	48	2
NMTAP	8	96	4
NMTAP	8	144	5
NMTAP	8	192	6
NMTAP	8	240	7
NMTAP	8	288	0
NMSTR	8	288	1
NMSI_	8	288	1	96	48	5
NMSTR	9	0	6
NMSI_	9	0	6	96	48	3
NMTAP	9	96	4
NMTAP	9	192	2
NMTAP	9	240	3
NMTAP	9	288	2
NMTAP	9	336	1
NMTAP	9	336	4
NMTAP	10	48	3
NMTAP	10	48	6
NMTAP	10	96	3
NMTAP	10	96	6
NMTAP	10	192	5
NMTAP	10	216	4
NMTAP	10	240	5
NMTAP	10	264	4
NMTAP	10	288	5
NMTAP	11	0	3
NMSTR	11	0	4
NMSI_	11	0	4	96	48	6
NMTAP	11	96	2
NMTAP	11	144	1
NMSTR	11	192	0
NMSI_	11	192	0	96	48	2
NMTAP	11	288	4
NMTAP	11	336	5
NMSTR	12	0	6
NMSI_	12	0	6	96	48	2
NMSTR	12	96	3
NMSI_	12	96	3	96	48	5
NMTAP	12	192	1
NMTAP	12	240	0
NMTAP	12	288	7
NMTAP	12	336	6
NMSTR	13	0	4
NMSI_	13	0	4	96	48	0
NMTAP	13	0	5
NMSTR	13	96	7
NMSI_	13	96	7	96	48	5
NMTAP	13	192	1
NMTAP	13	240	2
NMTAP	13	288	3
NMTAP	13	336	4
NMTAP	14	0	5
NMSTR	14	0	6
NMSI_	14	0	6	96	48	2
NMTAP	14	96	0
NMSTR	14	192	1
NMSI_	14	192	1	96	48	5
NMTAP	14	192	3
NMTAP	14	288	7
NMTAP	15	0	4
NMSTR	15	0	6
NMSI_	15	0	6	96	48	0
NMTAP	15	96	3
NMTAP	15	144	2
NMSTR	15	192	1
NMSI_	15	192	1	96	48	3
NMTAP	15	288	5
NMTAP	15	336	6
NMSTR	16	0	1
NMSI_	16	0	1	96	48	5
NMSTR	16	0	7
NMSI_	16	0	7	96	48	3
BRTAP	16	96	1
BRTAP	16	96	7
NMHLD	17	0	3	768
NMTAP	17	0	6
NMTAP	17	96	5
NMTAP	17	144	5
NMTAP	17	192	5
NMTAP	17	288	4
NMTAP	17	336	4
NMTAP	18	0	4
NMTAP	18	96	2
NMTAP	18	144	2
NMTAP	18	192	2
NMTAP	18	288	4
NMHLD	19	0	5	768
NMTAP	19	96	4
NMTAP	19	144	4
NMTAP	19	192	4
NMTAP	19	288	6
NMTAP	20	0	7
NMTAP	20	96	0
NMTAP	20	192	1
NMTAP	20	288	2
NMHLD	21	0	3	768
NMTAP	21	96	5
NMTAP	21	144	5
NMTAP	21	192	5
NMTAP	21	288	4
NMTAP	21	336	4
NMTAP	22	0	4
NMTAP	22	96	2
NMTAP	22	192	1
NMTAP	22	288	0
NMHLD	23	0	7	288
NMTAP	23	96	2
NMTAP	23	192	1
NMTAP	23	288	0
NMTAP	24	0	6
NMTAP	24	0	7
NMTAP	24	48	6
NMTAP	24	48	7
NMTAP	24	96	5
NMTAP	24	144	3
NMTAP	24	144	4
NMTAP	24	192	3
NMTAP	24	192	4
NMTAP	24	240	2
NMTAP	24	288	0
NMTAP	24	288	1
NMSTR	25	0	2
NMSCR	25	0	2	96	96	5
NMSTR	25	96	5
NMSCL	25	96	5	96	96	2
NMTAP	25	192	6
NMTAP	25	288	7
NMTAP	25	336	7
NMSTR	26	0	1
NMSCL	26	0	1	96	96	6
NMSTR	26	96	6
NMSCR	26	96	6	96	96	1
NMTAP	26	192	5
NMTAP	26	288	4
NMTAP	26	336	4
NMHLD	27	0	2	96
NMTAP	27	0	3
NMHLD	27	96	0	96
NMTAP	27	192	1
NMHLD	27	288	4	96
NMTAP	27	288	5
NMSTR	28	0	6
NMSCR	28	0	6	96	96	1
NMSTR	28	96	1
BRSCL	28	96	1	96	96	6
NMTAP	28	192	2
NMTAP	28	288	3
NMTAP	29	0	4
NMTAP	29	0	5
NMTAP	29	96	2
NMTAP	29	144	3
NMTAP	29	192	1
NMTAP	29	192	4
NMTAP	29	288	5
NMTAP	29	336	4
NMTAP	30	0	3
NMTAP	30	0	6
NMTAP	30	96	2
NMTAP	30	96	3
NMTAP	30	192	4
NMTAP	30	192	6
NMTAP	30	288	0
NMTAP	30	288	7
NMTAP	31	0	2
NMSTR	31	0	3
NMSI_	31	0	3	96	48	0
NMSTR	31	96	2
NMSI_	31	96	2	96	48	7
NMTAP	31	192	6
NMTAP	31	288	6
NMSTR	31	336	6
NMSI_	31	336	6	96	48	3
NMSTR	32	48	7
NMSI_	32	48	7	96	48	4
NMTAP	32	144	5
NMTAP	32	240	3
NMTAP	32	240	5
NMTAP	32	288	3
NMTAP	32	288	5
BRTAP	33	0	2
BRTAP	33	0	6
NMTTP	33	96	1	B	0	M1
NMTTP	33	96	1	E	0	M1
NMTTP	33	144	6	E	0	M1
NMTTP	33	168	5	B	0	M1
NMTTP	33	192	4	B	0	M1
NMTTP	33	240	2	E	0	M1
NMTTP	33	264	2	B	0	M1
NMTTP	33	288	3	B	0	M1
NMTTP	33	336	6	B	0	M1
NMTTP	33	336	7	E	0	M1
NMTHO	34	0	0	144	C	0	M1
NMTAP	34	240	0
NMTAP	34	240	7
NMTAP	34	288	0
NMTAP	34	288	7
NMTAP	35	0	2
NMTAP	35	0	4
NMTAP	35	96	2
NMTAP	35	96	4
NMTAP	35	192	2
NMTAP	35	192	3
NMTAP	35	288	2
NMTAP	35	288	3
NMTAP	36	0	3
NMTAP	36	0	5
NMTAP	36	96	3
NMTAP	36	96	5
NMTAP	36	192	4
NMTAP	36	192	5
NMTAP	36	288	4
NMTAP	36	288	5
NMTAP	36	336	2
NMTAP	36	360	3
NMTAP	37	0	2
NMTAP	37	48	1
NMTAP	37	48	4
NMTAP	37	96	1
NMTAP	37	96	4
NMTAP	37	144	2
NMTAP	37	168	3
NMTAP	37	192	2
NMTAP	37	264	4
NMTAP	37	264	6
NMTAP	37	336	3
NMTAP	37	336	5
NMTAP	38	0	2
NMTAP	38	24	3
NMTAP	38	48	2
NMTAP	38	120	1
NMTAP	38	120	4
NMTAP	38	192	3
NMTAP	38	192	6
NMSTR	38	288	1
NMSI_	38	288	1	96	48	4
NMSTR	38	288	5
NMSI_	38	288	5	96	48	0
BRTAP	39	0	1
BRTAP	39	0	5
NMSTR	39	96	3
NMSCL	39	96	3	96	48	0
NMSTR	39	96	7
NMSCL	39	96	7	96	48	4
NMSTR	39	192	3
NMSI_	39	192	3	96	48	7
NMTAP	39	192	7
NMSTR	39	288	1
NMSLR	39	288	1	96	48	5
NMTAP	39	288	3
NMTAP	40	0	1
NMSTR	40	0	6
NMSI_	40	0	6	96	48	2
NMTAP	40	96	0
NMTAP	40	96	6
NMTAP	40	192	1
NMTAP	40	192	3
NMTAP	40	264	4
NMTAP	40	288	3
NMTAP	40	336	4
NMTAP	40	336	5
NMTAP	41	0	4
NMSTR	41	0	5
NMSI_	41	0	5	96	48	1
NMTAP	41	96	4
NMTAP	41	144	3
NMTAP	41	192	0
NMTAP	41	192	2
NMTAP	41	264	7
NMTAP	41	288	0
NMTAP	41	336	6
NMTAP	41	336	7
NMTAP	42	0	6
NMSTR	42	0	7
NMSCR	42	0	7	96	48	2
NMSTR	42	96	7
NMSCL	42	96	7	96	48	4
NMSTR	42	192	7
NMSI_	42	192	7	96	48	3
NMSTR	42	288	7
NMSF_	42	288	7	96	48	3
NMTAP	43	0	7
NMTAP	43	96	1
NMTAP	43	96	5
NMTAP	43	192	3
NMSTR	43	192	7
NMSCL	43	192	7	96	48	4
NMTAP	43	288	2
NMSTR	44	0	1
NMSCR	44	0	1	96	48	4
NMTAP	44	96	5
NMSTR	44	192	6
NMSI_	44	192	6	96	48	2
NMTAP	44	288	2
NMTAP	45	0	1
NMTAP	45	0	3
NMTAP	45	48	1
NMSTR	45	48	3
NMSCL	45	48	3	96	144	4
NMSUR	45	48	3	96	144	4
NMTAP	45	144	3
NMTAP	46	0	4
NMTAP	46	0	6
NMSTR	46	48	4
NMSCR	46	48	4	96	144	3
NMSUL	46	48	4	96	144	3
NMTAP	46	48	6
NMTAP	46	144	4
NMTAP	47	0	1
NMSTR	47	0	3
NMSCR	47	0	3	96	96	7
NMSTR	47	96	7
NMSCR	47	96	7	96	96	3
NMSTR	47	192	3
NMSUR	47	192	3	96	96	7
NMSTR	47	288	7
NMSUR	47	288	7	96	96	3
NMSTR	48	0	1
NMSI_	48	0	1	96	48	5
NMTAP	48	96	1
NMTAP	48	192	4
NMTAP	48	192	6
NMTAP	48	264	3
NMTAP	48	288	4
NMTAP	48	336	2
NMTAP	48	336	3
NMSTR	49	0	2
NMSI_	49	0	2	96	48	6
NMTAP	49	0	3
NMTAP	49	96	3
NMTAP	49	144	4
NMTAP	49	192	5
NMTAP	49	192	7
NMTAP	49	264	0
NMTAP	49	288	7
NMTAP	49	336	0
NMTAP	49	336	1
NMSTR	50	0	0
NMSI_	50	0	0	96	48	4
NMTAP	50	0	1
NMSTR	50	96	1
NMSI_	50	96	1	96	48	5
NMSTR	50	192	3
NMSCR	50	192	3	96	48	6
NMSTR	50	288	7
NMSI_	50	288	7	96	48	2
NMSI_	50	288	7	96	48	4
BRTAP	51	0	7
NMSTR	51	192	1
NMSCR	51	192	1	96	48	4
NMTAP	51	288	1
NMTAP	51	288	6
NMSTR	52	0	7
NMSCL	52	0	7	96	48	4
NMTAP	52	96	4
NMTAP	52	96	7
NMSTR	52	192	3
NMSCL	52	192	3	96	48	0
NMTAP	52	288	3
NMTAP	52	288	5
NMSTR	53	0	6
NMSI_	53	0	6	96	48	3
NMTAP	53	0	7
NMTAP	53	96	6
NMSTR	53	96	7
NMSI_	53	96	7	96	48	2
NMTAP	53	192	4
NMTAP	53	192	7
NMSTR	53	288	4
NMSI_	53	288	4	96	48	0
NMSTR	53	288	6
NMSI_	53	288	6	96	48	2
NMTAP	54	0	4
NMTAP	54	0	6
NMTAP	54	96	1
NMTAP	54	96	3
NMSTR	54	192	1
NMSI_	54	192	1	96	48	5
NMSTR	54	192	7
NMSI_	54	192	7	96	48	3
NMTAP	54	288	1
NMSTR	54	288	7
NMSCL	54	288	7	96	192	0
NMTTP	55	0	0	C	1	M1
BRTAP	55	0	7
NMTAP	55	288	1
NMTAP	55	288	7
NMTAP	56	0	2
NMSTR	56	0	6
NMSI_	56	0	6	96	48	2
NMSTR	56	96	3
NMSI_	56	96	3	96	48	5
NMTAP	56	192	1
NMTAP	56	240	0
NMTAP	56	288	7
NMTAP	56	336	6
NMSTR	57	0	4
NMSI_	57	0	4	96	48	0
NMTAP	57	0	5
NMSTR	57	96	7
NMSI_	57	96	7	96	48	5
NMTAP	57	192	1
NMTAP	57	240	2
NMTAP	57	288	3
NMTAP	57	336	4
NMTAP	58	0	5
NMSTR	58	0	6
NMSI_	58	0	6	96	48	2
NMTAP	58	96	0
NMSTR	58	192	1
NMSI_	58	192	1	96	48	5
NMTAP	58	192	3
NMTAP	58	288	7
NMTAP	59	0	4
NMSTR	59	0	6
NMSI_	59	0	6	96	48	0
NMTAP	59	96	3
NMTAP	59	144	2
NMSTR	59	192	1
NMSI_	59	192	1	96	48	3
NMTAP	59	288	5
NMTAP	59	336	6
NMSTR	60	0	7
NMSI_	60	0	7	96	48	5
NMTAP	60	96	3
NMTAP	60	144	2
NMTAP	60	192	1
NMTAP	60	240	0
NMSTR	60	288	6
NMSI_	60	288	6	96	48	2
NMTAP	60	288	7
NMSTR	61	0	1
NMSI_	61	0	1	96	48	4
NMTAP	61	96	3
NMTAP	61	192	5
NMTAP	61	240	4
NMTAP	61	288	5
NMTAP	61	336	3
NMTAP	61	336	6
NMTAP	62	48	1
NMTAP	62	48	4
NMTAP	62	96	1
NMTAP	62	96	4
NMTAP	62	192	2
NMTAP	62	216	3
NMTAP	62	240	2
NMTAP	62	264	3
NMTAP	62	288	2
NMTAP	62	312	3
NMTAP	62	336	2
NMTAP	62	360	3
NMHLD	63	0	1	96
NMTAP	63	96	4
NMTAP	63	144	6
NMTAP	63	168	7
NMHLD	63	192	6	96
NMTAP	63	288	2
NMHLD	63	336	2	96
NMTAP	64	48	4
NMTAP	64	72	3
NMTAP	64	96	4
NMTAP	64	144	2
NMTAP	64	144	5
NMTAP	64	192	1
NMTAP	64	224	3
NMTAP	64	256	2
NMTAP	64	288	6
NMTAP	64	320	4
NMTAP	64	352	5
NMTAP	65	0	3
NMTAP	65	0	4
NMTAP	65	48	3
NMTAP	65	48	4
NMTAP	65	96	2
NMTAP	65	120	3
NMTAP	65	168	5
NMTAP	65	192	4
NMTAP	65	240	3
NMTAP	65	240	6
NMTAP	65	288	5
NMTAP	65	312	4
NMTAP	65	336	5
NMTAP	66	0	3
NMTAP	66	0	4
NMTAP	66	24	2
NMTAP	66	48	1
NMTAP	66	72	0
NMTAP	66	96	4
NMTAP	66	120	5
NMTAP	66	144	6
NMTAP	66	168	7
NMTAP	66	192	0
NMTAP	66	192	2
NMTAP	66	288	1
NMTAP	66	288	5
NMTAP	67	0	2
NMTAP	67	32	3
NMTAP	67	64	1
NMTAP	67	96	5
NMTAP	67	128	4
NMTAP	67	160	6
NMTAP	67	192	2
NMTAP	67	224	3
NMTAP	67	256	1
NMTAP	67	288	5
NMTAP	67	320	4
NMTAP	67	352	6
NMSTR	68	0	3
NMSI_	68	0	3	96	48	0
NMTAP	68	96	3
NMSTR	68	96	7
NMSI_	68	96	7	96	48	4
NMSTR	68	192	1
NMSI_	68	192	1	96	48	6
NMTAP	68	192	7
NMTAP	68	288	1
NMSTR	68	288	5
NMSI_	68	288	5	96	48	2
NMHLD	69	0	0	288
BRTAP	69	0	5
NMHLD	69	336	1	96
NMHLD	69	336	3	96
NMTAP	70	96	1
NMTAP	70	96	3
NMSTR	70	192	0
NMSI_	70	192	0	96	48	4
NMTAP	70	192	5
BRTAP	70	288	0
NMHLD	70	288	7	288
NMHLD	71	240	4	96
NMHLD	71	240	6	96
NMTAP	72	0	4
NMSTR	72	0	7
NMSI_	72	0	7	96	48	3
NMTAP	72	96	2
NMTAP	72	96	7
NMSTR	72	192	0
NMSI_	72	192	0	96	48	5
NMSTR	72	288	3
NMSI_	72	288	3	96	48	6
NMSTR	73	0	4
NMSI_	73	0	4	96	48	1
NMSTR	73	96	7
NMSI_	73	96	7	96	48	2
NMSTR	73	192	0
NMSI_	73	192	0	96	48	5
NMSTR	73	288	3
NMSI_	73	288	3	96	48	6
NMSTR	74	0	4
NMSI_	74	0	4	96	48	1
NMTAP	74	96	6
NMHLD	74	192	0	96
NMHLD	74	192	7	96
NMTAP	74	336	1
NMTAP	74	336	3
NMHLD	75	0	1	96
NMHLD	75	0	3	96
NMTAP	75	144	5
NMTAP	75	144	7
NMHLD	75	192	5	96
NMHLD	75	192	7	96
NMTAP	75	336	3
NMHLD	75	336	4	144
NMTAP	76	48	3
NMTAP	76	96	3
NMTAP	76	192	2
NMSTR	76	192	7
NMSLL	76	192	7	96	96	3
NMTAP	76	288	1
NMSTR	77	0	0
NMSLL	77	0	0	96	96	4
NMTAP	77	96	2
NMSTR	77	192	1
NMSLL	77	192	1	96	96	5
NMTAP	77	288	3
NMTAP	78	0	2
NMSTR	78	96	0
NMSLR	78	96	0	96	96	4
NMTAP	78	96	5
NMTAP	78	192	6
NMSTR	78	288	7
NMSLR	78	288	7	96	96	3
NMTAP	79	0	5
NMSTR	79	96	6
NMSLR	79	96	6	96	96	2
NMTAP	79	192	4
NMTAP	79	288	5
NMTAP	80	0	3
NMTAP	80	0	6
NMHLD	80	96	2	48
NMTAP	80	96	4
NMHLD	80	192	2	48
NMTAP	80	192	4
NMHLD	80	288	2	48
NMTAP	80	288	3
NMHLD	81	0	2	48
NMTAP	81	0	3
NMTAP	81	96	3
NMHLD	81	96	5	48
NMTAP	81	192	3
NMHLD	81	192	5	48
NMTAP	81	288	4
NMHLD	81	288	5	48
NMTAP	82	0	4
NMTAP	82	0	5
NMTAP	82	48	6
NMTAP	82	72	7
NMTAP	82	96	6
NMTAP	82	144	2
NMTAP	82	144	4
NMTAP	82	192	2
NMTAP	82	192	4
NMTAP	82	240	1
NMTAP	82	264	0
NMTAP	82	288	1
NMTAP	82	360	4
NMTAP	82	360	6
NMTAP	83	48	0
NMTAP	83	48	2
NMTAP	83	96	5
NMTAP	83	120	4
NMTAP	83	144	5
NMTAP	83	216	0
NMTAP	83	216	6
NMTAP	83	288	1
NMTAP	83	288	3
NMTAP	83	360	2
NMTAP	83	360	5
BRTAP	84	48	0
BRTAP	84	48	7
NMHLD	84	288	2	384
NMHLD	84	288	5	384
NMSTR	86	0	3
NMSI_	86	0	3	96	48	7
NMSTR	86	0	4
NMSI_	86	0	4	96	48	0
BRTAP	86	96	3
BRTAP	86	96	4
NMTAP	86	288	0
NMSTR	86	288	1
NMSI_	86	288	1	96	48	5
NMTAP	87	0	0
NMTAP	87	48	7
NMTAP	87	96	4
NMTAP	87	96	6
NMTAP	87	168	3
NMTAP	87	192	4
NMTAP	87	240	2
NMTAP	87	240	3
NMTAP	87	288	2
NMSTR	87	288	3
NMSCR	87	288	3	96	48	6
NMSTR	88	0	3
NMSCL	88	0	3	96	48	0
NMSTR	88	96	3
NMSI_	88	96	3	96	48	7
NMSTR	88	192	3
NMSF_	88	192	3	96	48	7
NMTAP	88	288	3
NMTAP	89	0	1
NMTAP	89	0	5
NMTAP	89	96	2
NMSTR	89	96	6
NMSCL	89	96	6	96	48	3
NMTAP	89	192	1
NMSTR	89	288	1
NMSCR	89	288	1	96	48	4
NMTAP	90	0	5
NMSTR	90	96	6
NMSI_	90	96	6	96	48	2
NMTAP	90	192	2
NMTAP	90	288	1
NMTAP	90	288	3
NMTAP	90	336	1
NMSTR	90	336	3
NMSCL	90	336	3	96	144	4
NMSUR	90	336	3	96	144	4
NMTAP	91	48	3
NMTAP	91	288	3
NMTAP	91	288	6
NMTAP	91	336	5
NMTAP	91	360	4
NMTAP	92	0	5
NMTAP	92	48	1
NMTAP	92	48	4
NMTAP	92	96	2
NMTAP	92	120	3
NMTAP	92	144	2
NMSTR	92	192	1
NMSI_	92	192	1	96	48	5
NMTAP	92	192	4
NMTAP	92	288	1
NMSTR	92	288	4
NMSCL	92	288	4	96	96	0
NMSTR	93	0	0
NMSCL	93	0	0	96	96	4
NMSTR	93	96	4
NMSUL	93	96	4	96	96	0
NMSTR	93	192	0
NMSUL	93	192	0	96	96	4
NMSTR	93	288	2
NMSI_	93	288	2	96	48	6
NMTAP	94	0	2
NMTAP	94	96	5
NMTAP	94	96	7
NMTAP	94	168	0
NMTAP	94	192	7
NMTAP	94	240	0
NMTAP	94	240	1
NMTAP	94	288	0
NMSTR	94	288	1
NMSI_	94	288	1	96	48	5
NMTAP	95	0	0
NMTAP	95	48	7
NMTAP	95	96	4
NMTAP	95	96	6
NMTAP	95	168	3
NMTAP	95	192	4
NMTAP	95	240	2
NMTAP	95	240	3
NMSTR	95	288	1
NMSLL	95	288	1	96	96	5
NMTAP	95	288	4
NMSTR	96	0	5
NMSLL	96	0	5	96	96	1
NMSTR	96	96	1
NMSI_	96	96	1	96	48	5
NMSTR	96	192	7
NMSF_	96	192	7	96	48	3
BRTAP	96	288	7
NMTAP	97	0	1
NMTAP	97	0	5
NMSTR	97	96	1
NMSCR	97	96	1	96	48	4
NMTAP	97	192	1
NMTAP	97	192	6
NMSTR	97	288	7
NMSCL	97	288	7	96	48	4
NMTAP	98	0	3
NMTAP	98	0	7
NMSTR	98	96	1
NMSCL	98	96	1	96	48	6
NMTAP	98	192	1
NMTAP	98	192	4
NMSTR	98	288	5
NMSI_	98	288	5	96	48	0
NMSTR	99	0	3
NMSI_	99	0	3	96	48	6
NMTAP	99	0	5
NMTAP	99	96	3
NMSTR	99	96	7
NMSI_	99	96	7	96	48	2
NMSTR	99	192	1
NMSCL	99	192	1	96	96	4
NMTAP	99	192	7
NMTAP	99	288	1
NMHLD	99	288	5	96
NMTAP	100	96	0
NMTAP	100	120	7
NMTAP	100	144	0
NMTAP	100	168	7
NMTAP	100	192	0
NMTAP	100	216	7
NMTAP	100	240	0
NMTAP	100	264	7
BRSTR	100	288	1
NMSI_	100	288	1	96	48	3
BRSTR	100	288	6
NMSI_	100	288	6	96	48	3
NMSTR	101	0	1
NMSCL	101	0	1	96	48	6
NMTAP	101	0	6
NMTAP	101	96	1
NMSTR	101	96	5
NMSV_	101	96	5	96	48	0
NMSTR	101	192	1
NMSLR	101	192	1	96	48	5
NMTAP	101	192	5
NMTAP	101	288	1
NMSTR	101	288	6
NMSI_	101	288	6	96	48	2
NMTAP	102	0	0
NMTAP	102	0	6
NMTAP	102	96	1
NMSTR	102	96	3
NMSI_	102	96	3	96	48	7
NMTAP	102	168	4
NMTAP	102	192	3
NMTAP	102	240	5
NMSTR	102	288	5
NMSI_	102	288	5	96	48	1
NMTAP	103	0	6
NMTAP	103	48	7
NMTAP	103	96	0
NMSTR	103	96	2
NMSI_	103	96	2	96	48	6
NMTAP	103	168	3
NMTAP	103	192	2
NMTAP	103	240	4
NMSTR	103	288	5
NMSI_	103	288	5	96	48	1
NMSTR	103	288	7
NMSI_	103	288	7	96	48	3
NMTAP	104	0	5
NMTAP	104	0	7
NMSTR	104	96	0
NMSI_	104	96	0	96	48	4
NMSTR	104	96	2
NMSI_	104	96	2	96	48	6
NMTAP	104	192	0
NMTAP	104	192	2
NMTAP	104	288	5
NMTAP	104	288	7
NMTAP	105	0	0
NMTAP	105	0	1
NMTAP	105	96	2
NMSTR	105	96	4
NMSCR	105	96	4	96	48	7
NMTAP	105	192	2
NMTAP	105	192	4
NMSTR	105	288	1
NMSCR	105	288	1	96	48	4
NMTAP	105	288	6
NMTAP	106	0	1
NMTAP	106	0	6
NMTAP	106	96	5
NMSTR	106	96	7
NMSCL	106	96	7	96	48	4
NMTAP	106	192	5
NMTAP	106	192	7
NMTAP	106	288	1
NMTAP	106	288	3
NMTAP	106	336	6
NMTAP	106	360	7
NMTAP	107	0	6
NMTAP	107	48	3
NMTAP	107	48	5
NMTAP	107	96	1
NMTAP	107	120	0
NMTAP	107	144	1
NMTAP	107	192	2
NMTAP	107	192	4
NMTAP	107	240	6
NMTAP	107	240	7
NMTAP	107	288	1
NMTAP	107	288	5
NMHLD	107	336	1	96
NMHLD	107	336	5	96
NMTAP	108	96	0
NMTAP	108	96	7
NMTAP	108	108	1
NMTAP	108	120	2
NMTAP	108	132	3
NMTAP	108	144	4
NMTAP	108	156	5
NMTAP	108	168	6
NMTAP	108	180	7
NMSTR	108	192	0
NMSI_	108	192	0	96	48	3
NMSTR	108	192	4
NMSV_	108	192	4	96	48	7
BRTAP	108	288	0
BRTAP	108	288	4
NMSTR	109	0	2
NMSCL	109	0	2	96	48	7
NMSTR	109	0	6
NMSCL	109	0	6	96	48	3
NMSTR	109	96	2
NMSI_	109	96	2	96	48	6
NMTAP	109	96	6
NMSTR	109	192	0
NMSLR	109	192	0	96	48	4
NMTAP	109	192	2
NMTAP	109	288	0
NMSTR	109	288	5
NMSI_	109	288	5	96	48	1
NMTAP	110	0	5
NMTAP	110	0	7
NMTAP	110	96	0
NMTAP	110	96	2
NMTAP	110	168	7
NMTAP	110	192	0
NMTAP	110	240	6
NMTAP	110	240	7
NMSTR	110	288	6
NMSI_	110	288	6	96	48	2
NMTAP	110	288	7
NMTAP	111	0	7
NMTAP	111	48	0
NMTAP	111	96	1
NMTAP	111	96	3
NMTAP	111	168	4
NMTAP	111	192	3
NMTAP	111	240	4
NMTAP	111	240	5
NMTAP	111	288	4
NMSTR	111	288	5
NMSI_	111	288	5	96	48	1
NMTAP	112	0	5
NMSTR	112	0	6
NMSI_	112	0	6	96	48	2
NMTAP	112	96	6
NMSTR	112	96	7
NMSI_	112	96	7	96	48	3
NMSTR	112	192	0
NMSF_	112	192	0	96	48	4
NMTAP	112	192	7
BRTAP	112	288	0
NMTAP	113	96	3
NMSTR	113	96	7
NMSCL	113	96	7	96	48	4
NMTAP	113	192	3
NMTAP	113	192	7
NMSTR	113	288	3
NMSCL	113	288	3	96	48	0
NMTAP	113	288	5
NMTAP	114	0	3
NMTAP	114	0	5
NMTAP	114	96	1
NMSTR	114	96	4
NMSCR	114	96	4	96	48	7
NMSTR	114	192	0
NMSI_	114	192	0	96	48	5
NMTAP	114	192	4
NMTAP	114	288	0
NMSTR	114	288	6
NMSI_	114	288	6	96	48	3
NMSTR	115	0	4
NMSI_	115	0	4	96	48	1
NMTAP	115	0	6
NMSTR	115	96	2
NMSI_	115	96	2	96	48	7
NMTAP	115	96	4
NMSTR	115	192	0
NMSI_	115	192	0	96	48	4
NMTAP	115	192	2
BRTAP	115	288	0
NMHLD	115	288	6	288
NMTAP	116	192	0
BRTAP	116	288	0
NMTAP	116	300	1
NMTAP	116	312	2
NMTAP	116	324	3
NMTAP	116	336	4
NMTAP	116	348	5
NMTAP	116	360	6
NMTAP	116	372	7
NMTAP	117	0	0
NMTAP	117	12	1
NMTAP	117	24	2
NMTAP	117	36	3
NMTAP	117	48	4
NMTAP	117	60	5
NMTAP	117	72	6
NMTAP	117	84	7
NMTAP	117	96	0
NMTAP	117	108	1
NMTAP	117	120	2
NMTAP	117	132	3
NMTAP	117	144	4
NMTAP	117	156	5
NMTAP	117	168	6
NMTAP	117	180	7
NMTAP	117	192	0
NMTAP	117	204	1
NMTAP	117	216	2
NMTAP	117	228	3
NMTAP	117	240	4
NMTAP	117	252	5
NMTAP	117	264	6
NMTAP	117	276	7
NMTAP	117	288	0
NMTAP	117	300	1
NMTAP	117	312	2
NMTAP	117	324	3
NMTAP	117	336	4
NMTAP	117	348	5
NMTAP	117	360	6
NMTAP	117	372	7
NMTAP	118	0	0
NMTAP	118	12	1
NMTAP	118	24	2
NMTAP	118	36	3
NMTAP	118	48	4
NMTAP	118	60	5
NMTAP	118	72	6
NMTAP	118	84	7
NMTAP	118	96	0
NMTAP	118	108	1
NMTAP	118	120	2
NMTAP	118	132	3
NMTAP	118	144	4
NMTAP	118	156	5
NMTAP	118	168	6
NMTAP	118	180	7
NMTAP	118	192	0
NMHLD	118	288	5	96
NMTAP	119	0	2
NMTAP	119	48	1
NMSTR	119	96	0
NMSI_	119	96	0	96	48	4
NMSTR	119	96	7
NMSI_	119	96	7	96	48	3
NMTAP	119	192	0
NMTAP	119	192	7
BRTAP	119	288	2
BRTAP	119	288	5

T_REC_TAP	651
T_REC_BRK	24
T_REC_XTP	0
T_REC_BXX	0
T_REC_HLD	38
T_REC_XHO	0
T_REC_BHO	0
T_REC_BXH	0
T_REC_STR	167
T_REC_BST	2
T_REC_XST	0
T_REC_XBS	0
T_REC_TTP	11
T_REC_THO	1
T_REC_SLD	172
T_REC_BSL	1
T_REC_ALL	1067
T_NUM_TAP	829
T_NUM_BRK	27
T_NUM_HLD	39
T_NUM_SLD	172
T_NUM_ALL	1067
T_JUDGE_TAP	855
T_JUDGE_HLD	143
T_JUDGE_SLD	173
T_JUDGE_ALL	1171
TTM_EACHPAIRS	232
TTM_SCR_TAP	414500
TTM_SCR_BRK	70200
TTM_SCR_HLD	39000
TTM_SCR_SLD	258000
TTM_SCR_ALL	781700
TTM_SCR_S	755650
TTM_SCR_SS	779000
TTM_RAT_ACV	10034

