VERSION	0.00.00	1.04.00
FES_MODE	0
BPM_DEF	207.000	207.000	207.000	207.000
MET_DEF	4	4
RESOLUTION	384
CLK_DEF	384
COMPATIBLE_CODE	MA2

BPM	0	0	207.000
MET	0	0	4	4
MET	69	0	4	7
MET	72	192	4	4
MET	76	192	4	7
MET	78	96	4	4
MET	84	96	4	2
MET	84	288	4	4

EXHLD	1	0	2	96
EXTAP	1	96	3
EXTAP	1	192	2
EXTAP	1	192	3
EXTAP	1	264	3
EXTAP	1	264	4
EXTAP	1	336	4
EXTAP	1	336	5
EXTAP	2	48	3
EXTAP	2	48	6
EXTAP	2	96	3
EXTAP	2	96	6
EXTAP	2	192	2
EXTAP	2	192	5
EXTAP	2	288	3
EXTAP	2	288	4
BRTAP	3	0	1
BRTAP	3	0	6
NMTAP	3	96	5
NMTAP	3	192	2
NMTAP	3	192	4
NMTAP	3	288	1
NMTAP	4	0	2
NMTAP	4	96	3
NMTAP	4	192	4
NMTAP	4	288	3
NMTAP	4	288	5
NMTAP	5	0	6
NMTAP	5	96	6
NMTAP	5	96	7
NMTAP	5	192	1
NMTAP	5	288	0
NMTAP	5	288	1
NMTAP	6	0	7
NMTAP	6	96	7
NMTAP	6	192	0
NMTAP	6	192	6
NMTAP	6	288	1
NMTAP	6	288	5
EXTAP	7	0	2
EXTAP	7	0	4
NMTAP	7	96	5
NMTAP	7	192	4
NMTAP	7	192	5
NMTAP	7	288	2
NMTAP	8	0	2
NMTAP	8	0	3
NMTAP	8	96	5
NMTAP	8	192	4
NMTAP	8	192	5
NMTAP	8	288	3
NMTAP	8	288	6
NMTAP	9	0	4
NMTAP	9	0	5
NMTAP	9	96	2
NMTAP	9	144	2
NMTAP	9	192	3
NMTAP	9	288	2
NMTAP	9	288	4
NMTAP	10	0	5
NMTAP	10	48	5
NMTAP	10	96	4
EXTAP	10	192	3
EXTAP	10	192	6
NMHLD	11	0	2	96
NMTAP	11	96	3
NMTAP	11	144	3
NMTAP	11	192	1
NMTAP	11	288	0
NMTAP	11	288	7
NMHLD	12	0	6	96
NMTAP	12	96	4
NMTAP	12	144	4
NMTAP	12	192	5
NMTAP	12	288	3
NMTAP	12	288	6
NMTAP	13	0	2
NMTAP	13	96	1
NMTAP	13	96	3
NMTAP	13	192	5
NMTAP	13	288	4
NMTAP	13	288	6
NMTAP	14	0	6
NMTAP	14	96	6
NMTAP	14	96	7
NMTAP	14	192	1
NMTAP	14	288	0
NMTAP	14	288	1
NMTAP	15	0	2
NMTAP	15	96	2
NMTAP	15	96	3
NMTAP	15	192	5
NMTAP	15	288	4
NMTAP	15	288	5
NMTAP	16	0	3
NMTAP	16	0	6
BRTAP	16	96	2
BRTAP	16	96	7
NMTAP	17	0	2
NMTAP	17	0	3
NMHLD	17	96	2	384
NMTAP	17	96	3
NMTAP	17	288	4
NMTAP	18	96	3
NMTAP	18	288	3
NMTAP	18	288	4
NMTAP	19	0	4
NMTAP	19	0	5
NMTAP	19	96	4
NMHLD	19	96	5	384
NMTAP	19	288	3
NMTAP	20	96	4
NMTAP	20	288	2
NMTAP	20	288	3
NMTAP	21	0	1
NMTAP	21	0	4
NMHLD	21	96	1	576
NMTAP	21	96	4
NMTTP	21	288	3	B	0	M1
NMTTP	22	96	5	B	0	M1
NMTAP	22	288	3
NMTAP	23	0	2
NMTAP	23	96	2
NMTAP	23	192	1
NMSTR	23	288	0
NMSUR	23	288	0	96	192	5
EXTAP	24	192	7
EXTAP	24	288	6
NMTAP	25	0	5
NMHLD	25	48	5	96
NMTAP	25	144	4
NMTAP	25	240	3
NMTAP	25	336	2
NMTAP	25	336	4
NMTAP	26	48	3
NMTAP	26	48	5
NMTAP	26	144	7
NMHLD	26	192	7	96
NMTAP	26	288	4
NMTAP	27	0	2
NMHLD	27	48	2	96
NMTAP	27	144	3
NMTAP	27	240	4
NMTAP	27	336	3
NMTAP	27	336	5
NMTAP	28	48	2
NMTAP	28	48	4
NMTAP	28	144	0
NMHLD	28	192	0	96
NMTAP	28	288	3
NMTAP	29	0	5
NMHLD	29	48	5	96
NMTAP	29	144	4
NMTAP	29	240	3
NMTAP	29	240	6
NMTAP	29	336	2
NMTAP	30	48	1
NMTAP	30	48	3
NMTAP	30	96	1
NMTAP	30	96	3
EXTAP	30	192	0
EXTAP	30	288	0
EXTAP	30	288	7
NMTAP	31	0	6
NMTAP	31	96	4
NMTAP	31	96	5
NMTAP	31	192	3
NMTAP	31	240	3
EXTAP	31	336	2
EXTAP	31	336	4
EXTAP	32	48	1
EXSTR	32	96	1
NMSI_	32	96	1	96	96	5
BRSTR	33	0	7
NMSSR	33	0	7	96	288	3
BXTAP	34	240	1
BXTAP	34	240	7
BXTAP	34	288	1
BXTAP	34	288	7
NMTTP	35	0	1	E	0	M1
NMTTP	35	96	2	E	0	M1
NMTTP	35	192	3	E	0	M1
NMTTP	35	288	0	C	0	M1
NMTTP	36	0	7	E	0	M1
NMTTP	36	96	6	E	0	M1
NMTTP	36	192	4	B	0	M1
NMTTP	36	192	5	E	0	M1
NMTTP	36	288	2	B	0	M1
NMTTP	36	288	3	E	0	M1
NMTHO	37	0	0	384	C	0	M1
EXTAP	38	192	0
EXTAP	38	192	7
BRTAP	39	0	1
BRTAP	39	0	3
NMTAP	39	96	6
NMTAP	39	96	7
NMTAP	39	192	3
NMTAP	39	192	5
NMTAP	39	288	0
NMTAP	39	288	1
NMTAP	40	0	5
NMTAP	40	0	7
NMTAP	40	96	3
NMTAP	40	96	4
NMHLD	40	192	1	72
NMHLD	40	264	2	72
NMTAP	40	336	3
NMTAP	41	0	3
NMTAP	41	96	1
NMTAP	41	96	5
NMHLD	41	192	6	72
NMHLD	41	264	5	72
NMTAP	41	336	4
NMTAP	42	0	4
NMTAP	42	96	1
NMTAP	42	96	3
NMTAP	42	192	0
NMTAP	42	192	7
NMTAP	42	288	4
NMTAP	42	288	6
NMSTR	43	0	3
NMSCL	43	0	3	96	96	0
NMTAP	43	0	4
NMSTR	43	192	7
NMSCL	43	192	7	96	96	4
NMSTR	44	0	2
NMSCL	44	0	2	96	96	7
NMTAP	44	192	5
NMTAP	44	288	5
NMTAP	45	0	4
NMTAP	45	0	6
NMTAP	45	48	4
NMHLD	45	48	6	96
BRTAP	45	144	0
NMTAP	45	240	1
NMTAP	45	240	4
NMTAP	45	288	1
NMTAP	45	288	4
NMTAP	46	0	2
NMTAP	46	0	3
NMHLD	46	48	2	96
NMTAP	46	48	3
BRTAP	46	144	7
NMTAP	46	240	4
NMTAP	46	240	5
NMTAP	46	288	4
NMTAP	46	288	5
NMTAP	47	0	2
NMTAP	47	0	3
NMTAP	47	96	4
NMTAP	47	96	6
NMTAP	47	192	0
NMTAP	47	192	1
NMTAP	47	288	6
NMTAP	47	288	7
NMTAP	48	0	0
NMTAP	48	0	2
NMTAP	48	96	4
NMTAP	48	96	6
NMHLD	48	192	3	72
NMHLD	48	264	2	72
NMTAP	48	336	1
NMTAP	49	0	1
NMTAP	49	96	6
NMTAP	49	96	7
NMHLD	49	192	5	72
NMHLD	49	264	6	72
NMTAP	49	336	7
NMSTR	50	0	7
NMSI_	50	0	7	96	48	3
NMSTR	50	192	1
NMSI_	50	192	1	96	48	5
BRTAP	51	0	7
NMTAP	51	192	1
NMHLD	51	192	5	96
NMHLD	51	288	3	96
NMHLD	52	0	1	96
NMHLD	52	96	3	96
NMHLD	52	192	5	96
NMTAP	52	288	7
NMTAP	53	0	6
NMTAP	53	0	7
NMTAP	53	96	0
NMTAP	53	96	1
NMTAP	53	192	2
NMTAP	53	192	3
NMTAP	53	288	4
NMTAP	53	288	5
BRTAP	54	0	6
BRTAP	54	0	7
BRTAP	54	96	1
BRTAP	54	96	3
BRTAP	54	192	4
BRTAP	54	192	6
BRSTR	54	288	0
BRSI_	54	288	0	96	48	4
BRSTR	54	288	7
BRSI_	54	288	7	96	48	3
EXTAP	55	192	2
EXTAP	55	192	5
EXTAP	55	288	2
EXTAP	55	288	5
NMTAP	56	0	4
NMTAP	56	96	0
NMTAP	56	96	5
NMTAP	56	192	3
NMTAP	56	288	2
NMTAP	56	288	7
NMTAP	57	0	0
NMTAP	57	0	1
NMTAP	57	96	0
NMTAP	57	96	1
NMTAP	57	192	6
NMTAP	57	192	7
NMTAP	57	288	6
NMTAP	57	288	7
NMHLD	58	0	5	96
NMHLD	58	96	4	96
NMHLD	58	192	3	96
NMTAP	58	288	2
NMSTR	59	0	1
NMSCR	59	0	1	96	96	4
NMSTR	59	192	6
NMSUL	59	192	6	96	96	2
NMSTR	60	0	0
NMSUR	60	0	0	96	96	4
NMTAP	60	192	6
NMTAP	60	288	6
NMHLD	61	0	5	96
NMTAP	61	96	4
NMTAP	61	144	4
NMTAP	61	192	6
NMTAP	61	288	6
NMTAP	61	288	7
NMTAP	61	336	6
NMTAP	61	336	7
NMTAP	62	48	0
NMTAP	62	96	0
BRTAP	62	192	1
BRTAP	62	192	7
NMTAP	63	0	5
NMTAP	63	48	5
NMTAP	63	96	4
NMTAP	63	144	6
NMTAP	63	192	2
NMTAP	63	240	2
NMTAP	63	288	3
NMHLD	63	336	1	96
NMTAP	64	48	0
NMSTR	64	96	0
NMSCL	64	96	0	96	96	5
NMSTR	64	96	1
NMSUL	64	96	1	96	96	4
NMTAP	65	0	2
NMTAP	65	48	2
NMTAP	65	96	3
NMTAP	65	144	1
NMTAP	65	192	5
NMTAP	65	240	5
NMTAP	65	288	4
NMHLD	65	336	6	96
NMTAP	66	48	7
NMSTR	66	96	6
NMSUR	66	96	6	96	96	3
NMSTR	66	96	7
NMSCR	66	96	7	96	96	2
NMTAP	67	0	4
NMHLD	67	0	5	96
NMHLD	67	96	7	96
NMHLD	67	192	0	96
NMHLD	67	288	2	96
BRTAP	68	0	3
BRTAP	68	96	0
BRTAP	68	96	6
BRTAP	68	192	1
BRTAP	68	192	5
NMHLD	69	0	2	288
NMHLD	69	0	3	288
EXTAP	69	336	2
EXTAP	69	336	3
NMTAP	70	48	0
NMTAP	70	96	0
NMTAP	70	192	1
NMTAP	70	192	3
NMHLD	70	288	4	288
NMHLD	70	288	5	288
EXTAP	71	240	4
EXTAP	71	240	5
NMTAP	71	336	7
NMTAP	72	0	7
NMTAP	72	96	4
NMTAP	72	96	6
NMHLD	72	192	3	96
NMHLD	72	288	2	96
NMHLD	73	0	1	96
NMHLD	73	96	0	96
NMHLD	73	192	7	96
NMHLD	73	288	6	96
NMHLD	74	0	5	96
NMTAP	74	96	4
NMTAP	74	192	4
NMTTP	74	288	3	B	0	M1
NMTTP	74	288	5	B	0	M1
NMTTP	75	0	2	E	0	M1
NMTTP	75	96	7	E	0	M1
NMTTP	75	192	0	C	0	M1
NMTTP	75	192	2	B	0	M1
NMTTP	75	192	6	B	0	M1
EXTAP	76	48	1
EXTAP	76	96	1
NMHLD	76	192	2	576
NMTAP	76	192	3
NMTAP	76	288	3
NMTAP	77	0	3
NMTAP	77	96	1
NMTAP	77	192	7
NMTAP	77	288	1
NMTAP	78	0	3
NMTAP	78	96	4
NMHLD	78	96	5	576
NMTAP	78	192	4
NMTAP	78	288	4
NMTAP	79	0	6
NMTAP	79	96	0
NMTAP	79	192	6
NMTAP	79	288	4
NMTAP	80	0	4
NMTAP	80	0	5
NMSTR	80	96	3
NMSI_	80	96	3	96	96	7
NMSTR	80	288	4
NMSI_	80	288	4	96	96	0
NMSTR	81	96	3
NMSCL	81	96	3	96	96	0
NMSTR	81	288	4
NMSCR	81	288	4	96	96	7
BRHLD	82	96	1	720
NMTHO	83	96	0	336	C	0	M1
EXHLD	84	288	0	480
EXHLD	84	288	7	480
NMSTR	86	96	0
NMSI_	86	96	0	96	48	4
NMSTR	86	96	7
NMSI_	86	96	7	96	48	3
BXTAP	86	288	2
BXTAP	86	288	5
NMTAP	87	0	2
NMTAP	87	0	5
NMHLD	87	96	1	72
NMHLD	87	168	2	72
NMTAP	87	240	3
NMTAP	87	288	3
NMTAP	88	0	4
NMTAP	88	0	6
NMTAP	88	96	0
NMTAP	88	96	7
NMTAP	88	192	1
NMTAP	88	192	3
NMTAP	88	288	3
NMSTR	88	288	4
NMSCR	88	288	4	96	96	7
NMSTR	89	96	0
NMSCR	89	96	0	96	96	3
NMSTR	89	288	5
NMSCR	89	288	5	96	96	0
NMTAP	90	96	2
NMTAP	90	192	2
NMTAP	90	288	1
NMTAP	90	288	3
NMHLD	90	336	1	96
NMTAP	90	336	3
BRTAP	91	48	7
NMTAP	91	144	3
NMTAP	91	144	6
NMTAP	91	192	3
NMTAP	91	192	6
NMTAP	91	288	4
NMTAP	91	288	5
NMTAP	91	336	4
NMHLD	91	336	5	96
BRTAP	92	48	0
NMTAP	92	144	2
NMTAP	92	144	3
NMTAP	92	192	2
NMTAP	92	192	3
NMTAP	92	288	4
NMTAP	92	288	5
NMTAP	93	0	1
NMTAP	93	0	3
NMTAP	93	96	6
NMTAP	93	96	7
NMTAP	93	192	0
NMTAP	93	192	1
NMTAP	93	288	5
NMTAP	93	288	7
NMTAP	94	0	1
NMTAP	94	0	3
NMHLD	94	96	4	72
NMHLD	94	168	5	72
NMTAP	94	240	6
NMTAP	94	288	6
NMTAP	95	0	0
NMTAP	95	0	1
NMHLD	95	96	2	72
NMHLD	95	168	1	72
NMTAP	95	240	0
NMSTR	95	288	0
NMSI_	95	288	0	96	48	4
NMSTR	96	96	6
NMSI_	96	96	6	96	48	2
BRTAP	96	288	0
NMHLD	97	96	2	96
NMTAP	97	96	6
NMHLD	97	192	4	96
NMHLD	97	288	6	96
NMHLD	98	0	4	96
NMHLD	98	96	2	96
NMTAP	98	192	0
NMTAP	98	288	0
NMTAP	98	288	1
NMTAP	99	0	6
NMTAP	99	0	7
NMTAP	99	96	4
NMTAP	99	96	5
NMTAP	99	192	2
NMTAP	99	192	3
BRTAP	99	288	0
BRTAP	99	288	1
NMTAP	100	0	2
NMSTR	100	0	7
NMSF_	100	0	7	96	96	3
NMHLD	100	288	1	96
BRTAP	100	288	5
NMTAP	101	0	0
NMTAP	101	96	2
NMHLD	101	96	6	96
NMTAP	101	192	7
NMTAP	101	288	0
NMTAP	101	288	1
NMTAP	102	0	3
NMTAP	102	0	4
NMHLD	102	96	5	72
NMHLD	102	168	6	72
NMTAP	102	240	7
NMTAP	102	288	7
NMTAP	103	0	0
NMTAP	103	0	6
NMHLD	103	96	2	72
NMHLD	103	168	1	72
NMTAP	103	240	0
NMSTR	103	288	0
NMSI_	103	288	0	96	48	4
NMSTR	104	96	3
NMSI_	104	96	3	96	48	0
NMSTR	104	96	5
NMSI_	104	96	5	96	48	0
EXTAP	104	288	1
EXTAP	104	288	7
NMTAP	105	0	2
NMHLD	105	0	6	96
NMHLD	105	96	4	96
NMHLD	105	192	2	96
NMHLD	105	288	0	96
NMHLD	106	0	6	96
NMTAP	106	96	7
NMTAP	106	192	6
NMTAP	106	192	7
NMTAP	106	288	4
NMTAP	106	288	5
NMTAP	106	336	4
NMTAP	106	336	5
BRTAP	107	48	1
BRTAP	107	48	7
NMTAP	107	144	2
NMTAP	107	144	3
BXTAP	107	240	4
BXTAP	107	240	6
BXTAP	107	288	4
BXTAP	107	288	6
BXTAP	108	0	0
BXTAP	108	0	7
BXTAP	108	48	1
BXTAP	108	48	6
EXTAP	108	144	3
EXTAP	108	144	4
EXTAP	108	192	3
EXTAP	108	192	4
EXTAP	108	288	4
EXTAP	108	288	5
NMTAP	109	0	1
NMTAP	109	0	2
NMTAP	109	96	6
NMTAP	109	96	7
NMTAP	109	192	0
NMTAP	109	192	2
NMTAP	109	288	6
NMTAP	109	288	7
NMTAP	110	0	0
NMTAP	110	0	5
NMHLD	110	96	1	72
NMHLD	110	168	2	72
NMTAP	110	240	3
NMTAP	110	288	3
NMTAP	111	0	0
NMTAP	111	0	6
NMHLD	111	96	5	72
NMHLD	111	168	6	72
NMTAP	111	240	7
BRTAP	111	288	7
BRTAP	112	0	0
BRTAP	112	0	6
BRTAP	112	96	1
BRTAP	112	96	5
BRTAP	112	192	2
BRTAP	112	192	4
NMTAP	112	288	0
NMSTR	112	288	1
NMSI_	112	288	1	96	48	4
NMSTR	113	96	6
NMSI_	113	96	6	96	48	3
NMTAP	113	96	7
NMTAP	113	288	0
NMSTR	113	288	1
NMSI_	113	288	1	96	48	5
NMSTR	114	96	6
NMSI_	114	96	6	96	48	2
NMTAP	114	96	7
NMSTR	114	288	0
NMSI_	114	288	0	96	48	4
NMSTR	114	288	1
NMSI_	114	288	1	96	48	4
NMSTR	115	96	6
NMSI_	115	96	6	96	48	3
NMSTR	115	96	7
NMSI_	115	96	7	96	48	3
BRTAP	115	288	0
BRTAP	115	288	1
EXTAP	116	192	3
EXTAP	116	192	4
NMTAP	116	288	1
NMTAP	116	336	1
NMTAP	117	0	3
NMTAP	117	48	2
NMTAP	117	96	6
NMTAP	117	144	6
NMTAP	117	192	4
NMTAP	117	240	5
NMTAP	117	288	3
NMTAP	117	336	3
NMTAP	118	0	4
NMTAP	118	48	4
NMTAP	118	96	2
NMTAP	118	144	2
BRTAP	118	192	1
BRTAP	118	192	5
NMHLD	118	288	0	288
NMSTR	119	192	7
NMSI_	119	192	7	96	48	3
BRTAP	119	288	1

T_REC_TAP	370
T_REC_BRK	42
T_REC_XTP	49
T_REC_BXX	14
T_REC_HLD	77
T_REC_XHO	3
T_REC_BHO	1
T_REC_BXH	0
T_REC_STR	37
T_REC_BST	3
T_REC_XST	1
T_REC_XBS	0
T_REC_TTP	19
T_REC_THO	2
T_REC_SLD	39
T_REC_BSL	2
T_REC_ALL	659
T_NUM_TAP	476
T_NUM_BRK	62
T_NUM_HLD	82
T_NUM_SLD	39
T_NUM_ALL	659
T_JUDGE_TAP	535
T_JUDGE_HLD	268
T_JUDGE_SLD	41
T_JUDGE_ALL	844
TTM_EACHPAIRS	181
TTM_SCR_TAP	238000
TTM_SCR_BRK	161200
TTM_SCR_HLD	82000
TTM_SCR_SLD	58500
TTM_SCR_ALL	539700
TTM_SCR_S	517500
TTM_SCR_SS	533500
TTM_RAT_ACV	10116

