VERSION	0.00.00	1.04.00
FES_MODE	0
BPM_DEF	207.000	207.000	207.000	207.000
MET_DEF	4	4
RESOLUTION	384
CLK_DEF	384
COMPATIBLE_CODE	MA2

BPM	0	0	207.000
MET	0	0	4	4
MET	69	0	4	7
MET	72	192	4	4
MET	76	192	4	7
MET	78	96	4	4
MET	84	96	4	2
MET	84	288	4	4

NMHLD	3	0	2	192
NMHLD	3	192	3	192
NMHLD	4	0	4	192
NMTAP	4	192	5
NMHLD	5	0	5	192
NMHLD	5	192	4	192
NMHLD	6	0	3	192
NMTAP	6	192	2
NMHLD	7	0	1	192
NMHLD	7	192	2	192
NMHLD	8	0	3	192
NMTAP	8	192	4
NMHLD	9	0	6	192
NMHLD	9	192	5	192
NMHLD	10	0	4	192
NMTAP	10	192	3
NMHLD	11	0	2	192
NMTAP	11	192	3
NMHLD	12	0	5	192
NMTAP	12	192	4
NMHLD	13	0	6	192
NMTAP	13	192	7
NMHLD	14	0	1	192
NMTAP	14	192	0
NMHLD	15	0	7	192
NMTAP	15	192	0
EXTAP	16	0	1
EXTAP	16	0	6
EXTAP	16	96	1
EXTAP	16	96	6
NMTAP	17	0	1
NMTAP	17	96	1
NMTAP	17	192	1
NMTAP	18	0	2
NMTAP	18	96	2
NMTAP	18	192	2
NMTAP	19	0	3
NMTAP	19	96	3
NMTAP	19	192	3
NMTAP	20	0	4
NMTAP	20	0	5
NMTAP	20	96	4
NMTAP	20	96	5
NMTAP	20	192	4
NMTAP	20	192	5
NMTAP	21	0	6
NMTAP	21	96	6
NMTAP	21	192	6
NMTAP	22	0	5
NMTAP	22	96	5
NMTAP	22	192	5
NMTAP	23	0	4
NMTAP	23	96	4
NMTAP	23	192	4
NMTAP	24	0	2
NMTAP	24	0	3
NMTAP	24	96	2
NMTAP	24	96	3
NMTAP	24	192	2
NMTAP	24	192	3
NMTAP	25	0	2
NMTAP	25	96	2
NMTAP	25	192	2
NMTAP	25	192	3
NMTAP	26	0	1
NMTAP	26	96	1
NMTAP	26	192	0
NMTAP	26	192	1
NMTAP	27	0	7
NMTAP	27	96	7
NMTAP	27	192	6
NMTAP	27	192	7
NMTAP	28	0	4
NMTAP	28	0	5
NMTAP	28	96	4
NMTAP	28	96	5
NMTAP	28	192	4
NMTAP	28	192	5
NMTAP	29	0	5
NMTAP	29	96	5
NMTAP	29	192	4
NMTAP	29	192	5
NMTAP	30	0	6
NMTAP	30	96	6
NMTAP	30	192	6
NMTAP	30	192	7
NMTAP	31	0	0
NMTAP	31	96	0
NMTAP	31	192	0
NMTAP	31	192	1
NMTAP	32	0	2
NMTAP	32	0	3
NMTAP	32	96	2
NMTAP	32	96	3
NMTAP	32	192	2
NMTAP	32	192	3
NMSTR	33	0	1
NMSUR	33	0	1	96	480	4
NMHLD	35	0	5	192
NMTAP	35	192	4
NMHLD	36	0	2	192
NMTAP	36	192	3
EXHLD	37	0	3	576
EXHLD	37	0	4	576
NMTAP	39	0	2
NMTAP	39	96	2
NMTAP	39	192	1
NMTAP	39	288	1
NMTAP	40	0	0
NMTAP	40	96	0
NMTAP	40	192	6
NMTAP	40	192	7
NMTAP	41	0	5
NMTAP	41	96	5
NMTAP	41	192	6
NMTAP	41	288	6
NMTAP	42	0	7
NMTAP	42	96	7
NMTAP	42	192	0
NMTAP	42	192	1
NMTAP	43	0	1
NMTAP	43	96	2
NMTAP	43	192	3
NMTAP	43	288	4
NMTAP	44	0	5
NMTAP	44	96	6
NMTAP	44	192	0
NMTAP	44	192	7
NMTAP	45	0	0
NMTAP	45	0	1
NMTAP	45	96	0
NMTAP	45	96	1
NMTAP	45	192	0
NMTAP	45	192	1
NMTAP	46	0	6
NMTAP	46	0	7
NMTAP	46	96	6
NMTAP	46	96	7
NMTAP	46	192	6
NMTAP	46	192	7
NMTAP	47	0	6
NMTAP	47	96	6
NMTAP	47	192	5
NMTAP	47	288	5
NMTAP	48	0	4
NMTAP	48	96	4
NMTAP	48	192	2
NMTAP	48	192	3
NMTAP	49	0	1
NMTAP	49	96	1
NMTAP	49	192	2
NMTAP	49	288	2
NMTAP	50	0	3
NMTAP	50	96	3
NMTAP	50	192	4
NMTAP	50	192	5
NMTAP	51	0	6
NMTAP	51	96	6
NMTAP	51	192	5
NMTAP	51	288	5
NMTAP	52	0	4
NMTAP	52	96	4
NMTAP	52	192	3
NMTAP	52	288	3
NMTAP	53	0	2
NMTAP	53	96	2
NMTAP	53	192	1
NMTAP	53	288	1
EXTAP	54	0	0
EXTAP	54	0	7
EXTAP	54	96	0
EXTAP	54	96	7
EXTAP	54	192	0
EXTAP	54	192	7
NMHLD	55	0	1	192
NMHLD	55	192	0	192
NMHLD	56	0	7	192
NMTAP	56	192	6
NMHLD	57	0	6	192
NMHLD	57	192	7	192
NMHLD	58	0	0	192
NMTAP	58	192	1
NMHLD	59	0	1	192
NMHLD	59	192	2	192
NMHLD	60	0	3	192
NMHLD	60	192	4	192
NMHLD	61	0	5	192
NMTAP	61	192	6
NMTAP	62	0	0
NMTAP	62	0	7
NMTAP	62	96	0
NMTAP	62	96	7
NMTAP	62	192	0
NMTAP	62	192	7
NMTTP	63	0	1	B	0	L1
NMTTP	63	96	2	B	0	L1
NMTTP	63	192	3	B	0	L1
NMTTP	64	0	6	B	0	L1
NMTTP	64	96	5	B	0	L1
NMTTP	64	192	4	B	0	L1
NMTTP	65	0	0	B	0	L1
NMTTP	65	96	1	B	0	L1
NMTTP	65	192	2	B	0	L1
NMTTP	65	192	3	B	0	L1
NMTTP	66	0	7	B	0	L1
NMTTP	66	96	6	B	0	L1
NMTTP	66	192	4	B	0	L1
NMTTP	66	192	5	B	0	L1
NMTTP	67	0	1	B	0	L1
NMTTP	67	96	0	B	0	L1
NMTTP	67	192	7	B	0	L1
NMTTP	67	288	6	B	0	L1
NMTTP	68	0	0	C	0	L1
NMSTR	69	0	1
NMSSR	69	0	1	96	384	5
NMSTR	70	288	6
NMSSL	70	288	6	96	384	2
NMTAP	72	192	1
NMTAP	72	288	1
NMTAP	73	0	0
NMTAP	73	0	1
NMTAP	73	192	2
NMTAP	73	288	2
NMTAP	74	0	2
NMTAP	74	0	3
NMTAP	74	192	5
NMTAP	74	288	5
NMTAP	75	0	4
NMTAP	75	0	5
NMTAP	75	192	6
NMTAP	75	288	6
NMTAP	76	0	6
NMTAP	76	0	7
NMSTR	76	192	0
NMSSL	76	192	0	96	384	4
NMTAP	78	96	5
NMTAP	78	192	5
NMTAP	78	288	4
NMTAP	79	0	4
NMTAP	79	96	3
NMTAP	79	192	3
NMTAP	79	288	2
NMTAP	80	0	2
NMHLD	80	96	1	192
NMTAP	80	288	0
NMHLD	81	96	6	192
NMTAP	81	288	7
NMHLD	82	96	0	768
NMHLD	82	96	7	768
BRTAP	84	288	1
BRTAP	84	288	6
NMTAP	86	288	1
NMTAP	87	0	1
NMTAP	87	96	1
NMTAP	87	192	0
NMTAP	87	192	1
NMTAP	87	288	2
NMTAP	88	0	2
NMTAP	88	96	2
NMTAP	88	192	2
NMTAP	88	192	3
NMTAP	88	288	5
NMTAP	89	0	5
NMTAP	89	96	5
NMTAP	89	192	4
NMTAP	89	192	5
NMTAP	89	288	6
NMTAP	90	0	6
NMTAP	90	96	6
NMTAP	90	192	6
NMTAP	90	192	7
NMTAP	90	288	0
NMTAP	90	288	1
NMTAP	91	0	0
NMTAP	91	0	1
NMTAP	91	96	0
NMTAP	91	96	1
NMTAP	91	288	6
NMTAP	91	288	7
NMTAP	92	0	6
NMTAP	92	0	7
NMTAP	92	96	6
NMTAP	92	96	7
NMTAP	92	288	5
NMTAP	93	0	5
NMTAP	93	96	6
NMTAP	93	192	6
NMTAP	93	288	7
NMTAP	94	0	7
NMTAP	94	96	0
NMTAP	94	96	1
NMTAP	94	288	2
NMTAP	95	0	2
NMTAP	95	96	1
NMTAP	95	192	1
NMTAP	95	288	0
NMTAP	96	0	0
NMTAP	96	96	6
NMTAP	96	96	7
NMTAP	96	288	6
NMTAP	97	0	6
NMTAP	97	96	6
NMTAP	97	96	7
NMTAP	97	192	6
NMTAP	97	192	7
NMTAP	97	288	5
NMTAP	98	0	5
NMTAP	98	96	4
NMTAP	98	96	5
NMTAP	98	192	4
NMTAP	98	192	5
NMTAP	98	288	2
NMTAP	99	0	2
NMTAP	99	96	2
NMTAP	99	96	3
NMTAP	99	192	2
NMTAP	99	192	3
BRTAP	99	288	0
BRTAP	99	288	1
NMTAP	100	288	2
NMTAP	101	0	2
NMTAP	101	96	0
NMTAP	101	96	1
NMTAP	101	192	0
NMTAP	101	192	1
NMTAP	101	288	7
NMTAP	102	0	7
NMTAP	102	96	6
NMTAP	102	96	7
NMTAP	102	288	5
NMTAP	103	0	5
NMTAP	103	96	6
NMTAP	103	96	7
NMTAP	103	192	6
NMTAP	103	192	7
NMTAP	103	288	0
NMTAP	104	0	0
NMTAP	104	96	0
NMTAP	104	96	1
NMTAP	104	288	2
NMTAP	105	0	2
NMTAP	105	96	3
NMTAP	105	192	3
NMTAP	105	288	4
NMTAP	106	0	4
NMTAP	106	96	5
NMTAP	106	192	5
NMTAP	106	288	4
NMTAP	106	288	6
NMTAP	107	0	4
NMTAP	107	0	6
NMTAP	107	96	4
NMTAP	107	96	6
NMTAP	107	288	1
NMTAP	107	288	3
NMTAP	108	0	1
NMTAP	108	0	3
NMTAP	108	96	1
NMTAP	108	96	3
NMTAP	108	288	0
NMTAP	109	0	1
NMTAP	109	96	2
NMTAP	109	192	3
NMTAP	109	288	4
NMTAP	110	0	5
NMTAP	110	96	6
NMTAP	110	96	7
NMTAP	110	288	7
NMTAP	111	0	6
NMTAP	111	96	5
NMTAP	111	192	4
NMTAP	111	288	3
NMTAP	112	0	2
NMTAP	112	96	0
NMTAP	112	96	1
NMTAP	112	288	1
NMTAP	113	0	1
NMTAP	113	96	0
NMTAP	113	96	1
NMTAP	113	192	0
NMTAP	113	192	1
NMTAP	113	288	2
NMTAP	114	0	2
NMTAP	114	96	2
NMTAP	114	96	3
NMTAP	114	192	2
NMTAP	114	192	3
NMTAP	114	288	5
NMTAP	115	0	5
NMTAP	115	96	4
NMTAP	115	96	5
NMTAP	115	192	4
NMTAP	115	192	5
NMTAP	115	288	6
NMTAP	115	288	7
NMTAP	116	0	6
NMTAP	116	0	7
NMTAP	116	96	6
NMTAP	116	96	7
NMTAP	116	288	0
NMTAP	116	288	5
NMTAP	117	0	0
NMTAP	117	0	5
NMTAP	117	96	0
NMTAP	117	96	5
NMTAP	117	288	2
NMTAP	117	288	7
NMTAP	118	0	2
NMTAP	118	0	7
NMTAP	118	96	2
NMTAP	118	96	7
NMTAP	118	288	1
NMTAP	119	0	0
NMTAP	119	96	7
NMTAP	119	192	6
BRTAP	119	288	0
BRTAP	119	288	7

T_REC_TAP	338
T_REC_BRK	6
T_REC_XTP	10
T_REC_BXX	0
T_REC_HLD	34
T_REC_XHO	2
T_REC_BHO	0
T_REC_BXH	0
T_REC_STR	4
T_REC_BST	0
T_REC_XST	0
T_REC_XBS	0
T_REC_TTP	19
T_REC_THO	0
T_REC_SLD	4
T_REC_BSL	0
T_REC_ALL	417
T_NUM_TAP	371
T_NUM_BRK	6
T_NUM_HLD	36
T_NUM_SLD	4
T_NUM_ALL	417
T_JUDGE_TAP	377
T_JUDGE_HLD	184
T_JUDGE_SLD	4
T_JUDGE_ALL	565
TTM_EACHPAIRS	93
TTM_SCR_TAP	185500
TTM_SCR_BRK	15600
TTM_SCR_HLD	36000
TTM_SCR_SLD	6000
TTM_SCR_ALL	243100
TTM_SCR_S	235250
TTM_SCR_SS	242500
TTM_RAT_ACV	10024

