VERSION	0.00.00	1.04.00
FES_MODE	0
BPM_DEF	132.000	132.000	132.000	132.000
MET_DEF	4	4
RESOLUTION	384
CLK_DEF	384
COMPATIBLE_CODE	MA2

BPM	0	0	132.000
MET	0	0	4	4

NMHLD	2	0	2	72
NMTAP	2	72	3
NMTAP	2	144	4
NMHLD	2	192	4	72
NMTAP	2	264	3
NMTAP	2	336	2
NMTAP	3	0	2
NMTAP	3	48	4
NMTAP	3	96	4
NMTAP	3	120	3
NMTAP	3	168	3
NMTAP	3	216	5
NMTAP	3	264	5
NMTAP	3	288	4
NMTAP	3	336	4
NMHLD	4	0	6	72
NMTAP	4	72	4
NMTAP	4	144	2
NMHLD	4	192	2	72
NMTAP	4	264	3
NMTAP	4	336	5
NMTAP	5	0	5
NMTAP	5	48	3
NMTAP	5	96	3
NMTAP	5	120	4
NMTAP	5	168	4
NMTAP	5	216	2
NMTAP	5	264	2
NMTAP	5	288	3
NMTAP	5	336	2
NMTAP	5	336	4
NMHLD	6	0	5	72
NMTAP	6	72	4
NMTAP	6	144	3
NMHLD	6	192	3	72
NMTAP	6	264	4
NMTAP	6	336	5
NMTAP	7	0	5
NMTAP	7	48	3
NMTAP	7	96	3
NMTAP	7	120	4
NMTAP	7	168	4
NMTAP	7	216	2
NMTAP	7	264	2
NMTAP	7	288	3
NMTAP	7	336	3
NMHLD	8	0	1	72
NMTAP	8	72	3
NMTAP	8	144	5
NMHLD	8	192	5	72
NMTAP	8	264	4
NMTAP	8	336	2
NMTAP	9	0	2
NMTAP	9	48	4
NMTAP	9	96	4
NMTAP	9	120	3
NMHLD	9	168	3	72
NMHLD	9	168	5	96
NMSTR	10	0	2
NMSI_	10	0	2	96	32	4
NMTAP	10	0	4
NMTAP	10	96	5
NMTAP	10	240	5
NMTAP	10	288	4
NMTAP	10	288	6
NMHLD	11	0	2	96
NMTAP	11	0	4
NMHLD	11	96	3	96
NMTAP	11	192	4
NMTAP	11	240	3
NMTAP	11	288	2
NMTAP	11	288	4
NMSTR	12	0	3
NMSI_	12	0	3	96	32	5
NMTAP	12	96	2
NMTAP	12	240	4
NMTAP	12	288	3
NMTAP	12	288	5
NMHLD	13	0	1	96
NMSTR	13	0	3
NMSXR	13	0	3	96	144	4
NMTAP	13	240	7
NMTAP	13	288	0
NMTAP	13	288	6
NMTAP	14	0	3
NMSTR	14	0	5
NMSI_	14	0	5	96	32	3
NMTAP	14	96	2
NMTAP	14	240	2
NMTAP	14	288	1
NMTAP	14	288	3
NMTAP	15	0	3
NMHLD	15	0	5	96
NMHLD	15	96	4	96
NMTAP	15	192	3
NMTAP	15	240	4
NMTAP	15	288	3
NMTAP	15	288	5
NMSTR	16	0	4
NMSI_	16	0	4	96	32	2
NMTAP	16	96	5
NMTAP	16	240	3
NMTAP	16	288	2
NMTAP	16	288	4
NMSTR	17	0	4
NMSI_	17	0	4	96	48	1
NMSTR	17	0	6
NMSI_	17	0	6	96	48	3
NMTAP	17	192	0
EXTAP	17	240	1
EXTAP	17	240	7
EXTAP	17	288	1
EXTAP	17	288	7
NMSTR	18	0	3
NMSXL	18	0	3	96	96	3
NMSXR	18	0	3	96	96	3
NMTAP	18	240	7
NMTAP	18	288	3
NMTAP	18	288	6
NMTAP	19	0	2
NMSTR	19	0	5
NMSUL	19	0	5	96	144	3
NMTAP	19	240	0
NMTAP	19	288	1
NMTAP	19	288	4
NMSTR	20	0	2
NMSCL	20	0	2	96	48	0
NMTAP	20	96	3
NMSTR	20	192	4
NMSCL	20	192	4	96	48	2
NMTAP	20	288	5
NMSTR	21	0	6
NMSCL	21	0	6	96	48	4
NMTAP	21	96	7
NMTAP	21	192	0
NMTAP	21	240	1
NMTAP	21	288	2
NMTAP	21	288	4
NMTAP	22	0	1
NMSTR	22	0	5
NMSCR	22	0	5	96	144	3
NMTAP	22	96	4
NMTAP	22	240	0
NMTAP	22	288	1
NMTAP	22	288	4
NMSTR	23	0	2
NMSXR	23	0	2	96	144	4
NMTAP	23	0	5
NMTAP	23	96	4
NMTAP	23	240	7
NMTAP	23	288	3
NMTAP	23	288	6
NMSTR	24	0	4
NMSCR	24	0	4	96	48	7
NMTAP	24	96	3
NMSTR	24	192	0
NMSCR	24	192	0	96	48	3
NMTAP	24	288	4
NMTAP	25	0	2
NMTAP	25	0	6
BRTAP	25	48	1
BRTAP	25	48	5
NMHLD	25	240	0	144
NMSTR	26	0	6
NMSCL	26	0	6	96	48	3
NMTAP	26	96	6
NMTAP	26	96	7
NMTAP	26	168	1
NMSTR	26	192	0
NMSCR	26	192	0	96	48	3
NMTAP	26	192	1
NMTAP	26	288	0
NMTAP	26	288	7
NMSTR	26	336	6
NMSI_	26	336	6	96	32	4
NMSTR	27	48	3
NMSI_	27	48	3	96	48	7
NMTAP	27	96	1
NMHLD	27	144	1	96
NMTAP	27	240	0
NMTAP	27	288	7
NMTAP	27	336	3
NMTAP	27	336	6
NMSTR	28	0	4
NMSCL	28	0	4	96	48	1
NMTAP	28	0	5
NMSTR	28	96	7
NMSCL	28	96	7	96	48	4
NMHLD	28	192	0	96
NMTAP	28	288	3
NMTAP	28	336	1
NMTAP	28	336	4
NMTAP	29	0	2
NMTAP	29	48	3
NMTAP	29	48	5
NMTAP	29	96	6
NMTAP	29	144	0
NMTAP	29	144	7
EXSTR	29	240	1
NMSI_	29	240	1	96	48	4
EXSTR	29	288	6
NMSI_	29	288	6	96	48	3
NMTAP	29	336	1
NMTAP	30	0	6
NMSTR	30	96	0
NMSI_	30	96	0	96	48	4
NMTAP	30	96	1
NMTAP	30	168	7
NMHLD	30	192	7	144
NMTAP	30	288	5
NMSTR	30	336	5
NMSCL	30	336	5	96	96	7
NMTTP	31	48	1	E	0	M1
NMTTP	31	96	0	C	0	M1
NMTTP	31	144	5	E	0	M1
NMTAP	31	240	0
NMTAP	31	240	6
NMTAP	31	288	4
NMTAP	31	288	5
NMTAP	31	336	2
NMTAP	31	336	3
NMSTR	32	0	1
NMSI_	32	0	1	96	48	5
NMTAP	32	0	7
NMTAP	32	96	0
NMTAP	32	96	1
NMSTR	32	168	7
NMSF_	32	168	7	96	48	3
EXTAP	32	192	0
EXTAP	32	192	6
EXTAP	32	264	7
BXTAP	32	336	1
BXTAP	32	336	5
NMTAP	33	48	2
NMTAP	33	48	3
NMTAP	33	96	1
NMTAP	33	144	0
NMTAP	33	144	7
NMTAP	33	192	6
EXTAP	33	240	4
EXTAP	33	240	5
EXTAP	33	288	3
EXTAP	33	288	7
NMTAP	33	336	2
NMSTR	34	0	1
NMSCR	34	0	1	96	48	4
NMTAP	34	0	4
NMTAP	34	96	0
NMTAP	34	96	1
NMTAP	34	168	6
NMTAP	34	192	6
NMSTR	34	192	7
NMSCL	34	192	7	96	48	4
NMTAP	34	288	0
NMTAP	34	288	7
NMSTR	34	336	1
NMSI_	34	336	1	96	32	3
NMSTR	35	48	4
NMSI_	35	48	4	96	48	0
NMTAP	35	96	6
NMHLD	35	144	6	96
NMTAP	35	240	7
NMTAP	35	288	0
NMTAP	35	336	1
NMTAP	35	336	4
NMSTR	36	0	2
NMSUR	36	0	2	96	96	4
NMTAP	36	0	3
NMSTR	36	96	4
NMSCR	36	96	4	96	96	2
NMTAP	36	192	7
NMTAP	36	288	5
NMHLD	36	336	5	96
NMSTR	37	48	4
NMSI_	37	48	4	96	48	1
NMSTR	37	96	6
NMSI_	37	96	6	96	48	3
NMTAP	37	144	4
NMTAP	37	192	6
EXTAP	37	240	0
EXTAP	37	288	1
EXTAP	37	288	4
NMTAP	37	336	2
NMTAP	38	0	3
NMSTR	38	0	6
NMSCL	38	0	6	96	48	3
NMTAP	38	96	6
NMTAP	38	96	7
NMTAP	38	168	1
NMSTR	38	192	0
NMSCR	38	192	0	96	48	3
NMTAP	38	192	1
NMTAP	38	288	0
NMTAP	38	288	7
NMSTR	38	336	6
NMSI_	38	336	6	96	32	4
NMSTR	39	48	3
NMSI_	39	48	3	96	48	7
NMTAP	39	96	1
NMHLD	39	144	1	96
NMTAP	39	240	0
NMTAP	39	288	2
NMTAP	39	288	3
NMTAP	39	336	4
NMTAP	39	336	5
NMSTR	40	0	6
NMSCL	40	0	6	96	48	3
NMSTR	40	0	7
NMSCR	40	0	7	96	48	2
NMTAP	40	96	6
NMTAP	40	96	7
EXHLD	40	192	1	72
EXTAP	40	192	7
EXTAP	40	264	3
BXTAP	40	336	2
BXTAP	40	336	6
NMTAP	41	48	4
NMTAP	41	48	5
NMTAP	41	96	3
NMTAP	41	240	2
NMTAP	41	240	3
NMTAP	41	288	0
NMTAP	41	288	4
NMTAP	42	0	5
NMTAP	42	48	5
NMTAP	42	72	4
NMTAP	42	192	3
NMTAP	42	240	3
NMTAP	42	264	4
NMTAP	43	0	2
NMTAP	43	48	2
NMTAP	43	72	3
NMTAP	43	192	4
NMTAP	43	240	4
NMTAP	43	264	3
NMTAP	43	288	5
NMTAP	43	336	5
NMTAP	44	0	2
NMTAP	44	48	2
NMTAP	44	72	3
NMTAP	44	192	4
NMTAP	44	240	4
NMTAP	44	264	3
NMTAP	45	0	5
NMTAP	45	48	5
NMTAP	45	72	4
NMTAP	45	120	4
NMSTR	45	168	6
NMSCL	45	168	6	96	72	3
NMTAP	45	216	3
NMTAP	45	264	2
NMTAP	46	0	2
NMTAP	46	48	3
NMTAP	46	72	3
NMTTP	46	96	2	E	0	M1
NMTAP	46	192	3
NMTAP	46	240	4
NMTAP	46	264	4
NMTTP	46	288	3	E	0	M1
NMTAP	47	0	4
NMTAP	47	48	3
NMTAP	47	72	3
NMTTP	47	96	5	E	0	M1
NMTAP	47	192	5
NMTAP	47	240	4
NMTAP	47	264	4
NMTTP	47	288	6	E	0	M1
NMTAP	48	0	2
NMTAP	48	48	3
NMTAP	48	72	3
NMTTP	48	96	2	E	0	M1
NMTAP	48	192	5
NMTAP	48	240	4
NMTAP	48	264	4
NMTTP	48	288	6	E	0	M1
NMTAP	49	0	3
NMTAP	49	0	4
NMTAP	49	48	2
NMTAP	49	72	2
NMTTP	49	96	4	E	0	M1
NMTAP	49	144	1
NMTAP	49	192	0
EXTAP	49	240	6
EXTAP	49	240	7
EXTAP	49	288	0
EXTAP	49	288	5
NMHLD	50	0	3	72
NMTAP	50	72	4
NMTAP	50	96	3
NMTAP	50	144	5
NMHLD	50	192	5	72
NMTAP	50	264	3
NMTAP	50	288	5
NMTAP	50	336	1
NMHLD	51	0	1	72
NMTAP	51	72	3
NMTAP	51	96	1
NMTAP	51	144	6
NMHLD	51	192	6	72
NMTAP	51	264	7
NMTAP	51	288	6
NMTAP	51	336	1
NMSTR	52	0	1
NMSI_	52	0	1	96	48	4
NMTAP	52	72	0
NMTAP	52	96	1
NMTAP	52	144	6
NMSTR	52	192	6
NMSI_	52	192	6	96	48	3
NMTAP	52	264	7
NMTAP	52	288	6
NMTAP	52	336	0
NMHLD	53	0	0	72
NMTAP	53	72	7
NMTAP	53	96	0
NMTTP	53	144	7	E	0	M1
NMTTP	53	192	6	E	0	M1
NMTTP	53	240	5	E	0	M1
NMTTP	53	288	4	E	0	M1
NMTTP	53	336	3	E	0	M1
NMSTR	54	0	1
NMSI_	54	0	1	96	48	5
NMTAP	54	72	0
NMTAP	54	96	1
NMTAP	54	144	6
NMSTR	54	192	6
NMSI_	54	192	6	96	48	0
NMTAP	54	264	4
NMTAP	54	288	6
NMTAP	54	336	1
NMSTR	55	0	1
NMSI_	55	0	1	96	48	3
NMTAP	55	72	0
NMTAP	55	96	1
NMTAP	55	144	5
NMTAP	55	168	5
NMTAP	55	192	4
NMTAP	55	216	6
NMTAP	55	240	3
NMTAP	55	264	5
NMTAP	55	288	2
NMTAP	55	312	4
NMTAP	55	336	1
NMTAP	55	360	3
NMSTR	56	0	0
NMSCR	56	0	0	96	48	3
NMTAP	56	72	5
NMTAP	56	96	0
NMTAP	56	144	7
NMSTR	56	192	7
NMSCL	56	192	7	96	48	4
NMTAP	56	264	2
NMTAP	56	288	7
NMTAP	56	336	3
EXTAP	57	0	1
EXTAP	57	0	5
BRHLD	57	48	2	192
BRHLD	57	48	6	192
NMHLD	58	0	4	768
NMTTP	58	96	5	E	0	M1
NMTTP	58	288	4	E	0	M1
NMTTP	59	96	3	E	0	M1
NMHLD	59	288	2	864
NMTTP	60	96	2	E	0	M1
NMTTP	60	288	3	E	0	M1
NMTTP	61	96	4	E	0	M1
NMHLD	61	288	6	864
NMTTP	62	96	5	E	0	M1
NMTTP	62	288	4	E	0	M1
NMTTP	63	96	3	E	0	M1
NMHLD	63	288	2	96
NMTAP	64	96	4
NMHLD	64	192	3	72
NMHLD	64	192	5	72
NMTAP	64	336	5
NMTAP	65	0	4
NMTAP	65	48	3
NMTAP	65	96	2
NMTAP	65	120	4
NMTAP	65	144	2
NMTAP	65	168	4
NMTAP	65	192	2
NMTAP	65	204	1
NMTAP	65	216	0
NMTAP	65	228	7
NMTAP	65	240	6
NMTAP	65	252	5
NMTAP	65	264	4
NMTAP	65	276	3
BXTAP	65	288	2
BRTAP	65	288	6
NMSTR	66	0	1
NMSCR	66	0	1	96	48	4
NMTAP	66	0	7
NMTAP	66	96	0
NMTAP	66	96	1
NMTAP	66	168	6
NMTAP	66	192	6
NMSTR	66	192	7
NMSI_	66	192	7	96	48	3
NMTAP	66	288	0
NMTAP	66	288	7
NMSTR	66	336	1
NMSI_	66	336	1	96	48	4
NMTAP	67	48	1
NMSTR	67	48	4
NMSI_	67	48	4	96	48	0
NMTAP	67	96	6
NMHLD	67	144	6	96
NMTAP	67	240	7
NMTAP	67	288	1
NMTAP	67	336	4
NMTAP	67	336	6
NMSTR	68	0	2
NMSCR	68	0	2	96	48	5
NMTAP	68	0	3
NMSTR	68	96	6
NMSUL	68	96	6	96	48	2
NMHLD	68	192	1	96
NMTAP	68	288	7
NMSTR	68	336	0
NMSXL	68	336	0	96	96	0
NMTAP	68	336	6
NMTAP	69	48	3
NMTAP	69	96	4
NMTAP	69	144	5
NMTAP	69	192	6
NMTAP	69	192	7
EXTAP	69	240	1
EXTAP	69	240	5
EXTAP	69	288	1
EXTAP	69	288	5
NMTAP	69	336	3
NMTAP	70	0	2
NMSTR	70	0	4
NMSI_	70	0	4	96	32	6
NMSTR	70	96	0
NMSLR	70	96	0	96	48	4
NMTAP	70	96	4
NMTAP	70	168	7
NMHLD	70	192	7	96
NMTAP	70	288	5
NMHLD	70	336	4	192
NMTAP	70	336	6
NMTAP	71	48	2
NMTAP	71	96	0
NMTAP	71	144	6
NMTAP	71	240	1
NMTAP	71	240	7
NMTAP	71	288	2
NMTAP	71	288	3
NMTAP	71	336	4
NMTAP	71	336	5
NMTAP	72	0	0
NMSTR	72	0	6
NMSI_	72	0	6	96	48	2
NMTAP	72	96	6
NMTAP	72	96	7
NMSTR	72	168	0
NMSF_	72	168	0	96	48	4
EXTAP	72	192	1
EXTAP	72	192	7
EXTAP	72	264	0
EXSTR	72	336	2
NMSI_	72	336	2	96	48	7
EXSTR	72	336	6
NMSI_	72	336	6	96	48	3
BRTAP	73	48	2
BRTAP	73	48	6
NMTAP	73	144	1
NMTAP	73	144	5
NMTAP	73	192	2
NMTAP	73	192	3
EXTAP	73	240	4
EXTAP	73	240	5
EXTAP	73	288	3
EXTAP	73	288	7
NMTAP	73	336	0
NMTAP	73	336	1
NMTAP	74	0	2
NMSTR	74	0	6
NMSCL	74	0	6	96	48	3
NMTAP	74	96	6
NMTAP	74	96	7
NMTAP	74	168	1
NMSTR	74	192	0
NMSI_	74	192	0	96	48	4
NMTAP	74	192	1
NMTAP	74	288	0
NMTAP	74	288	7
NMSTR	74	336	6
NMSI_	74	336	6	96	48	3
NMSTR	75	48	3
NMSI_	75	48	3	96	48	7
NMTAP	75	48	6
NMTAP	75	96	1
NMHLD	75	144	1	96
NMTAP	75	240	0
NMSTR	75	288	7
NMSCR	75	288	7	96	48	2
NMTAP	75	336	6
NMTAP	76	0	5
NMTAP	76	96	7
NMSTR	76	144	0
NMSCL	76	144	0	96	48	5
NMTAP	76	192	1
NMTAP	76	240	2
NMTAP	76	336	0
NMSTR	77	0	7
NMSI_	77	0	7	96	48	3
NMSTR	77	48	0
NMSI_	77	48	0	96	48	4
NMTAP	77	96	7
NMTAP	77	144	0
EXTAP	77	240	2
EXTAP	77	240	6
EXTAP	77	288	2
EXTAP	77	288	6
NMTAP	77	336	5
NMSTR	78	0	1
NMSCR	78	0	1	96	48	4
NMTAP	78	0	4
NMTAP	78	96	0
NMTAP	78	96	1
NMTAP	78	168	6
NMTAP	78	192	6
NMTAP	78	192	7
NMTAP	78	264	1
NMTAP	78	288	0
NMTAP	78	288	1
NMTAP	78	336	2
NMSTR	78	336	7
NMSI_	78	336	7	96	48	3
NMSTR	79	48	1
NMSI_	79	48	1	96	48	5
NMTAP	79	96	1
NMTAP	79	144	0
NMTAP	79	240	6
NMTAP	79	240	7
NMTAP	79	288	4
NMTAP	79	288	5
NMTAP	79	336	2
NMTAP	79	336	3
NMSTR	80	0	0
NMSCL	80	0	0	96	48	5
NMSTR	80	0	1
NMSCR	80	0	1	96	48	4
NMTAP	80	96	0
NMTAP	80	96	1
NMTAP	80	192	0
NMTAP	80	192	6
NMTAP	80	264	3
NMTAP	80	264	4
BRTAP	80	336	1
BRTAP	80	336	5

T_REC_TAP	388
T_REC_BRK	7
T_REC_XTP	37
T_REC_BXX	5
T_REC_HLD	38
T_REC_XHO	1
T_REC_BHO	2
T_REC_BXH	0
T_REC_STR	72
T_REC_BST	0
T_REC_XST	4
T_REC_XBS	0
T_REC_TTP	24
T_REC_THO	0
T_REC_SLD	77
T_REC_BSL	0
T_REC_ALL	655
T_NUM_TAP	525
T_NUM_BRK	14
T_NUM_HLD	39
T_NUM_SLD	77
T_NUM_ALL	655
T_JUDGE_TAP	537
T_JUDGE_HLD	136
T_JUDGE_SLD	77
T_JUDGE_ALL	750
TTM_EACHPAIRS	121
TTM_SCR_TAP	262500
TTM_SCR_BRK	36400
TTM_SCR_HLD	39000
TTM_SCR_SLD	115500
TTM_SCR_ALL	453400
TTM_SCR_S	438450
TTM_SCR_SS	452000
TTM_RAT_ACV	10030

