VERSION	0.00.00	1.04.00
FES_MODE	0
BPM_DEF	132.000	132.000	132.000	132.000
MET_DEF	4	4
RESOLUTION	384
CLK_DEF	384
COMPATIBLE_CODE	MA2

BPM	0	0	132.000
MET	0	0	4	4

NMHLD	2	0	5	96
NMTAP	2	96	4
NMHLD	2	192	2	96
NMTAP	2	288	3
NMTAP	3	0	1
NMTAP	3	96	0
NMTAP	3	96	7
NMTAP	3	192	6
NMTAP	3	288	4
NMTAP	3	288	5
NMHLD	4	0	2	96
NMTAP	4	96	3
NMHLD	4	192	5	96
NMTAP	4	288	4
NMTAP	5	0	6
NMTAP	5	96	0
NMTAP	5	96	7
NMTAP	5	192	1
NMTAP	5	288	2
NMTAP	5	288	3
NMHLD	6	0	6	96
NMTAP	6	96	4
NMHLD	6	192	2	96
NMTAP	6	288	3
NMTAP	7	0	1
NMTAP	7	0	4
NMTAP	7	96	0
NMTAP	7	192	7
NMTAP	7	288	3
NMTAP	7	288	6
NMHLD	8	0	1	96
NMTAP	8	96	3
NMHLD	8	192	5	96
NMTAP	8	288	4
NMTAP	9	0	3
NMTAP	9	0	6
BRSTR	9	96	7
NMSUL	9	96	7	96	96	3
NMTAP	10	0	2
NMTAP	10	0	3
NMHLD	10	96	1	288
NMTAP	10	96	4
NMTAP	10	240	3
NMTAP	10	288	3
NMTAP	11	0	4
NMHLD	11	96	5	288
NMTAP	11	240	3
NMTAP	11	288	3
NMTAP	12	0	2
NMHLD	12	96	1	288
NMTAP	12	240	3
NMTAP	12	288	3
NMTAP	13	0	4
NMTAP	13	48	4
NMSTR	13	96	2
NMSXR	13	96	2	96	192	4
NMTAP	14	0	5
NMTAP	14	96	3
NMHLD	14	96	6	288
NMTAP	14	240	4
NMTAP	14	288	4
NMTAP	15	0	3
NMHLD	15	96	2	288
NMTAP	15	240	4
NMTAP	15	288	4
NMTAP	16	0	5
NMHLD	16	96	6	288
NMTAP	16	240	4
NMTAP	16	288	4
NMTAP	17	0	3
NMTAP	17	48	3
NMSTR	17	96	5
NMSCL	17	96	5	96	96	2
NMHLD	18	0	1	72
NMHLD	18	72	2	72
NMTAP	18	144	3
NMTAP	18	192	3
NMTAP	18	288	4
NMTAP	18	288	5
NMHLD	19	0	6	72
NMHLD	19	72	5	72
NMTAP	19	144	4
NMTAP	19	192	4
NMTAP	19	288	2
NMTAP	19	288	3
NMHLD	20	0	2	72
NMHLD	20	72	1	72
NMTAP	20	144	0
NMHLD	20	192	5	72
NMHLD	20	264	6	72
NMTAP	20	336	7
NMHLD	21	0	0	72
NMHLD	21	72	1	72
NMTAP	21	144	2
NMTAP	21	192	2
NMTAP	21	288	3
NMTAP	21	288	4
NMHLD	22	0	6	72
NMHLD	22	72	5	72
NMTAP	22	144	4
NMTAP	22	192	4
NMTAP	22	288	2
NMTAP	22	288	3
NMHLD	23	0	1	72
NMHLD	23	72	2	72
NMTAP	23	144	3
NMTAP	23	192	3
NMTAP	23	288	4
NMTAP	23	288	5
NMHLD	24	0	5	72
NMHLD	24	72	6	72
NMTAP	24	144	7
NMHLD	24	192	0	72
NMHLD	24	264	1	72
NMTAP	24	336	2
EXTAP	25	0	3
EXTAP	25	0	4
EXTAP	25	48	3
EXTAP	25	48	4
NMTAP	25	240	0
NMTAP	25	240	7
NMTAP	25	288	0
NMTAP	25	288	7
NMSTR	26	0	0
NMSI_	26	0	0	96	48	4
NMSTR	26	0	1
NMSI_	26	0	1	96	48	4
NMTAP	26	192	6
NMTAP	26	192	7
NMTAP	26	288	5
NMHLD	26	336	5	96
NMHLD	27	48	7	96
NMHLD	27	144	0	96
NMTAP	27	240	2
NMTAP	27	288	2
NMTAP	28	0	3
NMTAP	28	0	4
NMHLD	28	96	1	96
NMHLD	28	192	3	96
NMHLD	28	288	4	96
NMHLD	29	0	6	96
NMTAP	29	96	0
NMHLD	29	144	0	96
NMTAP	29	240	7
NMTAP	29	288	7
NMSTR	30	0	6
NMSI_	30	0	6	96	48	3
NMSTR	30	0	7
NMSI_	30	0	7	96	48	3
NMTAP	30	192	0
NMTAP	30	192	1
NMTAP	30	288	2
NMSTR	30	336	2
NMSXL	30	336	2	96	192	7
NMTAP	31	240	6
NMHLD	31	288	6	96
NMTAP	32	0	7
NMTAP	32	96	4
NMTAP	32	96	5
NMTAP	32	192	3
NMTAP	32	192	5
NMTAP	32	264	2
NMTAP	32	264	4
NMSTR	32	336	1
NMSUR	32	336	1	96	96	5
NMTAP	32	336	5
NMTAP	33	144	6
NMHLD	33	192	6	96
NMTAP	33	288	7
NMSTR	34	0	6
NMSI_	34	0	6	96	48	3
NMSTR	34	0	7
NMSI_	34	0	7	96	48	3
NMTAP	34	192	0
NMTAP	34	192	1
NMTAP	34	288	2
NMHLD	34	336	2	96
NMHLD	35	48	0	96
NMHLD	35	144	7	96
NMTAP	35	240	5
NMTAP	35	288	5
NMTAP	36	0	6
NMTAP	36	0	7
NMTAP	36	96	0
NMTAP	36	96	1
NMTAP	36	192	2
NMTAP	36	192	3
NMTAP	36	288	5
NMHLD	36	336	5	96
NMTAP	37	48	4
NMTAP	37	96	4
NMTAP	37	144	3
NMTAP	37	144	6
NMTAP	37	192	3
NMTAP	37	192	6
NMTAP	37	288	2
NMTAP	37	288	3
NMSTR	38	0	0
NMSI_	38	0	0	96	48	4
NMSTR	38	0	1
NMSI_	38	0	1	96	48	4
NMTAP	38	192	6
NMTAP	38	192	7
NMTAP	38	288	5
NMTAP	38	336	5
NMTAP	39	0	4
NMTAP	39	48	4
NMTAP	39	96	6
NMHLD	39	144	6	96
NMTAP	39	240	3
NMTAP	39	288	3
NMTAP	40	0	1
NMTAP	40	0	4
NMTAP	40	96	3
NMTAP	40	96	6
NMTAP	40	192	3
NMTAP	40	192	4
NMTAP	40	264	2
NMTAP	40	264	5
BRSTR	40	336	2
NMSUR	40	336	2	96	192	4
BRTAP	40	336	5
NMTAP	42	0	4
NMTAP	42	0	5
NMTAP	42	96	3
NMHLD	42	96	6	288
NMTAP	42	288	4
NMTAP	43	0	3
NMHLD	43	96	2	288
NMTAP	43	288	4
NMTAP	44	0	5
NMHLD	44	96	6	288
NMTAP	44	288	4
NMTAP	45	0	4
NMTAP	45	96	3
NMSTR	45	96	7
NMSSR	45	96	7	96	192	3
NMTAP	46	0	2
NMHLD	46	96	1	288
NMTAP	46	96	4
NMTAP	46	240	3
NMTAP	46	288	3
NMTAP	47	0	4
NMHLD	47	96	5	288
NMTAP	47	240	3
NMTAP	47	288	3
NMTAP	48	0	2
NMHLD	48	96	1	192
NMTAP	48	240	3
NMTAP	48	288	3
NMSTR	49	0	2
NMSCR	49	0	2	96	96	5
EXTAP	49	240	7
EXTAP	49	288	7
NMSTR	50	0	6
NMSCL	50	0	6	96	96	3
NMSTR	50	192	2
NMSCL	50	192	2	96	96	7
NMSTR	51	0	4
NMSI_	51	0	4	96	96	7
NMSTR	51	192	0
NMSI_	51	192	0	96	96	3
NMTAP	52	0	6
NMTAP	52	96	4
NMTAP	52	96	5
NMTAP	52	192	3
NMTAP	52	288	4
NMTAP	52	288	5
NMHLD	53	0	6	72
NMHLD	53	72	5	72
NMTAP	53	144	4
NMTAP	53	192	4
NMTAP	53	288	2
NMTAP	53	288	3
NMSTR	54	0	1
NMSCR	54	0	1	96	96	4
NMSTR	54	192	5
NMSCR	54	192	5	96	96	0
NMSTR	55	0	2
NMSXL	55	0	2	96	192	0
NMHLD	56	0	6	72
NMHLD	56	72	5	72
NMTAP	56	144	4
NMHLD	56	192	3	72
NMHLD	56	264	2	72
NMTAP	56	336	1
NMTAP	57	0	0
NMTAP	57	0	7
NMTAP	57	48	0
NMTAP	57	48	7
NMTAP	57	240	2
NMTAP	57	240	5
NMTAP	57	288	2
NMHLD	57	288	5	1632
NMTTP	58	96	4	E	0	M1
NMTTP	58	288	5	E	0	M1
NMTTP	59	96	6	E	0	M1
NMTTP	59	288	7	E	0	M1
NMTTP	60	96	0	E	0	M1
NMTTP	60	288	1	E	0	M1
NMTTP	61	96	2	E	0	M1
NMTTP	61	288	3	E	0	M1
NMHLD	62	0	2	768
NMTTP	62	96	4	E	0	M1
NMTTP	62	288	5	E	0	M1
NMTTP	63	96	6	E	0	M1
NMTTP	63	288	7	E	0	M1
NMTAP	64	0	7
NMSTR	64	96	7
NMSI_	64	96	7	96	96	3
EXSTR	64	288	0
NMSCR	64	288	0	96	192	7
NMSTR	65	288	0
NMSI_	65	288	0	96	48	4
NMSTR	65	288	1
NMSI_	65	288	1	96	48	4
NMSTR	66	96	6
NMSI_	66	96	6	96	48	3
NMSTR	66	96	7
NMSI_	66	96	7	96	48	3
NMTAP	66	288	0
NMTAP	66	288	1
NMTAP	66	336	0
NMTAP	66	336	1
NMTAP	67	48	3
NMTAP	67	48	7
NMTAP	67	144	6
NMTAP	67	144	7
NMTAP	67	240	1
NMTAP	67	240	4
NMTAP	67	288	1
NMTAP	67	288	4
NMTAP	68	0	5
NMTAP	68	48	5
NMTAP	68	96	4
NMTAP	68	192	2
NMTAP	68	240	2
NMTAP	68	288	3
NMTAP	69	0	0
NMTAP	69	0	1
NMTAP	69	96	2
NMTAP	69	96	3
NMTAP	69	192	4
NMTAP	69	192	5
NMSTR	69	288	6
NMSI_	69	288	6	96	48	3
NMSTR	69	288	7
NMSI_	69	288	7	96	48	3
NMSTR	70	96	0
NMSI_	70	96	0	96	48	4
NMSTR	70	96	1
NMSI_	70	96	1	96	48	4
NMTAP	70	288	6
NMTAP	70	288	7
NMSTR	70	336	6
NMSCL	70	336	6	96	96	3
NMSTR	70	336	7
NMSCR	70	336	7	96	96	2
NMTAP	71	240	1
NMTAP	71	240	4
NMTAP	71	288	1
NMTAP	71	288	4
NMTAP	72	0	2
NMTAP	72	48	2
NMTAP	72	96	3
NMTAP	72	192	2
NMTAP	72	192	4
NMTAP	72	264	3
NMTAP	72	264	5
NMSTR	72	336	2
NMSI_	72	336	2	96	48	5
NMSTR	72	336	6
NMSI_	72	336	6	96	48	1
EXTAP	73	192	0
EXTAP	73	192	7
EXTAP	73	240	0
EXTAP	73	240	7
BXTAP	73	288	1
BXTAP	73	288	6
NMHLD	74	0	2	96
NMHLD	74	96	0	96
NMHLD	74	192	7	96
NMTAP	74	288	5
NMTAP	74	336	5
NMTAP	75	48	6
NMTAP	75	48	7
NMTAP	75	144	0
NMTAP	75	144	1
NMTAP	75	240	2
NMHLD	75	288	2	96
NMTAP	76	0	3
NMSTR	76	96	0
NMSI_	76	96	0	96	48	4
NMSTR	76	96	1
NMSI_	76	96	1	96	48	5
NMTAP	76	336	6
NMTAP	76	336	7
NMSTR	77	0	6
NMSCL	77	0	6	96	96	3
NMSTR	77	0	7
NMSUL	77	0	7	96	96	2
NMTAP	77	240	0
NMTAP	77	240	1
NMSTR	77	288	0
NMSI_	77	288	0	96	48	4
NMSTR	77	288	1
NMSI_	77	288	1	96	48	4
NMSTR	78	96	6
NMSI_	78	96	6	96	48	3
NMSTR	78	96	7
NMSI_	78	96	7	96	48	3
NMTAP	78	288	0
NMTAP	78	288	1
NMSTR	78	336	0
NMSCL	78	336	0	96	96	5
NMSTR	78	336	1
NMSCR	78	336	1	96	96	4
NMTAP	79	240	3
NMTAP	79	240	6
NMTAP	79	288	3
NMTAP	79	288	6
NMTAP	80	0	5
NMTAP	80	48	5
NMTAP	80	96	4
NMTAP	80	192	3
NMTAP	80	192	5
NMTAP	80	264	1
NMTAP	80	264	7
BRTAP	80	336	2
BRTAP	80	336	6

T_REC_TAP	244
T_REC_BRK	3
T_REC_XTP	10
T_REC_BXX	2
T_REC_HLD	65
T_REC_XHO	0
T_REC_BHO	0
T_REC_BXH	0
T_REC_STR	44
T_REC_BST	2
T_REC_XST	1
T_REC_XBS	0
T_REC_TTP	12
T_REC_THO	0
T_REC_SLD	47
T_REC_BSL	0
T_REC_ALL	430
T_NUM_TAP	311
T_NUM_BRK	7
T_NUM_HLD	65
T_NUM_SLD	47
T_NUM_ALL	430
T_JUDGE_TAP	318
T_JUDGE_HLD	222
T_JUDGE_SLD	47
T_JUDGE_ALL	587
TTM_EACHPAIRS	92
TTM_SCR_TAP	155500
TTM_SCR_BRK	18200
TTM_SCR_HLD	65000
TTM_SCR_SLD	70500
TTM_SCR_ALL	309200
TTM_SCR_S	299250
TTM_SCR_SS	308500
TTM_RAT_ACV	10022

