VERSION	0.00.00	1.04.00
FES_MODE	0
BPM_DEF	150.000	150.000	150.000	150.000
MET_DEF	4	4
RESOLUTION	384
CLK_DEF	384
COMPATIBLE_CODE	MA2

BPM	0	0	150.000
MET	0	0	4	4
MET	46	0	8	6
MET	52	288	4	4

NMTAP	1	192	2
NMTAP	1	192	5
NMTAP	1	240	3
NMTAP	1	256	7
NMTAP	1	272	3
NMTAP	1	288	7
NMTAP	1	304	3
NMTAP	1	320	7
NMTAP	1	336	3
NMTAP	1	352	7
NMTAP	1	368	3
BRTAP	2	0	0
NMTAP	2	48	4
EXTAP	2	72	7
NMTAP	2	120	3
EXTAP	2	144	0
NMTAP	2	192	4
EXTAP	2	216	7
NMTAP	2	264	3
EXTAP	2	288	1
NMTAP	2	336	4
EXTAP	2	360	6
NMTAP	3	24	3
EXTAP	3	48	1
NMTAP	3	96	4
EXTAP	3	120	6
NMTAP	3	168	3
EXTAP	3	192	2
NMTAP	3	240	4
EXTAP	3	264	5
BXTAP	3	336	0
BXTAP	3	336	4
NMTAP	4	64	0
NMTAP	4	80	7
NMTAP	4	96	1
NMTAP	4	112	6
NMTAP	4	128	1
NMTAP	4	144	6
NMTAP	4	160	1
NMTAP	4	176	6
NMTAP	4	192	2
NMTAP	4	208	5
NMTAP	4	224	2
NMTAP	4	240	5
NMTAP	4	256	2
NMTAP	4	272	5
NMTAP	4	288	3
NMTAP	4	304	4
NMTAP	4	320	3
NMTAP	4	336	4
NMTAP	4	352	3
NMTAP	4	368	4
EXTAP	5	0	1
NMTAP	5	48	2
NMTAP	5	72	2
NMTAP	5	72	3
NMTAP	5	120	1
NMHLD	5	120	4	264
NMTTP	5	168	0	A	0	M1
NMTTP	5	192	0	B	0	M1
NMTTP	5	216	0	C	0	M1
NMTTP	5	240	5	B	0	M1
NMTTP	5	264	5	A	0	M1
EXTAP	6	0	2
NMTAP	6	48	5
NMTAP	6	72	4
NMTAP	6	72	5
NMHLD	6	120	3	264
NMTAP	6	120	6
NMTTP	6	168	7	A	0	M1
NMTTP	6	192	7	B	0	M1
NMTTP	6	216	0	C	0	M1
NMTTP	6	240	2	B	0	M1
NMTTP	6	264	2	A	0	M1
EXTAP	7	0	5
NMTAP	7	48	2
NMTAP	7	72	2
NMTAP	7	72	3
NMTAP	7	120	1
NMHLD	7	120	4	264
NMTTP	7	168	0	A	0	M1
NMTTP	7	192	0	B	0	M1
NMTTP	7	216	0	C	0	M1
NMTTP	7	240	5	B	0	M1
NMTTP	7	264	5	A	0	M1
EXTAP	8	0	2
NMTAP	8	48	5
NMTAP	8	72	4
NMTAP	8	72	5
NMHLD	8	120	3	264
NMTAP	8	120	6
NMTTP	8	168	7	A	0	M1
NMTTP	8	192	7	B	0	M1
NMTTP	8	216	0	C	0	M1
NMTTP	8	240	2	B	0	M1
NMTTP	8	264	2	A	0	M1
NMTTP	8	288	1	A	0	M1
NMTTP	8	312	0	A	0	M1
NMTTP	8	336	7	A	0	M1
EXTAP	9	0	5
NMTAP	9	48	2
NMTAP	9	72	2
NMTAP	9	72	3
NMTAP	9	120	1
NMTAP	9	120	5
EXSTR	9	168	0
NMSI_	9	168	0	96	48	4
EXTAP	9	192	7
EXTAP	9	216	6
EXTAP	9	240	5
EXTAP	9	264	4
EXTAP	10	0	2
EXTAP	10	0	6
NMTAP	10	48	5
NMTAP	10	72	4
NMTAP	10	72	5
NMTAP	10	120	2
NMTAP	10	120	6
EXSTR	10	168	7
NMSI_	10	168	7	96	48	3
EXTAP	10	192	0
EXTAP	10	216	1
EXTAP	10	240	2
EXTAP	10	264	3
EXTAP	11	0	2
EXTAP	11	0	6
NMTAP	11	48	2
NMTAP	11	72	2
NMTAP	11	72	3
NMTAP	11	120	1
NMTAP	11	120	5
EXTAP	11	168	0
EXTAP	11	192	7
EXTAP	11	216	6
EXTAP	11	240	5
EXTAP	11	264	4
NMTAP	11	288	2
NMTAP	11	288	3
NMTAP	11	336	0
NMTAP	11	336	5
NMTAP	12	0	1
NMTAP	12	24	4
NMTAP	12	48	2
NMTAP	12	72	4
NMTAP	12	96	3
NMTAP	12	120	4
NMTAP	12	144	5
NMTAP	12	168	4
NMTAP	12	192	6
NMTAP	12	216	4
NMTAP	12	240	0
NMTAP	12	264	4
NMTAP	12	288	2
NMTAP	12	312	6
NMTAP	12	336	3
NMTAP	12	360	7
NMTAP	13	48	2
NMTAP	13	96	2
NMTAP	13	120	3
NMTAP	13	168	3
EXTAP	13	192	0
NMTAP	13	288	2
NMTAP	13	288	5
NMTAP	13	336	3
NMTAP	13	360	4
EXTAP	14	0	0
NMTAP	14	24	6
NMTAP	14	48	1
NMTAP	14	72	7
NMTAP	14	96	2
NMTAP	14	120	0
NMTAP	14	144	3
NMSTR	14	168	1
NMSCL	14	168	1	96	144	4
NMTAP	14	216	3
NMTAP	14	240	3
NMTAP	14	288	2
NMTAP	14	336	1
NMHLD	15	0	0	144
CNSUL	15	24	4	0	120	3
NMTAP	15	192	0
NMTAP	15	240	0
NMTAP	15	264	3
NMTAP	15	312	3
NMSTR	16	0	1
NMSI_	16	0	1	96	48	4
NMTAP	16	0	3
NMTAP	16	72	1
NMSTR	16	72	6
NMSCR	16	72	6	96	120	4
NMTAP	16	144	6
NMTAP	16	336	1
NMTAP	16	360	2
NMTAP	17	0	3
NMSTR	17	0	6
NMSI_	17	0	6	96	48	3
NMSTR	17	72	1
NMSCL	17	72	1	96	120	3
NMTAP	17	72	6
NMTAP	17	144	1
EXTAP	18	0	7
NMTAP	18	24	1
NMTAP	18	48	6
NMTAP	18	72	0
NMTAP	18	96	5
NMTAP	18	120	7
NMTAP	18	144	4
NMSTR	18	168	6
NMSCR	18	168	6	96	144	3
NMTAP	18	216	4
NMTAP	18	240	4
NMTAP	18	288	5
NMTAP	18	336	6
NMHLD	19	0	7	144
CNSUR	19	24	3	0	120	4
NMTAP	19	192	7
NMTAP	19	240	7
NMTAP	19	264	0
NMSTR	19	312	2
NMSCL	19	312	2	96	216	4
NMTAP	19	312	6
NMHLD	20	0	5	288
CNSUL	20	240	4	0	48	3
NMTAP	21	0	3
NMTAP	21	0	4
NMTAP	21	48	2
NMTAP	21	72	2
NMTAP	21	96	1
NMTAP	21	120	1
NMTAP	21	144	0
NMTAP	21	168	0
NMTAP	21	192	7
NMTAP	21	216	6
NMTAP	21	240	5
NMTAP	21	264	4
NMTAP	21	288	3
NMTAP	21	312	2
NMTAP	21	336	1
NMTAP	21	360	0
NMTAP	22	24	6
BXTAP	22	48	4
BXTAP	22	48	6
NMTAP	22	96	3
NMTAP	22	120	4
NMTAP	22	144	3
NMTAP	22	168	6
NMTAP	22	216	3
NMTAP	22	240	3
NMTAP	22	288	4
NMTAP	22	288	5
NMTAP	22	336	1
NMTAP	22	336	3
NMSTR	23	0	2
NMSXR	23	0	2	96	96	3
NMTAP	23	0	7
NMTAP	23	72	4
NMTAP	23	120	5
NMTAP	23	144	5
NMTAP	23	192	6
NMTAP	23	240	4
NMTAP	23	264	5
NMTAP	23	312	3
NMTAP	23	312	4
NMTAP	24	0	0
NMSTR	24	0	6
NMSI_	24	0	6	96	48	3
NMSTR	24	72	1
NMSI_	24	72	1	96	48	6
NMTAP	24	72	6
NMTAP	24	144	1
NMTAP	24	216	5
NMTAP	24	264	5
NMTAP	24	288	0
NMTAP	24	336	6
NMTAP	24	360	5
NMSTR	25	0	1
NMSI_	25	0	1	96	48	4
NMTAP	25	0	4
NMTAP	25	72	1
NMSTR	25	72	6
NMSI_	25	72	6	96	48	1
NMTAP	25	144	6
NMTAP	25	216	2
NMTAP	25	264	2
NMTAP	25	288	7
NMTAP	25	336	3
NMTAP	25	360	4
EXTAP	26	0	0
NMTAP	26	24	6
NMTAP	26	48	1
NMTAP	26	72	7
NMTAP	26	96	2
NMTAP	26	120	0
NMTAP	26	144	3
NMSTR	26	168	1
NMSCL	26	168	1	96	72	4
NMTAP	26	216	4
NMTAP	26	240	4
NMTAP	26	288	3
NMTAP	26	336	2
NMSTR	27	0	1
NMSI_	27	0	1	96	48	4
NMTAP	27	0	3
NMTAP	27	72	4
NMTAP	27	120	5
NMTAP	27	144	5
NMTAP	27	192	6
NMTAP	27	240	3
NMTAP	27	264	4
NMSTR	27	312	0
NMSSL	27	312	0	96	72	4
NMTAP	27	312	5
EXTAP	28	0	0
EXTAP	28	0	7
NMTAP	28	192	5
NMTAP	28	240	5
NMTAP	28	264	4
NMTAP	28	312	3
NMTAP	28	312	6
EXTAP	29	0	0
EXTAP	29	0	7
NMTAP	29	48	1
NMTAP	29	72	5
NMTAP	29	96	2
NMTAP	29	120	5
NMTAP	29	144	3
NMTAP	29	168	5
NMTAP	29	192	4
NMTAP	29	216	5
NMTAP	29	240	4
NMTAP	29	264	5
EXTAP	29	288	6
EXTAP	29	288	7
EXTAP	30	0	0
EXTAP	30	0	2
NMTAP	30	48	3
NMTAP	30	72	4
NMHLD	30	120	4	144
EXTAP	30	168	6
EXTAP	30	216	0
EXTAP	30	264	2
NMTAP	30	312	6
NMTAP	30	336	4
NMTAP	30	360	5
NMTAP	31	0	1
NMTAP	31	24	3
NMTAP	31	48	2
NMTAP	31	72	7
NMTAP	31	96	4
NMTAP	31	120	5
NMTAP	31	144	0
NMTAP	31	168	3
NMTAP	31	192	2
NMTAP	31	216	7
NMSTR	31	240	0
NMSI_	31	240	0	96	48	4
EXTAP	31	312	0
EXTAP	31	312	7
EXTAP	32	0	5
NMTAP	32	48	5
NMTAP	32	72	3
NMHLD	32	120	3	144
EXTAP	32	168	1
EXTAP	32	216	7
EXTAP	32	264	5
NMTAP	32	312	1
NMTAP	32	336	3
NMTAP	32	360	2
NMTAP	33	0	6
NMTAP	33	24	4
NMTAP	33	48	5
NMTAP	33	72	0
NMTAP	33	96	3
NMTAP	33	120	2
NMTAP	33	144	7
NMTAP	33	168	4
NMTAP	33	192	5
NMTAP	33	216	0
NMSTR	33	240	7
NMSI_	33	240	7	96	48	3
EXTAP	33	312	0
EXTAP	33	312	7
EXTAP	34	0	2
NMTAP	34	96	5
NMTAP	34	120	4
NMTAP	34	144	5
EXTAP	34	168	3
EXTAP	34	168	6
NMTAP	34	240	3
NMTAP	34	240	4
NMTAP	34	288	2
NMTAP	34	312	3
NMTAP	34	336	2
EXTAP	34	360	1
EXTAP	34	360	4
NMTAP	35	48	3
NMTAP	35	48	4
NMTAP	35	96	5
NMTAP	35	120	4
NMTAP	35	144	5
EXTAP	35	168	3
EXTAP	35	168	6
NMTAP	35	240	3
NMTAP	35	240	4
NMTAP	35	288	1
NMTAP	35	312	3
NMTAP	35	336	1
BXTAP	35	360	0
BXHLD	35	360	7	696
NMTAP	36	48	5
NMTAP	36	96	4
NMTAP	36	120	4
NMTAP	36	168	3
NMTAP	36	192	3
NMTAP	36	240	2
NMTAP	36	264	2
NMTAP	36	312	1
NMTAP	36	336	1
NMTAP	37	0	0
NMTAP	37	48	6
NMTAP	37	96	1
NMTAP	37	144	5
NMTAP	37	192	6
NMTAP	37	208	5
NMTAP	37	224	4
NMTAP	37	240	3
NMTAP	37	256	2
NMTAP	37	272	1
EXTAP	37	288	0
NMTAP	38	0	6
NMTAP	38	24	4
NMTAP	38	48	5
NMTAP	38	72	4
NMTTP	38	120	0	E	0	M1
NMTTP	38	144	7	E	0	M1
NMTTP	38	168	6	E	0	M1
NMTTP	38	216	2	E	0	M1
NMTTP	38	240	3	E	0	M1
NMTTP	38	264	4	E	0	M1
NMTAP	38	312	5
NMTAP	38	336	5
NMTAP	39	0	1
NMTAP	39	24	3
NMTAP	39	48	2
NMTAP	39	72	3
NMTTP	39	120	2	E	0	M1
NMTTP	39	144	3	E	0	M1
NMTTP	39	168	4	E	0	M1
NMTTP	39	216	6	E	0	M1
NMTAP	39	264	0
NMTAP	39	264	7
NMTAP	39	312	2
NMTAP	39	336	2
NMTAP	40	0	6
NMTAP	40	24	4
NMTAP	40	48	5
NMTAP	40	72	4
NMTTP	40	120	0	B	0	M1
NMTTP	40	120	7	B	0	M1
NMTTP	40	168	3	B	0	M1
NMTTP	40	168	4	B	0	M1
NMTTP	40	216	7	A	0	M1
NMTTP	40	240	6	A	0	M1
NMTTP	40	264	5	A	0	M1
NMTTP	40	312	2	A	0	M1
NMTTP	40	336	3	A	0	M1
NMTTP	40	360	4	A	0	M1
NMTAP	41	24	6
NMTAP	41	48	4
NMTAP	41	72	5
NMTAP	41	120	1
NMTAP	41	144	3
NMTAP	41	168	2
EXTAP	41	192	5
NMTAP	41	216	4
NMTAP	41	240	5
NMTAP	41	264	4
NMTAP	41	312	3
NMTAP	41	312	4
NMTAP	41	336	3
NMTAP	41	336	4
EXTAP	42	0	1
NMTAP	42	24	3
NMTAP	42	48	2
NMHLD	42	72	4	48
NMTAP	42	120	3
NMTAP	42	144	3
NMHLD	42	168	5	48
NMTAP	42	216	3
NMTAP	42	240	3
NMHLD	42	264	6	48
NMTAP	42	312	3
NMTAP	42	336	3
NMTAP	43	0	6
NMTAP	43	24	4
NMTAP	43	48	5
NMHLD	43	72	3	48
NMTAP	43	120	4
NMTAP	43	144	4
NMTAP	43	168	2
NMTAP	43	216	1
NMTAP	43	216	3
EXTAP	43	264	0
EXTAP	43	264	7
NMTAP	43	312	1
NMTAP	43	336	3
NMTAP	43	360	2
NMTAP	44	0	6
NMTAP	44	24	4
NMTAP	44	48	5
EXSTR	44	72	0
BRSI_	44	72	0	96	48	2
NMTAP	44	120	3
NMTAP	44	144	3
EXSTR	44	168	0
BRSI_	44	168	0	96	48	6
NMTAP	44	216	5
NMTAP	44	240	5
EXSTR	44	264	0
BRSCR	44	264	0	96	216	6
NMTAP	44	312	4
NMTAP	44	336	4
EXTAP	44	360	0
BXTAP	45	192	0
CNSXR	45	192	6	0	96	2
NMTTP	46	0	1	B	0	M1
NMTTP	46	48	6	E	0	M1
NMTTP	46	72	5	B	0	M1
NMTTP	46	96	4	B	0	M1
NMTTP	46	120	4	E	0	M1
NMTTP	46	144	2	B	0	M1
NMTTP	46	144	3	E	0	M1
NMTTP	46	192	6	B	0	M1
NMTTP	46	192	7	E	0	M1
NMTTP	46	240	1	B	0	M1
NMTTP	46	240	1	E	0	M1
NMTTP	46	288	4	B	0	M1
NMTTP	46	288	5	E	0	M1
NMTTP	46	336	3	B	0	M1
NMTTP	46	336	3	E	0	M1
NMTTP	47	0	7	B	0	M1
NMTTP	47	0	7	E	0	M1
NMTTP	47	48	0	B	0	M1
NMTTP	47	48	1	E	0	M1
NMTTP	47	120	5	E	0	M1
NMTTP	47	144	4	E	0	M1
NMTTP	47	168	3	E	0	M1
NMTTP	47	192	7	A	0	M1
NMTTP	47	240	6	A	0	M1
NMTTP	47	288	5	A	0	M1
NMTTP	47	336	4	A	0	M1
NMTTP	48	0	3	A	0	M1
NMTTP	48	48	2	A	0	M1
NMTTP	48	96	1	B	0	M1
NMTTP	48	96	1	A	0	M1
NMTTP	48	144	0	B	0	M1
NMTTP	48	144	0	A	0	M1
NMTTP	48	192	7	B	0	M1
NMTTP	48	192	7	A	0	M1
NMTTP	48	240	6	B	0	M1
NMTTP	48	240	6	A	0	M1
EXTAP	49	0	1
EXTAP	49	0	4
NMTAP	49	48	2
NMTAP	49	72	2
NMTAP	49	96	3
NMTAP	49	144	2
NMTAP	49	144	4
NMTAP	49	192	1
NMTAP	49	192	3
NMTAP	49	240	0
NMTAP	49	240	2
NMTAP	49	288	1
NMTAP	49	288	7
NMTAP	49	336	0
NMTAP	49	336	6
NMTAP	50	0	5
NMTAP	50	0	7
NMTAP	50	48	4
NMTAP	50	48	6
NMTAP	50	120	3
NMTAP	50	144	4
NMTAP	50	168	3
NMHLD	50	192	6	48
NMHLD	50	240	7	48
NMHLD	50	288	0	48
NMHLD	50	336	1	48
NMHLD	51	0	2	48
NMHLD	51	48	3	48
EXTAP	51	96	4
EXTAP	51	168	0
EXTAP	51	168	5
NMTAP	51	240	2
NMTAP	51	264	3
NMTAP	51	288	1
NMTAP	51	312	4
NMTAP	51	336	0
NMTAP	51	360	5
EXSTR	52	0	7
NMSCL	52	0	7	96	96	2
NMTAP	52	312	1
NMHLD	52	336	1	288
NMTAP	53	0	2
NMTAP	53	48	2
NMTAP	53	96	3
NMTAP	53	144	3
NMTAP	53	192	4
NMTAP	53	240	4
NMTAP	53	288	3
NMTAP	53	288	4
NMTAP	53	336	2
NMTAP	53	360	3
NMSTR	54	24	3
NMSI_	54	24	3	96	48	6
NMSTR	54	72	1
NMSI_	54	72	1	96	48	4
NMHLD	54	288	6	288
NMTAP	54	336	5
NMTAP	55	0	4
NMTAP	55	48	4
NMTAP	55	96	3
NMSTR	55	144	3
NMSCL	55	144	3	96	48	0
NMTAP	55	288	6
NMTAP	55	312	7
NMTAP	55	336	6
NMTAP	56	0	4
NMTAP	56	24	5
NMTAP	56	48	4
EXSTR	56	96	3
NMSCL	56	96	3	96	24	1
EXSTR	56	96	6
NMSCL	56	96	6	96	24	4
NMHLD	56	288	1	96
NMTAP	56	336	3
NMHLD	57	0	5	96
NMTAP	57	48	3
NMTAP	57	96	2
NMTAP	57	144	4
NMTAP	57	168	3
NMTAP	57	216	3
NMTAP	57	216	4
NMSTR	57	264	6
NMSCL	57	264	6	96	24	4
NMTAP	57	312	3
NMTAP	57	336	3
NMTAP	58	0	2
NMTAP	58	48	1
NMTAP	58	96	0
NMTAP	58	96	4
NMTAP	58	144	2
NMTAP	58	144	6
EXTAP	58	192	3
EXTAP	58	216	4
EXTAP	58	240	3
EXTAP	58	264	4
EXTAP	58	288	1
NMTAP	58	312	3
NMTAP	58	336	2
EXTAP	58	360	6
NMTAP	59	0	4
NMTAP	59	24	5
EXTAP	59	48	0
NMTAP	59	72	3
NMTAP	59	96	2
EXTAP	59	120	7
NMTAP	59	144	4
NMTAP	59	168	5
EXTAP	59	192	0
NMTAP	59	216	4
NMTAP	59	240	2
BXHLD	59	264	7	120
NMTAP	60	0	1
NMTAP	60	12	2
NMTAP	60	24	3
NMTAP	60	36	4
NMTAP	60	48	5
NMTAP	60	60	6
NMTAP	60	72	7
NMTAP	60	84	0
EXTAP	60	96	1
EXTAP	60	96	6
NMTAP	60	144	7
NMTAP	60	160	2
NMTAP	60	176	7
NMTAP	60	192	2
NMTAP	60	208	7
NMTAP	60	224	2
NMTAP	60	240	7
NMTAP	60	256	2
NMTAP	60	272	7
BRTAP	60	288	0
BRTAP	60	288	3
NMTAP	60	336	7
NMTAP	60	360	7
NMTAP	61	24	3
NMTAP	61	24	6
NMTAP	61	72	1
NMTAP	61	72	4
NMTAP	61	120	2
NMTAP	61	144	4
NMTAP	61	192	3
NMTAP	61	192	5
NMTAP	61	240	4
NMTAP	61	240	6
NMSTR	61	288	3
NMSLR	61	288	3	96	48	0
NMHLD	61	288	7	288
CNSLR	62	48	0	0	144	4
NMTAP	62	240	6
NMTAP	62	264	5
NMTAP	62	288	3
NMTAP	62	288	4
NMSTR	62	336	2
NMSCR	62	336	2	96	48	5
NMTAP	62	336	7
NMTAP	62	360	2
NMHLD	62	360	7	168
CNSUL	63	96	5	0	48	0
NMTAP	63	240	6
NMTAP	63	264	5
NMTAP	63	288	3
NMTAP	63	288	4
NMSTR	63	336	2
NMSCR	63	336	2	96	48	5
NMTAP	63	336	7
NMTAP	63	360	2
NMHLD	63	360	7	168
CNSUL	64	96	5	0	48	1
NMTAP	64	192	3
NMTAP	64	192	7
NMTAP	64	240	1
NMTAP	64	240	5
EXTAP	64	288	2
EXHLD	64	288	4	96
NMTAP	64	336	0
NMTAP	65	0	2
NMTAP	65	24	5
NMTAP	65	48	0
NMTAP	65	72	5
NMTAP	65	96	2
NMTAP	65	120	5
NMTAP	65	144	7
NMTAP	65	168	5
NMTAP	65	192	3
NMTAP	65	216	5
NMTAP	65	240	7
NMTAP	65	264	5
EXHLD	65	288	3	96
NMTAP	65	336	7
NMTAP	66	0	5
NMTAP	66	24	2
NMTAP	66	48	7
NMTAP	66	72	2
NMTAP	66	96	5
NMTAP	66	120	2
NMTAP	66	144	0
NMTAP	66	168	2
NMTAP	66	192	4
NMTAP	66	216	2
NMTAP	66	240	0
NMTAP	66	264	2
EXTAP	66	288	4
NMTAP	66	336	1
NMSTR	66	360	1
NMSCR	66	360	1	96	48	4
NMTAP	67	24	5
NMTAP	67	72	1
NMTAP	67	72	6
NMTAP	67	144	7
NMTAP	67	192	6
NMTAP	67	240	5
EXTAP	67	288	1
NMTAP	67	312	4
NMTAP	67	336	3
NMTAP	67	360	4
NMTAP	68	0	3
NMTAP	68	24	4
EXTAP	68	48	6
NMTAP	68	72	4
NMTAP	68	96	3
NMTAP	68	120	4
NMTAP	68	144	3
NMTAP	68	168	4
EXTAP	68	192	1
NMTAP	68	240	2
NMTAP	68	240	3
BXTAP	68	288	0
BXTAP	68	288	7
NMTAP	68	336	3
NMTAP	68	336	5
NMTAP	68	360	3
NMTAP	68	360	5
NMTAP	69	24	2
NMTAP	69	48	4
NMTAP	69	72	2
NMTAP	69	120	1
NMTAP	69	144	1
NMTAP	69	192	0
NMTAP	69	192	2
NMTAP	69	240	5
NMTAP	69	240	7
NMTAP	69	288	0
NMTAP	69	288	6
NMTAP	69	336	1
NMTAP	69	336	7
NMTAP	70	0	0
NMTAP	70	24	0
NMTAP	70	48	1
NMTAP	70	48	7
NMTAP	70	96	0
NMTAP	70	96	6
NMTAP	70	144	1
NMTAP	70	144	7
NMTAP	70	192	0
NMTAP	70	216	0
NMTAP	70	240	1
NMTAP	70	240	7
NMTAP	70	288	3
NMTAP	70	288	4
NMTAP	70	336	0
NMSTR	70	336	5
NMSCL	70	336	5	96	48	2
NMTAP	70	360	0
NMTAP	70	360	5
NMTAP	71	48	2
NMTAP	71	96	1
CNSUR	71	96	2	0	48	7
NMTAP	71	144	0
NMTAP	71	168	0
NMTAP	71	240	1
NMTAP	71	264	2
NMTAP	71	288	3
NMTAP	71	288	4
NMTAP	71	336	0
NMSTR	71	336	5
NMSCL	71	336	5	96	48	2
NMTAP	71	360	0
NMTAP	71	360	5
NMTAP	72	48	2
NMTAP	72	96	1
CNSUR	72	96	2	0	48	6
NMTAP	72	144	0
NMTAP	72	192	0
NMTAP	72	192	4
NMTAP	72	240	2
NMTAP	72	240	6
EXHLD	72	288	3	96
EXTAP	72	288	5
NMTAP	72	336	7
NMTAP	73	0	5
NMTAP	73	24	2
NMTAP	73	48	7
NMTAP	73	72	2
NMTAP	73	96	5
NMTAP	73	120	2
NMTAP	73	144	0
NMTAP	73	168	2
NMTAP	73	192	4
NMTAP	73	216	2
NMTAP	73	240	0
NMTAP	73	264	2
EXHLD	73	288	4	96
NMTAP	73	336	0
NMTAP	74	0	2
NMTAP	74	24	5
NMTAP	74	48	0
NMTAP	74	72	5
NMTAP	74	96	2
NMTAP	74	120	5
NMTAP	74	144	7
NMTAP	74	168	5
NMTAP	74	192	3
NMTAP	74	216	5
NMTAP	74	240	7
NMTAP	74	264	5
EXTAP	74	288	3
NMTAP	74	336	6
NMSTR	74	360	6
NMSCL	74	360	6	96	48	3
NMTAP	75	24	0
NMTAP	75	72	1
NMTAP	75	72	6
NMTAP	75	144	2
NMTAP	75	192	1
NMTAP	75	192	4
NMTAP	75	240	0
NMTAP	75	240	5
EXTAP	75	288	6
NMTAP	75	312	7
NMTAP	75	336	6
NMTAP	75	360	7
NMTAP	76	0	6
NMTAP	76	24	7
EXTAP	76	48	6
NMTAP	76	72	6
NMTAP	76	96	6
NMTAP	76	120	6
NMTAP	76	144	6
NMTAP	76	168	6
NMTAP	76	192	6
NMTAP	76	216	6
EXTAP	76	240	5
EXTAP	76	240	7
EXTAP	76	288	1
NMTAP	76	312	0
NMTAP	76	336	1
NMTAP	76	360	0
NMTAP	77	0	1
NMTAP	77	24	0
EXTAP	77	48	1
NMTAP	77	72	1
NMTAP	77	96	1
NMTAP	77	120	1
NMTAP	77	144	1
NMTAP	77	168	1
NMTAP	77	192	1
NMTAP	77	216	1
EXTAP	77	240	0
EXTAP	77	240	2
EXTAP	77	288	3
NMTAP	77	312	4
NMTAP	77	336	2
NMTAP	77	360	5
NMTAP	78	0	1
NMTAP	78	24	6
EXTAP	78	48	0
NMTAP	78	72	0
NMTAP	78	96	0
NMTAP	78	120	0
NMTAP	78	144	0
NMTAP	78	168	0
NMTAP	78	192	0
NMTAP	78	216	0
BRSTR	78	240	2
NMSXR	78	240	2	96	240	3
BRSTR	78	240	7
NMSXR	78	240	7	96	240	4
NMTAP	79	288	1
NMTAP	79	336	5
NMTAP	80	0	5
NMTAP	80	24	4
NMTAP	80	72	4
EXTAP	80	96	7
NMTAP	80	192	2
NMTAP	80	192	5
NMTAP	80	240	3
NMTAP	80	264	4
EXTAP	80	288	0
NMTAP	80	312	6
NMTAP	80	336	1
NMTAP	80	360	7
NMTAP	81	0	2
NMTAP	81	24	0
NMTAP	81	48	3
NMSTR	81	72	1
NMSCL	81	72	1	96	144	4
NMTAP	81	120	3
NMTAP	81	144	3
NMTAP	81	192	2
NMTAP	81	240	1
NMHLD	81	288	0	144
CNSUL	81	312	4	0	120	3
NMTAP	82	96	0
NMTAP	82	144	0
NMTAP	82	168	3
NMTAP	82	216	3
NMSTR	82	288	1
NMSI_	82	288	1	96	48	4
NMTAP	82	288	3
NMTAP	82	360	1
NMSTR	82	360	6
NMSCR	82	360	6	96	120	4
NMTAP	83	48	6
NMTAP	83	240	1
NMTAP	83	264	2
NMTAP	83	288	3
NMSTR	83	288	6
NMSI_	83	288	6	96	48	3
NMSTR	83	360	1
NMSCL	83	360	1	96	120	3
NMTAP	83	360	6
NMTAP	84	48	1
EXTAP	84	288	7
NMTAP	84	312	1
NMTAP	84	336	6
NMTAP	84	360	0
NMTAP	85	0	5
NMTAP	85	24	7
NMTAP	85	48	4
NMSTR	85	72	6
NMSCR	85	72	6	96	144	3
NMTAP	85	120	4
NMTAP	85	144	4
NMTAP	85	192	5
NMTAP	85	240	6
NMHLD	85	288	7	144
CNSUR	85	312	3	0	120	4
NMTAP	86	96	7
NMTAP	86	144	7
NMTAP	86	168	0
NMSTR	86	216	2
NMSCL	86	216	2	96	216	4
NMTAP	86	216	6
EXHLD	86	288	5	576
CNSUL	87	144	4	0	48	3
CNSI_	87	192	3	0	48	1
CNSI_	87	240	1	0	48	7
CNSI_	87	288	7	0	48	5
CNSI_	87	336	5	0	48	3
NMHLD	88	96	4	72
NMHLD	88	168	5	72
NMTAP	88	240	6
EXHLD	88	288	0	480
EXSTR	88	288	6
NMSCR	88	288	6	96	216	4
CNSUR	89	216	4	0	168	5
NMTAP	90	96	2
NMTAP	90	96	5
NMTAP	90	144	3
NMTAP	90	160	7
NMTAP	90	176	3
NMTAP	90	192	7
NMTAP	90	208	3
NMTAP	90	224	7
NMTAP	90	240	3
NMTAP	90	256	7
NMTAP	90	272	3
BRTAP	90	288	0
NMTAP	90	336	4
EXTAP	90	360	7
NMTAP	91	24	3
EXTAP	91	48	0
NMTAP	91	96	4
EXTAP	91	120	7
NMTAP	91	168	3
EXTAP	91	192	1
NMTAP	91	240	4
EXTAP	91	264	6
NMTAP	91	312	3
EXTAP	91	336	1
NMTAP	92	0	4
EXTAP	92	24	6
NMTAP	92	72	3
EXTAP	92	96	2
NMTAP	92	144	4
EXTAP	92	168	5
BXHLD	92	240	0	312
BXTAP	92	240	4
NMTTP	92	336	1	B	0	M1
NMTTP	92	336	1	A	0	M1
NMTTP	92	336	2	D	0	M1
NMTTP	93	24	6	B	0	M1
NMTTP	93	24	6	A	0	M1
NMTTP	93	24	7	D	0	M1
NMTTP	93	96	3	E	0	M1
NMTTP	93	96	3	A	0	M1
NMTTP	93	96	3	D	0	M1
NMTTP	93	168	5	B	0	M1
NMTTP	93	168	5	A	0	M1
NMTTP	93	168	6	D	0	M1
NMTAP	93	216	2
NMTAP	93	240	4
NMTAP	93	264	4
NMTAP	93	288	6
NMTAP	93	312	4
NMTAP	93	336	4
NMTAP	93	360	1
NMTAP	94	0	3
NMTAP	94	24	3
NMTAP	94	48	7
NMTAP	94	72	3
NMTAP	94	96	3
NMTAP	94	120	0
NMTAP	94	144	5
NMTAP	94	168	4
NMTAP	94	192	7
NMTAP	94	216	2
NMSTR	94	240	3
BRSI_	94	240	3	96	48	7
NMTAP	94	264	0
EXTAP	94	336	3
BXTAP	94	336	7
NMTTP	94	342	3	B	1	M1

T_REC_TAP	715
T_REC_BRK	4
T_REC_XTP	113
T_REC_BXX	10
T_REC_HLD	30
T_REC_XHO	6
T_REC_BHO	0
T_REC_BXH	3
T_REC_STR	36
T_REC_BST	2
T_REC_XST	9
T_REC_XBS	0
T_REC_TTP	92
T_REC_THO	0
T_REC_SLD	43
T_REC_BSL	4
T_REC_ALL	1067
T_NUM_TAP	965
T_NUM_BRK	23
T_NUM_HLD	36
T_NUM_SLD	43
T_NUM_ALL	1067
T_JUDGE_TAP	981
T_JUDGE_HLD	147
T_JUDGE_SLD	47
T_JUDGE_ALL	1175
TTM_EACHPAIRS	125
TTM_SCR_TAP	482500
TTM_SCR_BRK	59800
TTM_SCR_HLD	36000
TTM_SCR_SLD	64500
TTM_SCR_ALL	642800
TTM_SCR_S	621300
TTM_SCR_SS	640500
TTM_RAT_ACV	10035

