VERSION	0.00.00	1.04.00
FES_MODE	0
BPM_DEF	150.000	150.000	150.000	150.000
MET_DEF	4	4
RESOLUTION	384
CLK_DEF	384
COMPATIBLE_CODE	MA2

BPM	0	0	150.000
MET	0	0	4	4
MET	46	0	8	6
MET	52	288	4	4

NMTTP	1	192	0	C	1	M1
NMTTP	1	192	3	B	0	M1
NMTTP	1	192	4	B	0	M1
NMTTP	1	240	1	E	0	M1
NMTTP	1	256	2	E	0	M1
NMTTP	1	272	3	E	0	M1
NMTTP	1	288	4	E	0	M1
NMTTP	1	304	5	E	0	M1
NMTTP	1	320	6	E	0	M1
NMTTP	1	336	7	E	0	M1
EXTAP	2	0	0
EXTAP	2	0	7
EXTAP	2	72	0
EXTAP	2	72	7
EXTAP	2	144	4
EXTAP	2	144	5
EXTAP	2	216	1
EXTAP	2	216	7
EXTAP	2	288	2
EXTAP	2	288	3
EXTAP	2	360	2
EXTAP	2	360	3
EXTAP	3	48	0
EXTAP	3	48	6
EXTAP	3	120	4
EXTAP	3	120	5
EXTAP	3	192	0
EXTAP	3	192	1
EXTAP	3	264	5
EXTAP	3	264	7
EXSTR	3	336	2
NMSCL	3	336	2	96	240	4
EXHLD	3	336	3	336
BXTAP	5	0	1
BXTAP	5	0	6
NMHLD	5	144	4	528
NMSTR	5	144	5
NMSCL	5	144	5	96	48	3
NMTAP	6	0	3
NMTAP	6	72	3
NMSTR	6	144	3
NMSCR	6	144	3	96	48	5
NMTAP	7	0	5
NMTAP	7	72	5
NMSTR	7	144	4
NMSCR	7	144	4	96	48	6
NMHLD	7	144	5	528
NMTAP	8	0	6
NMTAP	8	72	6
NMSTR	8	144	6
NMSCL	8	144	6	96	48	4
NMTAP	9	0	4
NMTAP	9	0	5
NMTAP	9	72	3
NMHLD	9	144	2	528
NMSTR	9	144	4
NMSCL	9	144	4	96	48	1
NMTAP	10	0	1
NMTAP	10	72	1
NMSTR	10	144	1
NMSCR	10	144	1	96	48	3
NMTAP	11	0	2
NMTAP	11	0	3
NMTAP	11	72	4
NMSTR	11	144	3
NMSCR	11	144	3	96	48	6
NMHLD	11	144	5	144
NMTAP	12	0	0
NMTAP	12	0	7
NMTAP	12	48	0
NMTAP	12	48	7
NMTAP	12	96	1
NMTAP	12	96	6
NMTAP	12	144	1
NMTAP	12	144	6
NMTAP	12	192	3
NMTAP	12	216	4
NMTAP	12	240	3
NMTAP	12	264	4
NMTAP	12	288	2
NMTAP	12	312	5
NMSTR	12	336	2
NMSUR	12	336	2	96	144	4
NMTAP	12	360	5
BRTAP	13	288	4
BRTAP	13	288	5
EXTAP	14	0	6
NMTAP	14	48	7
NMTAP	14	96	0
NMTAP	14	144	1
NMHLD	14	168	1	72
NMTAP	14	240	2
NMTAP	14	288	2
NMSTR	15	0	0
NMSCR	15	0	0	96	48	2
NMHLD	15	0	3	192
NMTAP	15	192	2
NMTAP	15	240	3
NMTAP	15	264	3
NMTAP	15	312	2
NMTAP	15	312	4
EXHLD	16	0	1	72
NMTAP	16	72	2
NMSTR	16	144	2
NMSUL	16	144	2	96	96	5
NMSTR	16	144	3
NMSUL	16	144	3	96	96	5
EXHLD	17	0	6	72
NMTAP	17	72	5
NMSTR	17	144	4
NMSUR	17	144	4	96	96	2
NMSTR	17	144	5
NMSUR	17	144	5	96	96	2
EXTAP	18	0	1
NMTAP	18	48	0
NMTAP	18	96	7
NMTAP	18	144	6
NMHLD	18	168	6	72
NMTAP	18	240	5
NMTAP	18	288	5
NMHLD	19	0	4	192
NMSTR	19	0	7
NMSCL	19	0	7	96	48	5
NMTAP	19	192	5
NMTAP	19	240	4
NMTAP	19	264	4
NMTAP	19	312	3
NMTAP	19	312	5
EXSTR	20	0	2
NMSI_	20	0	2	96	48	7
EXTAP	20	0	7
NMSTR	20	144	6
NMSI_	20	144	6	96	48	3
NMTAP	20	288	2
NMTAP	21	0	2
NMTAP	21	0	3
NMTAP	21	48	2
NMTAP	21	48	3
NMTAP	21	96	1
NMTAP	21	96	4
NMTAP	21	144	1
NMTAP	21	144	4
NMTAP	21	192	5
NMTAP	21	216	4
NMTAP	21	240	5
NMTAP	21	264	4
NMTAP	21	288	6
NMTAP	21	312	3
NMTAP	21	336	6
NMTAP	21	360	3
BXTAP	22	48	0
BXTAP	22	48	7
NMTAP	22	144	1
NMTAP	22	144	6
EXTAP	22	168	1
EXTAP	22	168	6
NMTAP	22	240	5
NMTAP	22	288	5
NMHLD	23	0	4	192
NMSTR	23	0	7
NMSCL	23	0	7	96	48	5
NMTAP	23	192	5
NMTAP	23	240	4
NMTAP	23	264	4
NMTAP	23	312	3
NMTAP	23	312	5
EXHLD	24	0	6	72
NMTAP	24	72	5
NMSTR	24	144	4
NMSUR	24	144	4	96	96	2
NMSTR	24	144	5
NMSUR	24	144	5	96	96	2
EXHLD	25	0	1	72
NMTAP	25	72	2
NMSTR	25	144	2
NMSUL	25	144	2	96	96	5
NMSTR	25	144	3
NMSUL	25	144	3	96	96	5
EXTAP	26	0	6
NMTAP	26	48	7
NMTAP	26	96	0
NMTAP	26	144	1
NMHLD	26	168	1	72
NMTAP	26	240	2
NMTAP	26	288	2
NMSTR	27	0	0
NMSCR	27	0	0	96	48	2
NMHLD	27	0	3	192
NMTAP	27	192	2
NMTAP	27	240	3
NMTAP	27	264	3
NMTAP	27	312	2
NMTAP	27	312	4
EXTAP	28	0	0
EXSTR	28	0	5
NMSI_	28	0	5	96	48	0
NMSTR	28	144	1
NMSI_	28	144	1	96	48	4
NMTAP	28	288	5
NMTAP	29	0	4
NMTAP	29	0	5
NMTAP	29	48	4
NMTAP	29	48	5
NMTAP	29	96	3
NMTAP	29	96	6
NMTAP	29	144	3
NMTAP	29	144	6
NMTAP	29	192	7
NMTAP	29	216	0
NMTAP	29	240	7
NMTAP	29	264	0
BXTAP	29	288	7
EXTAP	30	0	1
EXTAP	30	0	4
NMTAP	30	48	2
NMTAP	30	72	3
NMTAP	30	120	1
NMTAP	30	120	4
EXTAP	30	168	2
EXTAP	30	168	3
EXTAP	30	216	1
EXTAP	30	216	4
EXSTR	30	264	0
NMSI_	30	264	0	96	72	2
EXTAP	30	264	5
CNSI_	31	48	2	0	72	4
CNSI_	31	120	4	0	72	1
EXTAP	31	240	0
EXTAP	31	240	1
NMTAP	31	288	1
NMTAP	31	312	0
EXTAP	32	0	3
EXTAP	32	0	6
NMTAP	32	48	5
NMTAP	32	72	4
NMTAP	32	120	3
NMTAP	32	120	6
EXTAP	32	168	4
EXTAP	32	168	5
EXTAP	32	216	3
EXTAP	32	216	6
EXTAP	32	264	2
EXSTR	32	264	7
NMSI_	32	264	7	96	72	5
CNSI_	33	48	5	0	72	3
CNSI_	33	120	3	0	72	6
EXTAP	33	240	6
EXTAP	33	240	7
NMTAP	33	288	6
NMTAP	33	312	7
EXHLD	34	0	0	168
EXTAP	34	0	5
NMTAP	34	96	7
EXHLD	34	168	6	192
NMTAP	34	240	5
NMTAP	34	288	5
EXHLD	34	360	4	192
NMTAP	35	48	3
NMTAP	35	96	3
EXHLD	35	168	2	120
NMTAP	35	240	1
NMTAP	35	288	1
BXHLD	35	360	0	312
BXHLD	35	360	3	600
NMTTP	37	0	0	B	0	M1
NMTTP	37	0	1	E	0	M1
NMTTP	37	96	5	B	0	M1
NMTTP	37	96	5	E	0	M1
NMTTP	37	192	2	B	0	M1
NMTTP	37	192	3	E	0	M1
BRTAP	37	288	0
BRTAP	37	288	5
EXTAP	38	0	1
EXTAP	38	0	3
NMTAP	38	48	2
NMHLD	38	72	2	48
NMTAP	38	120	3
NMTAP	38	168	1
NMTAP	38	216	0
NMTAP	38	216	7
NMTAP	38	264	6
EXTAP	39	0	4
EXTAP	39	0	6
NMTAP	39	48	5
NMHLD	39	72	5	48
NMTAP	39	120	4
NMTAP	39	168	6
NMTAP	39	216	0
NMTAP	39	216	7
NMTAP	39	264	1
EXTAP	40	0	2
EXTAP	40	0	3
NMTAP	40	48	1
NMHLD	40	72	1	48
NMTAP	40	120	0
NMTAP	40	168	2
NMTAP	40	216	3
NMTAP	40	216	4
NMTAP	40	264	5
NMTAP	40	312	6
NMTAP	40	312	7
NMTAP	40	360	0
NMTAP	41	24	1
NMTAP	41	24	7
NMTAP	41	72	2
NMTAP	41	120	3
NMTAP	41	144	3
EXSTR	41	192	1
NMSI_	41	192	1	96	48	3
EXSTR	41	192	5
NMSI_	41	192	5	96	48	3
EXTAP	42	0	2
EXTAP	42	0	4
NMTAP	42	48	1
NMHLD	42	72	1	48
NMTAP	42	120	2
NMTAP	42	168	0
NMTAP	42	216	6
NMTAP	42	216	7
NMTAP	42	264	5
EXTAP	43	0	3
EXTAP	43	0	5
NMTAP	43	48	6
NMHLD	43	72	6	48
NMTAP	43	120	5
NMTAP	43	168	7
NMTAP	43	216	0
NMTAP	43	216	1
NMTAP	43	264	2
EXTAP	44	0	3
EXTAP	44	0	4
NMTAP	44	48	1
EXHLD	44	72	1	48
NMTAP	44	120	2
EXTAP	44	168	0
EXTAP	44	168	7
NMTAP	44	216	6
EXTAP	44	264	4
EXTAP	44	264	5
NMTAP	44	312	3
BXSTR	44	360	2
NMSXR	44	360	2	96	264	3
BXSTR	44	360	4
NMSXL	44	360	4	96	264	3
NMTTP	46	0	0	C	1	M1
NMTTP	47	192	3	E	0	M1
NMTTP	47	336	4	E	0	M1
NMTTP	48	96	5	E	0	M1
NMTAP	48	240	3
NMTAP	48	240	4
NMSTR	49	0	2
NMSCR	49	0	2	96	48	4
NMTTP	49	144	3	B	0	M1
NMTTP	49	144	3	E	0	M1
NMSTR	49	288	5
NMSCL	49	288	5	96	48	3
NMTTP	50	48	4	B	0	M1
NMTTP	50	48	5	E	0	M1
NMSTR	50	192	1
NMSCR	50	192	1	96	48	3
NMTTP	50	336	2	B	0	M1
NMTTP	50	336	3	E	0	M1
BRTAP	51	96	6
BRTAP	51	96	7
BRTAP	51	168	2
BRTAP	51	168	3
BRTAP	51	240	4
BRTAP	51	240	5
BXSTR	51	312	1
BRSCL	51	312	1	96	216	4
BXSTR	51	312	6
BRSCR	51	312	6	96	216	3
NMTAP	52	336	3
NMTAP	53	0	3
NMTAP	53	24	4
NMTAP	53	72	4
NMTAP	53	120	3
NMTAP	53	168	3
NMTAP	53	192	4
NMTAP	53	240	4
NMTAP	53	336	3
NMTAP	54	0	3
NMTAP	54	24	4
NMTAP	54	72	4
NMTAP	54	120	3
NMTAP	54	168	3
NMTAP	54	192	4
NMTAP	54	240	4
NMTAP	54	336	2
NMTAP	55	0	2
NMTAP	55	24	4
NMTAP	55	72	4
NMTAP	55	120	2
NMTAP	55	168	2
NMTAP	55	192	4
NMTAP	55	240	4
NMTAP	55	336	5
NMTAP	56	0	5
NMTAP	56	24	3
NMTAP	56	72	3
NMTAP	56	120	5
NMTAP	56	168	5
NMTAP	56	192	3
NMTAP	56	240	3
NMTAP	56	336	1
NMTAP	56	336	4
NMTAP	57	0	2
NMTAP	57	24	3
NMTAP	57	72	1
NMTAP	57	72	4
NMTAP	57	120	1
NMTAP	57	120	4
NMTAP	57	168	3
NMTAP	57	192	2
NMTAP	57	240	1
NMTAP	57	240	4
NMTAP	57	336	3
NMTAP	57	336	6
NMTAP	58	0	5
NMTAP	58	24	4
NMTAP	58	72	3
NMTAP	58	72	6
NMTAP	58	120	3
NMTAP	58	120	6
NMTAP	58	168	4
NMTAP	58	192	5
NMTAP	58	240	3
NMTAP	58	240	6
EXTAP	58	288	0
EXTAP	58	288	1
EXTAP	58	360	3
EXTAP	58	360	5
EXTAP	59	48	6
EXTAP	59	48	7
EXTAP	59	120	2
EXTAP	59	120	3
EXTAP	59	192	4
EXTAP	59	192	6
EXSTR	59	264	2
BRSXR	59	264	2	96	216	4
EXSTR	59	264	5
BRSXL	59	264	5	96	216	3
BXTAP	60	288	1
BXTAP	60	288	6
NMTAP	60	336	0
NMTAP	60	336	7
NMTAP	60	360	0
NMTAP	60	360	7
NMTAP	61	24	1
NMTAP	61	24	6
NMHLD	61	72	2	72
NMTAP	61	72	5
NMTAP	61	144	3
NMTAP	61	192	2
NMTAP	61	192	4
NMTAP	61	240	1
NMTAP	61	240	5
NMSTR	61	288	0
NMSCL	61	288	0	96	144	2
NMSTR	61	288	6
NMSLL	61	288	6	96	144	2
NMTAP	62	240	1
NMTAP	62	288	0
NMSTR	62	336	1
NMSLR	62	336	1	96	144	5
NMSTR	62	336	7
NMSCR	62	336	7	96	144	5
NMTAP	62	360	1
NMTAP	62	360	7
NMTAP	63	240	6
NMTAP	63	288	7
NMSTR	63	336	0
NMSCL	63	336	0	96	144	2
NMSTR	63	336	6
NMSLL	63	336	6	96	144	2
NMTAP	63	360	0
NMTAP	63	360	6
NMHLD	64	288	2	48
NMTAP	64	336	3
NMTAP	65	0	2
NMTAP	65	0	3
NMTAP	65	48	1
NMTAP	65	48	4
NMHLD	65	72	1	168
NMTAP	65	72	4
NMTAP	65	144	0
NMTAP	65	240	3
NMHLD	65	288	5	48
NMTAP	65	336	4
NMTAP	66	0	4
NMTAP	66	0	5
NMTAP	66	48	3
NMTAP	66	48	6
NMTAP	66	72	3
NMHLD	66	72	6	168
NMTAP	66	144	7
NMTAP	66	240	4
NMTAP	66	288	3
NMTAP	66	336	4
NMTAP	66	360	4
NMTAP	67	24	3
NMTAP	67	24	5
NMTAP	67	72	4
NMHLD	67	72	6	72
NMTAP	67	144	7
NMTAP	67	192	5
NMTAP	67	192	7
NMTAP	67	288	0
NMTAP	67	312	7
NMTAP	67	336	0
NMTAP	67	360	7
NMTAP	68	0	0
BXTAP	68	48	1
BXTAP	68	48	6
NMTAP	68	144	2
NMTAP	68	144	3
NMTAP	68	192	2
NMTAP	68	192	3
NMTAP	68	288	3
NMTAP	68	288	4
NMTAP	68	336	0
NMTAP	68	336	7
NMTAP	68	360	0
NMTAP	68	360	7
NMTAP	69	24	1
NMTAP	69	24	6
NMTAP	69	72	2
NMHLD	69	72	5	72
NMTAP	69	144	4
NMTAP	69	192	3
NMTAP	69	192	5
NMTAP	69	240	2
NMTAP	69	240	6
NMSTR	69	288	1
BRSLR	69	288	1	96	144	5
NMSTR	69	288	7
BRSCR	69	288	7	96	144	5
NMTAP	70	240	6
NMTAP	70	288	7
NMSTR	70	336	0
BRSCL	70	336	0	96	144	2
NMSTR	70	336	6
BRSLL	70	336	6	96	144	2
NMTAP	70	360	0
NMTAP	70	360	6
NMTAP	71	240	1
NMTAP	71	288	0
NMSTR	71	336	1
BRSLR	71	336	1	96	144	5
NMSTR	71	336	7
BRSCR	71	336	7	96	144	5
NMTAP	71	360	1
NMTAP	71	360	7
NMHLD	72	288	5	48
NMTAP	72	336	4
NMTAP	73	0	4
NMTAP	73	0	5
NMTAP	73	48	3
NMTAP	73	48	6
NMTAP	73	72	3
NMHLD	73	72	6	168
NMTAP	73	144	7
NMTAP	73	240	4
NMHLD	73	288	2	48
NMTAP	73	336	3
NMTAP	74	0	2
NMTAP	74	0	3
NMTAP	74	48	1
NMTAP	74	48	4
NMHLD	74	72	1	168
NMTAP	74	72	4
NMTAP	74	144	0
NMTAP	74	240	3
NMTAP	74	288	4
NMTAP	74	336	3
NMTAP	74	360	3
NMTAP	75	24	2
NMTAP	75	24	4
NMHLD	75	72	1	72
NMTAP	75	72	3
NMTAP	75	144	0
NMTAP	75	192	0
NMTAP	75	192	2
NMTAP	75	288	2
NMTAP	75	312	3
EXTAP	75	336	2
NMTAP	75	360	3
NMTAP	76	0	2
NMTAP	76	24	3
EXTAP	76	48	2
NMTAP	76	72	3
NMTAP	76	96	1
NMTAP	76	120	4
EXTAP	76	144	1
NMTAP	76	168	4
NMTAP	76	192	1
NMTAP	76	216	4
EXTAP	76	240	1
NMTAP	76	288	6
NMTAP	76	312	7
EXTAP	76	336	6
NMTAP	76	360	7
NMTAP	77	0	6
NMTAP	77	24	7
EXTAP	77	48	6
NMTAP	77	72	7
NMTAP	77	96	5
NMTAP	77	120	0
EXTAP	77	144	5
NMTAP	77	168	0
NMTAP	77	192	5
NMTAP	77	216	0
EXTAP	77	240	5
NMTAP	77	288	3
NMTAP	77	312	4
EXTAP	77	336	3
NMTAP	77	360	4
NMTAP	78	0	2
NMTAP	78	24	5
EXTAP	78	48	2
NMTAP	78	72	5
NMTAP	78	96	1
NMTAP	78	120	6
EXTAP	78	144	1
NMTAP	78	168	6
NMTAP	78	192	1
BXSTR	78	240	0
NMSSL	78	240	0	96	240	4
BXSTR	78	240	7
NMSSR	78	240	7	96	240	3
NMTAP	79	336	3
NMTAP	80	0	3
NMTAP	80	24	4
NMTAP	80	72	4
NMTAP	80	120	3
NMTAP	80	168	3
NMTAP	80	192	4
NMTAP	80	240	4
EXTAP	80	288	1
NMTAP	80	336	0
NMTAP	81	0	7
NMTAP	81	48	6
NMHLD	81	72	6	72
NMTAP	81	144	4
NMTAP	81	192	5
NMTAP	81	240	6
NMHLD	81	288	4	192
NMSTR	81	288	7
NMSCL	81	288	7	96	48	5
NMTAP	82	96	5
NMTAP	82	144	4
NMTAP	82	168	4
NMTAP	82	216	3
NMTAP	82	216	5
EXHLD	82	288	1	72
NMTAP	82	360	2
NMSTR	83	48	2
NMSUL	83	48	2	96	96	5
NMSTR	83	48	3
NMSUL	83	48	3	96	96	5
EXHLD	83	288	6	72
NMTAP	83	360	5
NMSTR	84	48	4
NMSUR	84	48	4	96	96	2
NMSTR	84	48	5
NMSUR	84	48	5	96	96	2
EXTAP	84	288	1
NMTAP	84	336	0
NMTAP	85	0	7
NMTAP	85	48	6
NMHLD	85	72	6	72
NMTAP	85	144	4
NMTAP	85	192	5
NMTAP	85	240	6
NMHLD	85	288	4	192
NMSTR	85	288	7
NMSCL	85	288	7	96	48	5
NMTAP	86	96	5
NMTAP	86	144	4
NMTAP	86	168	4
NMTAP	86	216	3
NMTAP	86	216	5
EXSTR	86	288	2
NMSCL	86	288	2	96	384	3
EXHLD	86	288	6	480
NMTTP	88	96	3	E	0	M1
NMTTP	88	168	4	E	0	M1
NMTTP	88	240	5	E	0	M1
EXHLD	88	288	3	480
EXSTR	88	288	5
NMSCR	88	288	5	96	384	4
NMTTP	90	96	0	C	1	M1
NMTTP	90	96	3	B	0	M1
NMTTP	90	96	4	B	0	M1
NMTTP	90	144	1	E	0	M1
NMTTP	90	160	2	E	0	M1
NMTTP	90	176	3	E	0	M1
NMTTP	90	192	4	E	0	M1
NMTTP	90	208	5	E	0	M1
NMTTP	90	224	6	E	0	M1
NMTTP	90	240	7	E	0	M1
EXTAP	90	288	0
EXTAP	90	288	7
EXTAP	90	360	0
EXTAP	90	360	7
EXTAP	91	48	4
EXTAP	91	48	5
EXTAP	91	120	1
EXTAP	91	120	7
EXTAP	91	192	2
EXTAP	91	192	3
EXTAP	91	264	0
EXTAP	91	264	6
EXTAP	91	336	4
EXTAP	91	336	5
EXTAP	92	24	0
EXTAP	92	24	1
EXTAP	92	96	5
EXTAP	92	96	7
EXTAP	92	168	1
EXTAP	92	168	3
BXSTR	92	240	0
NMSI_	92	240	0	96	120	5
BXHLD	92	240	4	288
CNSI_	93	72	5	0	72	3
NMTAP	93	216	3
NMTAP	93	240	4
NMTAP	93	264	3
NMTAP	93	288	5
NMTAP	93	312	4
NMTAP	93	336	5
NMTAP	93	360	2
NMTAP	94	0	3
NMTAP	94	24	2
NMTAP	94	48	4
NMTAP	94	72	3
NMTAP	94	96	4
EXTAP	94	120	2
EXTAP	94	144	3
EXTAP	94	168	1
EXTAP	94	192	4
EXTAP	94	216	0
EXTAP	94	240	5
EXTAP	94	264	7
BXTAP	94	336	1
BXTAP	94	336	6

T_REC_TAP	398
T_REC_BRK	10
T_REC_XTP	112
T_REC_BXX	11
T_REC_HLD	32
T_REC_XHO	14
T_REC_BHO	0
T_REC_BXH	3
T_REC_STR	43
T_REC_BST	0
T_REC_XST	11
T_REC_XBS	7
T_REC_TTP	39
T_REC_THO	0
T_REC_SLD	51
T_REC_BSL	10
T_REC_ALL	741
T_NUM_TAP	603
T_NUM_BRK	41
T_NUM_HLD	46
T_NUM_SLD	51
T_NUM_ALL	741
T_JUDGE_TAP	631
T_JUDGE_HLD	184
T_JUDGE_SLD	61
T_JUDGE_ALL	876
TTM_EACHPAIRS	165
TTM_SCR_TAP	301500
TTM_SCR_BRK	106600
TTM_SCR_HLD	46000
TTM_SCR_SLD	76500
TTM_SCR_ALL	530600
TTM_SCR_S	510750
TTM_SCR_SS	526500
TTM_RAT_ACV	10077

