VERSION	0.00.00	1.04.00
FES_MODE	0
BPM_DEF	200.000	200.000	200.000	200.000
MET_DEF	4	4
RESOLUTION	384
CLK_DEF	384
COMPATIBLE_CODE	MA2

BPM	0	0	200.000
MET	0	0	4	4

BXSTR	2	0	2
NMSI_	2	0	2	96	48	4
BXHLD	2	0	5	96
NMHLD	2	144	5	96
NMHLD	2	288	5	96
NMHLD	3	48	5	96
NMTAP	3	192	5
NMTAP	3	288	4
NMSTR	3	288	5
NMSCR	3	288	5	96	288	2
NMHLD	4	0	3	96
NMHLD	4	144	3	96
NMHLD	4	288	3	96
NMHLD	5	48	3	96
NMTAP	5	192	3
NMSTR	5	288	2
BRSI_	5	288	2	96	48	4
NMTAP	5	288	4
BXTAP	6	0	5
NMTAP	6	96	5
NMTAP	6	192	5
NMTAP	6	288	5
NMTAP	6	336	3
NMTAP	7	0	5
NMTAP	7	48	4
NMTAP	7	96	5
NMTAP	7	144	2
NMTAP	7	192	5
NMTAP	7	240	4
NMTAP	7	288	3
NMTAP	7	288	5
NMTAP	8	0	5
NMTAP	8	48	4
NMTAP	8	96	3
NMTAP	8	96	5
NMTAP	8	144	2
NMHLD	8	192	1	240
NMTAP	8	192	4
NMTAP	8	288	3
NMHLD	8	336	3	96
NMTAP	9	96	1
NMTAP	9	96	3
NMSTR	9	192	0
NMSI_	9	192	0	96	48	2
NMSTR	9	192	4
NMSI_	9	192	4	96	48	6
NMTAP	10	0	3
EXTAP	10	0	7
NMTAP	10	96	3
NMTAP	10	96	6
NMTAP	10	192	3
NMTAP	10	192	5
NMTAP	10	288	3
NMTAP	10	288	4
NMTAP	10	336	4
NMTAP	11	0	2
NMTAP	11	0	4
NMTAP	11	96	1
NMTAP	11	96	3
NMSTR	11	192	0
NMSI_	11	192	0	96	48	2
NMSTR	11	192	4
NMSI_	11	192	4	96	48	6
NMTAP	12	0	3
EXTAP	12	0	7
NMTAP	12	96	3
NMTAP	12	96	6
NMTAP	12	192	3
NMTAP	12	192	5
NMTAP	12	288	3
NMTAP	12	288	4
NMTAP	12	336	4
NMSTR	13	0	2
NMSI_	13	0	2	96	48	5
NMTAP	13	0	4
NMTAP	13	96	5
EXSTR	13	192	4
NMSI_	13	192	4	96	48	1
EXSTR	13	192	6
NMSI_	13	192	6	96	48	3
EXTAP	14	0	0
NMTAP	14	48	0
NMTAP	14	96	1
NMTAP	14	96	7
NMTAP	14	144	6
EXTAP	14	192	5
NMTAP	14	240	5
NMTAP	14	288	4
NMTAP	14	288	6
NMTAP	14	336	3
EXTAP	15	0	2
NMTAP	15	48	2
NMTAP	15	96	1
NMTAP	15	96	3
NMTAP	15	144	4
NMTAP	15	192	3
EXTAP	15	192	5
NMTAP	15	240	6
NMTAP	15	288	2
NMHLD	15	288	7	96
NMTAP	16	0	0
NMTAP	16	24	7
NMTAP	16	48	0
NMTAP	16	72	7
NMTAP	16	96	1
NMTAP	16	120	6
NMTAP	16	144	1
NMTAP	16	168	6
NMTAP	16	192	2
NMTAP	16	216	5
NMTAP	16	240	2
NMTAP	16	264	5
NMTAP	16	288	3
NMTAP	16	312	4
NMTAP	16	336	3
NMTAP	16	360	4
NMSTR	17	0	2
NMSCR	17	0	2	96	48	5
NMTAP	17	48	2
NMSTR	17	96	7
NMSI_	17	96	7	96	48	3
EXTAP	17	192	1
NMSTR	17	288	0
BRSI_	17	288	0	96	48	3
BRSTR	18	0	0
BRSI_	18	0	0	96	48	5
EXTAP	18	0	7
BRSTR	18	96	0
BRSI_	18	96	0	96	48	2
EXTAP	18	96	1
BRSTR	18	192	0
BRSI_	18	192	0	96	48	6
EXTAP	18	192	7
BRSTR	18	288	0
BRSI_	18	288	0	96	48	3
EXTAP	18	288	1
BRSTR	19	0	0
BRSI_	19	0	0	96	48	5
EXTAP	19	0	7
BRSTR	19	96	0
BRSI_	19	96	0	96	48	4
EXTAP	19	96	1
BRTAP	19	192	0
EXTAP	19	192	7
EXSTR	19	288	7
BRSCL	19	288	7	96	48	4
EXTAP	20	0	0
BRSTR	20	0	7
BRSCR	20	0	7	96	48	2
EXTAP	20	96	6
BRSTR	20	96	7
BRSI_	20	96	7	96	48	3
EXTAP	20	192	0
BRTAP	20	192	7
BRSTR	20	288	1
BRSI_	20	288	1	96	48	4
BRSTR	20	288	5
BRSI_	20	288	5	96	48	0
BRTAP	21	0	1
BRTAP	21	0	5
NMTAP	21	96	3
NMTAP	21	96	7
NMTAP	21	144	1
NMTAP	21	144	5
NMTAP	21	240	6
NMTAP	21	240	7
NMTAP	21	288	6
NMSTR	21	288	7
BRSI_	21	288	7	96	48	2
EXTAP	22	0	5
BRSTR	22	0	7
BRSI_	22	0	7	96	48	4
EXTAP	22	96	0
BRSTR	22	96	7
BRSI_	22	96	7	96	48	1
EXTAP	22	192	6
BRSTR	22	192	7
BRSI_	22	192	7	96	48	5
EXTAP	22	288	0
BRSTR	22	288	7
BRSI_	22	288	7	96	48	2
EXTAP	23	0	6
BRSTR	23	0	7
BRSI_	23	0	7	96	48	4
EXTAP	23	96	1
BRSTR	23	96	7
BRSI_	23	96	7	96	48	3
EXTAP	23	192	6
BRTAP	23	192	7
BXTAP	23	288	2
BXTAP	23	288	4
NMHLD	24	0	3	144
NMTAP	24	96	4
NMHLD	24	144	5	96
NMTAP	24	240	4
NMTAP	24	288	5
NMTAP	24	336	3
NMSTR	24	336	6
NMSI_	24	336	6	96	48	2
NMSTR	25	48	0
NMSI_	25	48	0	96	48	5
NMTAP	25	144	7
NMHLD	25	192	7	96
NMTAP	25	288	4
NMTAP	25	312	3
NMTAP	25	336	2
NMTAP	25	360	1
BXTAP	26	0	0
BXTAP	26	0	6
BXTAP	26	48	0
BXTAP	26	48	6
BXTAP	26	96	1
BXTAP	26	96	5
NMTAP	26	192	2
NMTAP	26	192	4
NMTAP	26	240	5
NMTAP	26	264	4
NMTAP	26	288	6
NMTAP	26	336	2
NMTAP	26	360	3
NMTAP	27	0	1
NMTAP	27	48	6
NMTAP	27	72	7
NMTAP	27	96	6
NMTAP	27	144	1
NMTAP	27	144	5
NMSTR	27	192	2
NMSI_	27	192	2	96	48	7
NMTAP	27	240	2
NMTAP	27	288	7
NMTAP	27	336	6
CNSI_	27	336	7	0	48	3
NMTAP	28	0	5
NMTAP	28	48	5
NMTAP	28	72	4
NMTAP	28	96	6
NMTAP	28	144	2
NMTAP	28	168	3
NMTAP	28	192	1
NMTAP	28	240	1
NMTAP	28	288	0
NMTAP	28	288	6
BXTAP	28	336	1
BXTAP	28	336	5
NMTAP	29	48	6
NMTAP	29	72	4
NMTAP	29	96	5
NMTAP	29	144	2
NMTAP	29	168	3
NMSTR	29	192	2
NMSCR	29	192	2	96	48	5
NMTAP	29	240	1
EXTAP	29	288	2
EXTAP	29	288	7
BXTAP	30	0	0
BXTAP	30	0	6
NMTAP	30	48	6
NMTAP	30	72	7
NMTAP	30	96	5
NMTAP	30	144	1
NMTAP	30	168	0
NMSTR	30	192	2
BRSI_	30	192	2	96	48	5
NMTAP	30	240	7
EXTAP	30	288	2
NMTAP	30	288	6
BXTAP	31	0	1
BXTAP	31	0	7
NMTAP	31	48	2
NMTAP	31	72	3
NMTAP	31	96	1
NMTAP	31	144	5
NMTAP	31	168	4
NMSTR	31	192	6
NMSI_	31	192	6	96	48	3
NMTAP	31	240	3
NMTAP	31	288	2
EXTAP	31	288	6
BXTAP	32	0	0
BXTAP	32	0	4
NMTAP	32	48	1
NMTAP	32	72	3
NMTAP	32	96	2
NMTAP	32	144	5
NMTAP	32	168	4
NMTAP	32	192	6
NMSTR	32	240	3
NMSCL	32	240	3	96	48	0
NMSTR	32	240	7
NMSCL	32	240	7	96	48	4
EXTAP	32	336	3
EXTAP	32	336	7
EXTAP	33	48	3
EXTAP	33	48	7
NMSTR	33	96	1
NMSI_	33	96	1	96	48	4
NMSTR	33	96	5
NMSI_	33	96	5	96	48	0
BRTAP	33	192	1
BRTAP	33	192	5
NMTAP	33	288	3
NMTAP	33	288	7
NMHLD	34	0	1	384
NMTAP	34	96	3
NMTAP	34	144	3
NMTAP	34	192	3
NMTAP	34	288	0
NMHLD	35	0	5	288
NMTAP	35	96	7
NMTAP	35	144	7
NMTAP	35	192	7
NMTAP	35	288	4
EXTAP	36	0	3
NMTAP	36	48	3
EXTAP	36	96	2
EXTAP	36	96	4
NMTAP	36	144	2
NMTAP	36	144	4
EXTAP	36	192	1
NMTAP	36	216	5
NMTAP	36	240	1
NMTAP	36	264	5
EXTAP	36	288	0
NMTAP	36	312	6
NMTAP	36	336	0
NMTAP	36	360	6
BRSTR	37	0	7
NMSCL	37	0	7	96	48	4
NMTAP	37	48	0
NMTAP	37	96	1
NMHLD	37	144	2	96
NMTAP	37	240	3
BRTAP	37	288	1
BRTAP	37	288	4
NMSTR	38	0	3
NMSI_	38	0	3	96	48	7
NMSTR	38	0	4
NMSI_	38	0	4	96	48	0
NMTAP	38	96	3
NMTAP	38	96	4
BXTAP	38	192	2
BXHLD	38	192	6	480
NMTTP	38	288	2	E	0	M1
NMTTP	38	336	3	E	0	M1
NMTTP	39	0	6	B	0	M1
NMTTP	39	48	4	B	0	M1
NMTTP	39	96	1	B	0	M1
NMTTP	39	144	3	B	0	M1
NMTTP	39	192	6	E	0	M1
NMTTP	39	240	5	E	0	M1
NMTTP	39	288	0	B	0	M1
NMTTP	39	288	1	B	0	M1
EXHLD	40	0	2	96
EXSTR	40	0	7
NMSI_	40	0	7	96	48	3
NMTAP	40	96	7
BXHLD	40	192	1	480
BXTAP	40	192	5
NMTTP	40	288	6	E	0	M1
NMTTP	40	336	5	E	0	M1
NMTTP	41	0	1	B	0	M1
NMTTP	41	48	3	B	0	M1
NMTTP	41	96	6	B	0	M1
NMTTP	41	144	4	B	0	M1
NMTTP	41	192	2	E	0	M1
NMTTP	41	240	3	E	0	M1
NMTTP	41	288	0	C	1	M1
NMTTP	41	288	7	B	0	M1
EXSTR	42	0	0
BRSI_	42	0	0	96	48	4
EXHLD	42	0	5	96
NMTAP	42	96	0
BXTAP	42	192	2
BXHLD	42	192	6	480
NMTTP	42	288	2	E	0	M1
NMTTP	42	336	3	B	0	M1
NMTTP	43	0	5	B	0	M1
NMTTP	43	48	4	E	0	M1
NMTTP	43	96	1	E	0	M1
NMTTP	43	144	0	C	0	M1
NMTTP	43	192	6	B	0	M1
NMTTP	43	240	4	B	0	M1
NMTTP	43	288	0	B	0	M1
NMTTP	43	288	0	A	0	M1
EXHLD	44	0	1	96
EXSTR	44	0	7
BRSI_	44	0	7	96	48	3
CNSI_	44	144	3	0	48	7
NMTAP	44	192	2
NMTAP	44	288	0
NMTAP	44	288	6
NMHLD	44	336	0	96
NMHLD	44	336	6	96
NMSTR	45	96	1
NMSI_	45	96	1	96	48	4
NMSTR	45	96	5
NMSI_	45	96	5	96	48	0
NMTAP	45	192	1
NMTAP	45	192	5
NMSTR	45	288	1
BRSI_	45	288	1	96	48	6
NMSTR	45	288	5
BRSI_	45	288	5	96	48	2
BRTAP	46	0	1
BRTAP	46	0	5
NMTAP	46	96	0
NMTAP	46	96	4
NMTAP	46	144	1
BRTAP	46	192	2
EXSTR	46	192	3
NMSI_	46	192	3	96	48	7
NMTAP	46	240	4
NMTAP	46	288	3
NMTAP	46	288	5
NMTAP	46	336	6
EXSTR	47	0	0
NMSI_	47	0	0	96	48	4
NMSTR	47	48	5
NMSI_	47	48	5	96	48	0
NMTAP	47	96	0
NMTAP	47	144	5
EXSTR	47	192	1
NMSI_	47	192	1	96	48	4
NMSTR	47	240	6
NMSI_	47	240	6	96	48	2
NMTAP	47	288	1
NMTAP	47	336	6
EXTAP	48	0	0
NMTAP	48	48	1
EXTAP	48	96	2
NMTAP	48	96	4
NMTAP	48	144	5
BRTAP	48	192	4
EXSTR	48	192	6
NMSI_	48	192	6	96	48	2
NMTAP	48	240	3
NMTAP	48	288	2
NMTAP	48	288	6
NMTAP	48	336	1
NMSTR	49	0	0
NMSI_	49	0	0	96	48	6
NMSTR	49	48	5
NMSI_	49	48	5	96	48	3
NMTAP	49	96	0
NMTAP	49	144	5
NMSTR	49	192	0
BRSI_	49	192	0	96	48	2
BRSI_	49	192	0	96	48	4
EXTAP	49	288	0
NMTAP	50	0	6
NMTAP	50	0	7
NMTAP	50	48	0
NMTAP	50	48	5
NMHLD	50	96	1	48
NMHLD	50	96	4	48
NMHLD	50	192	1	48
NMHLD	50	192	4	48
NMHLD	50	288	2	48
NMHLD	50	288	3	48
NMTAP	51	0	1
NMTAP	51	0	4
NMTAP	51	48	2
NMTAP	51	96	2
NMTAP	51	144	3
NMTAP	51	144	6
NMTAP	51	192	5
NMTAP	51	240	5
NMTAP	51	288	1
NMTAP	51	288	4
NMTAP	51	336	2
NMTAP	52	0	3
NMTAP	52	0	5
NMTAP	52	48	3
NMTAP	52	48	5
NMTAP	52	96	2
NMTAP	52	96	6
NMTAP	52	144	2
NMTAP	52	144	6
NMTAP	52	192	1
NMTAP	52	216	7
NMTAP	52	240	2
NMTAP	52	264	6
NMTAP	52	288	3
NMTAP	52	312	5
NMTAP	52	336	3
NMTAP	52	360	5
NMSTR	53	0	2
NMSI_	53	0	2	96	48	7
NMTAP	53	96	2
NMSTR	53	96	6
NMSI_	53	96	6	96	48	3
NMSTR	53	192	1
NMSI_	53	192	1	96	48	5
NMTAP	53	192	6
NMTAP	53	288	1
NMSTR	53	288	7
BRSUL	53	288	7	96	48	3
BRSUR	53	288	7	96	48	3
NMTTP	54	0	0	C	1	M1
BRSTR	54	0	7
NMSI_	54	0	7	96	288	5
CNSI_	55	0	5	0	384	3
CNSI_	56	0	3	0	384	1
CNSI_	57	0	1	0	288	7
NMTTP	58	0	0	C	0	M1
NMTTP	58	0	7	E	0	M1
NMTTP	58	96	0	C	0	M1
NMTTP	58	96	6	E	0	M1
NMTTP	58	192	0	C	0	M1
NMTTP	58	192	5	E	0	M1
NMTTP	58	288	0	C	0	M1
NMTTP	58	288	4	E	0	M1
NMTTP	59	0	0	C	0	M1
NMTTP	59	0	1	E	0	M1
NMTTP	59	96	0	C	0	M1
NMTTP	59	96	2	E	0	M1
NMTTP	59	192	0	C	0	M1
NMTTP	59	192	3	E	0	M1
NMTTP	59	288	0	C	0	M1
NMTTP	59	288	4	E	0	M1
NMTTP	60	0	0	C	0	M1
NMTTP	60	0	7	E	0	M1
NMTTP	60	0	7	D	0	M1
NMTTP	60	96	0	C	0	M1
NMTTP	60	96	6	E	0	M1
NMTTP	60	96	6	D	0	M1
NMTTP	60	192	0	C	0	M1
NMTTP	60	192	5	E	0	M1
NMTTP	60	192	5	D	0	M1
NMTTP	60	288	0	C	0	M1
NMTTP	60	288	4	E	0	M1
NMTTP	60	288	4	D	0	M1
NMTTP	61	0	0	C	0	M1
NMTTP	61	0	2	E	0	M1
NMTTP	61	0	2	D	0	M1
NMTTP	61	96	0	C	0	M1
NMTTP	61	96	3	E	0	M1
NMTTP	61	96	3	D	0	M1
NMTTP	61	192	0	C	0	M1
NMTTP	61	192	4	E	0	M1
NMTTP	61	192	4	D	0	M1
BRTAP	61	288	0
BRTAP	61	288	7
EXTAP	62	0	2
NMHLD	62	0	5	96
NMTAP	62	96	4
EXTAP	62	144	3
NMHLD	62	144	6	96
NMTAP	62	240	7
EXTAP	62	288	0
NMTAP	62	288	5
NMHLD	63	0	1	96
EXTAP	63	0	6
NMTAP	63	96	0
NMHLD	63	144	2	96
EXTAP	63	144	7
NMTAP	63	240	3
NMTAP	63	288	1
EXTAP	63	288	4
EXTAP	64	0	2
NMHLD	64	0	6	96
NMTAP	64	96	4
NMHLD	64	144	3	96
EXTAP	64	144	5
NMTAP	64	240	4
NMTAP	64	288	3
EXTAP	64	288	5
EXHLD	65	0	0	96
NMHLD	65	0	6	96
NMTAP	65	144	1
EXTAP	65	144	5
EXTAP	65	240	3
NMTAP	65	240	4
NMTAP	65	288	3
EXTAP	65	288	4
EXTAP	66	0	2
NMTAP	66	96	2
NMTTP	66	192	0	C	0	M1
NMTAP	66	192	2
NMTAP	66	288	2
NMTTP	66	288	4	E	0	M1
EXTAP	67	0	5
NMTAP	67	96	5
NMTTP	67	192	0	C	0	M1
NMTAP	67	192	5
NMTTP	67	288	4	E	0	M1
NMTAP	67	288	5
NMHLD	68	0	2	96
NMHLD	68	0	6	96
NMTAP	68	144	1
NMTAP	68	144	5
NMTAP	68	240	0
NMTAP	68	240	6
NMHLD	68	288	0	96
NMTAP	68	288	6
NMHLD	69	0	2	96
NMHLD	69	96	4	96
NMHLD	69	192	6	96
NMTAP	69	288	7
NMHLD	70	0	0	288
NMSTR	70	0	6
NMSI_	70	0	6	96	48	4
CNSI_	70	144	4	0	48	7
CNSI_	70	192	7	0	48	3
CNSI_	70	240	3	0	48	1
NMTAP	71	0	0
NMTAP	71	0	1
NMTAP	71	48	2
NMTAP	71	96	2
NMTAP	71	144	3
NMTAP	71	144	4
NMTAP	71	192	5
NMTAP	71	240	5
NMTAP	71	288	4
NMTAP	71	288	6
NMSTR	72	0	1
NMSI_	72	0	1	96	48	3
NMHLD	72	0	7	288
CNSI_	72	144	3	0	48	0
CNSI_	72	192	0	0	48	4
CNSI_	72	240	4	0	48	6
NMTAP	73	0	6
NMTAP	73	0	7
NMTAP	73	48	5
NMTAP	73	96	5
NMTAP	73	144	3
NMTAP	73	144	4
NMTAP	73	192	2
NMTAP	73	240	2
NMTAP	73	288	1
NMTAP	73	288	4
NMTAP	74	0	5
NMTAP	74	24	4
NMTAP	74	48	5
NMTAP	74	72	4
NMTAP	74	96	6
NMTAP	74	144	6
NMTAP	74	192	2
NMTAP	74	216	3
NMTAP	74	240	2
NMTAP	74	264	3
NMTAP	74	288	1
NMTAP	74	336	1
NMTAP	75	0	6
NMTAP	75	24	4
NMTAP	75	48	6
NMTAP	75	72	4
NMTAP	75	96	7
NMTAP	75	144	7
NMTAP	75	192	1
NMTAP	75	216	3
NMTAP	75	240	1
NMTAP	75	264	3
NMTAP	75	288	0
NMTAP	75	336	0
NMTAP	76	0	1
NMTAP	76	24	7
NMTAP	76	48	1
NMTAP	76	72	7
NMTAP	76	96	2
NMTAP	76	120	6
NMTAP	76	144	2
NMTAP	76	168	6
NMTAP	76	192	3
NMTAP	76	216	5
NMTAP	76	240	3
NMTAP	76	264	5
NMTAP	76	288	2
NMTAP	76	312	4
NMTAP	76	336	2
NMTAP	76	360	4
BRSTR	77	0	2
NMSI_	77	0	2	96	48	6
BRSTR	77	96	1
NMSI_	77	96	1	96	48	5
BRSTR	77	192	0
NMSI_	77	192	0	96	48	4
EXTAP	77	288	7
BRSTR	78	0	6
NMSCL	78	0	6	96	48	4
NMTAP	78	48	1
NMSTR	78	96	6
NMSI_	78	96	6	96	48	2
NMTAP	78	144	3
NMTAP	78	192	6
NMTAP	78	240	1
NMTAP	78	264	0
NMTAP	78	288	1
NMTAP	78	312	0
NMSTR	78	336	1
BRSI_	78	336	1	96	48	4
EXTAP	79	48	1
EXTAP	79	48	4
NMTAP	79	64	5
NMTAP	79	80	6
NMTAP	79	96	7
EXSTR	79	144	0
BRSCR	79	144	0	96	48	3
EXTAP	79	144	3
NMTAP	79	160	7
NMTAP	79	176	6
NMTAP	79	192	5
EXTAP	79	240	0
EXTAP	79	240	4
NMTAP	79	256	5
NMTAP	79	272	6
BXSTR	79	288	7
NMSV_	79	288	7	96	48	2
NMSV_	79	288	7	96	48	4
BRTAP	80	0	7
NMTAP	80	96	5
NMTAP	80	120	3
NMTAP	80	144	4
NMTAP	80	168	2
EXSTR	80	192	3
NMSI_	80	192	3	96	48	6
EXSTR	80	240	1
NMSI_	80	240	1	96	48	4
NMTAP	80	288	3
NMTAP	80	336	1
EXSTR	81	0	7
NMSI_	81	0	7	96	48	2
EXTAP	81	48	4
NMSTR	81	96	7
NMSCL	81	96	7	96	48	5
NMTAP	81	144	1
NMSTR	81	192	7
BRSI_	81	192	7	96	48	3
NMTAP	81	240	3
BRTAP	81	288	7
EXSTR	82	0	1
NMSCR	82	0	1	96	48	3
NMTAP	82	48	6
NMSTR	82	96	1
NMSI_	82	96	1	96	48	5
NMTAP	82	144	4
NMTAP	82	192	1
NMTAP	82	240	6
NMTAP	82	264	7
NMTAP	82	288	6
NMTAP	82	312	7
NMSTR	82	336	6
BRSI_	82	336	6	96	48	3
EXTAP	83	48	3
EXTAP	83	48	6
NMTAP	83	64	2
NMTAP	83	80	1
NMTAP	83	96	0
EXTAP	83	144	4
EXSTR	83	144	7
BRSCL	83	144	7	96	48	4
NMTAP	83	160	0
NMTAP	83	176	1
NMTAP	83	192	2
EXTAP	83	240	3
EXTAP	83	240	7
NMTAP	83	256	2
NMTAP	83	272	1
BXSTR	83	288	0
NMSV_	83	288	0	96	48	3
NMSV_	83	288	0	96	48	5
BRTAP	84	0	0
NMTAP	84	96	2
NMTAP	84	120	4
NMTAP	84	144	3
NMTAP	84	168	5
NMTAP	84	192	4
NMTAP	84	240	6
NMTAP	84	264	6
NMTAP	84	264	7
NMTAP	84	312	1
BRTAP	84	336	0
BRTAP	84	336	1
NMTAP	85	48	2
NMTAP	85	72	3
EXTAP	85	96	1
NMTAP	85	144	5
NMTAP	85	168	4
EXTAP	85	192	6
NMTAP	85	240	0
NMTAP	85	240	7
EXHLD	85	288	1	96
EXTAP	85	288	6
BRTAP	86	0	5
BRTAP	86	48	2
BRTAP	86	48	4
BRHLD	86	96	0	96
BRSTR	86	96	6
NMSI_	86	96	6	96	48	2
NMTAP	86	192	6
NMTAP	86	240	1
NMTAP	86	264	0
NMTAP	86	288	1
NMTAP	86	312	0
NMSTR	86	336	1
BRSI_	86	336	1	96	48	4
EXTAP	87	48	1
EXSTR	87	48	4
BRSI_	87	48	4	96	48	0
NMTAP	87	64	5
NMTAP	87	80	6
NMTAP	87	96	7
EXSTR	87	144	0
BRSCR	87	144	0	96	48	3
EXTAP	87	144	4
NMTAP	87	160	7
NMTAP	87	176	6
NMTAP	87	192	5
EXTAP	87	240	0
EXTAP	87	240	3
NMTAP	87	256	4
NMTAP	87	272	5
BXSTR	87	288	6
NMSI_	87	288	6	96	48	2
BRTAP	88	0	0
BRTAP	88	0	6
NMTAP	88	96	1
NMTAP	88	120	3
NMTAP	88	144	2
NMTAP	88	168	5
EXSTR	88	192	4
NMSI_	88	192	4	96	48	1
EXSTR	88	240	6
NMSI_	88	240	6	96	48	3
NMTAP	88	288	4
NMTAP	88	336	6
EXSTR	89	0	0
NMSI_	89	0	0	96	48	5
EXSTR	89	48	3
NMSI_	89	48	3	96	48	7
NMSTR	89	96	0
NMSCR	89	96	0	96	48	2
NMTAP	89	144	3
NMSTR	89	192	0
BRSI_	89	192	0	96	48	4
NMTAP	89	240	4
BRTAP	89	288	0
NMTAP	90	0	2
NMTAP	90	48	2
NMTAP	90	96	1
NMTAP	90	96	3
NMTAP	90	144	2
NMTAP	90	192	0
NMTAP	90	192	4
NMTAP	90	240	2
NMTAP	90	288	0
NMTAP	90	288	4
NMTAP	90	336	6
NMTAP	90	360	7
NMTAP	91	0	5
NMTAP	91	48	5
NMTAP	91	96	4
NMTAP	91	96	6
NMTAP	91	144	5
NMTAP	91	192	3
NMTAP	91	192	7
NMTAP	91	240	5
NMTAP	91	288	3
NMTAP	91	288	7
NMTAP	91	336	1
NMTAP	91	360	0
NMHLD	92	0	2	96
NMTAP	92	96	3
NMTAP	92	144	4
NMTAP	92	192	3
NMHLD	92	192	5	48
NMHLD	92	264	4	48
NMHLD	92	264	6	48
BRTAP	92	336	3
BRSTR	92	336	7
NMSI_	92	336	7	96	48	3
NMSTR	93	96	0
NMSF_	93	96	0	96	48	4
CNSI_	93	96	3	0	48	1
NMTAP	93	192	0
BRTAP	93	288	1
BRTAP	93	288	7
NMSTR	94	0	0
NMSI_	94	0	0	96	48	3
NMTAP	94	0	1
NMTAP	94	48	7
NMTAP	94	96	0
NMTAP	94	96	6
NMTAP	94	192	6
NMSTR	94	192	7
NMSI_	94	192	7	96	48	4
NMTAP	94	240	0
NMTAP	94	288	1
NMTAP	94	288	7
NMSTR	95	0	0
NMSI_	95	0	0	96	48	4
NMTAP	95	0	2
NMTAP	95	48	1
NMTAP	95	96	0
NMTAP	95	96	7
NMTAP	95	192	5
NMSTR	95	192	7
NMSI_	95	192	7	96	48	3
NMTAP	95	240	6
NMTAP	95	288	0
NMTAP	95	288	7
NMSTR	96	0	0
NMSCR	96	0	0	96	48	3
NMTAP	96	0	2
NMTAP	96	48	1
NMTAP	96	96	0
NMTAP	96	96	7
NMTAP	96	192	5
NMSTR	96	192	7
NMSCL	96	192	7	96	48	4
NMTAP	96	240	6
NMTAP	96	288	0
NMTAP	96	288	7
NMTAP	97	0	0
BRSTR	97	0	1
NMSLR	97	0	1	96	72	5
NMTAP	97	96	1
NMTAP	97	96	4
BRSTR	97	144	6
NMSLL	97	144	6	96	72	2
NMTAP	97	240	3
NMTAP	97	240	6
BRTAP	97	288	0
NMSTR	98	0	1
NMSI_	98	0	1	96	48	4
NMTAP	98	0	5
NMTAP	98	48	6
NMTAP	98	96	1
NMTAP	98	96	7
NMSTR	98	192	1
NMSI_	98	192	1	96	48	4
NMTAP	98	192	5
NMTAP	98	240	6
NMTAP	98	288	1
NMTAP	98	288	7
NMTAP	99	0	2
NMSTR	99	0	6
NMSI_	99	0	6	96	48	3
NMTAP	99	48	1
NMTAP	99	96	0
NMTAP	99	96	6
NMTAP	99	192	2
NMSTR	99	192	6
NMSI_	99	192	6	96	48	3
NMTAP	99	240	1
NMTAP	99	288	0
NMTAP	99	288	6
NMHLD	100	0	2	96
EXTAP	100	0	4
NMTAP	100	96	0
NMTAP	100	144	1
EXTAP	100	144	7
NMTAP	100	240	4
NMTAP	100	240	5
NMTAP	100	288	3
EXTAP	100	288	4
EXSTR	100	336	2
NMSI_	100	336	2	96	48	0
NMHLD	100	336	3	96
EXSTR	101	48	2
NMSCR	101	48	2	96	48	5
EXTAP	101	144	6
EXHLD	101	192	6	96
NMTAP	101	288	0
NMTAP	101	312	7
NMTAP	101	336	0
NMTAP	101	360	7
BRSTR	102	0	0
NMSF_	102	0	0	96	48	4
BRTAP	102	96	0
NMTAP	102	192	2
NMSTR	102	192	6
BRSI_	102	192	6	96	48	2
NMTAP	102	240	7
NMTAP	102	288	1
NMTAP	102	288	6
NMTAP	102	336	0
CNSI_	102	336	2	0	48	4
NMSTR	103	0	7
NMSCR	103	0	7	96	48	2
NMSTR	103	48	6
NMSCL	103	48	6	96	48	3
NMTAP	103	96	7
NMTAP	103	144	6
NMTAP	103	192	0
NMTAP	103	240	1
NMTAP	103	264	3
NMTAP	103	288	2
NMTAP	103	336	3
NMTAP	103	336	4
NMSTR	104	0	5
NMSI_	104	0	5	96	48	3
NMTAP	104	48	6
NMSTR	104	96	1
NMSI_	104	96	1	96	48	5
NMTAP	104	96	5
NMTAP	104	144	0
NMTAP	104	192	1
NMTAP	104	192	5
NMTAP	104	240	6
EXTAP	104	288	7
EXTAP	104	312	7
BXTAP	104	336	0
BXTAP	104	336	6
NMTAP	105	48	2
NMTAP	105	72	3
EXSTR	105	96	1
NMSI_	105	96	1	96	48	4
NMSTR	105	144	4
NMSI_	105	144	4	96	48	0
BRTAP	105	192	1
NMTAP	105	240	5
BRSTR	105	288	7
BRSI_	105	288	7	96	48	5
NMSTR	106	0	7
BRSI_	106	0	7	96	48	1
NMTAP	106	48	1
NMTAP	106	72	1
NMSTR	106	96	7
BRSI_	106	96	7	96	48	3
NMTAP	106	144	3
NMTAP	106	168	3
NMTAP	106	192	7
NMTAP	106	240	2
NMTAP	106	264	2
BRSTR	106	288	0
BRSI_	106	288	0	96	48	2
NMSTR	107	0	0
BRSI_	107	0	0	96	48	6
NMTAP	107	48	5
NMTAP	107	72	5
NMSTR	107	96	0
BRSI_	107	96	0	96	48	4
NMTAP	107	144	4
NMTAP	107	168	4
NMTAP	107	192	0
NMTAP	107	240	5
NMTAP	107	264	5
BRTAP	107	288	7
NMTAP	108	0	2
NMTAP	108	0	6
NMTAP	108	48	1
NMTAP	108	72	0
NMTAP	108	96	2
NMTAP	108	144	6
NMTAP	108	168	7
NMTAP	108	192	5
NMTAP	108	240	0
NMTAP	108	240	4
NMTAP	108	288	1
NMTAP	108	312	1
NMSTR	108	336	3
NMSLR	108	336	3	96	96	7
NMTAP	109	48	2
NMTAP	109	96	2
NMTAP	109	144	2
NMTAP	109	192	2
NMTAP	109	192	6
NMTAP	109	216	1
NMTAP	109	216	5
NMTAP	109	240	0
NMTAP	109	240	4
NMTAP	109	264	3
NMTAP	109	264	7
NMSTR	109	288	2
NMSI_	109	288	2	96	48	5
NMSTR	109	288	6
NMSI_	109	288	6	96	48	1
EXTAP	109	336	0
EXTAP	109	336	4
NMTTP	110	0	0	C	1	M1
NMTTP	110	0	0	E	0	M1
BRTAP	110	0	2
NMTTP	110	0	3	B	0	M1
NMTTP	110	0	4	E	0	M1
BRTAP	110	0	6
NMTTP	110	0	7	B	0	M1

T_REC_TAP	531
T_REC_BRK	35
T_REC_XTP	81
T_REC_BXX	22
T_REC_HLD	45
T_REC_XHO	6
T_REC_BHO	1
T_REC_BXH	4
T_REC_STR	71
T_REC_BST	29
T_REC_XST	25
T_REC_XBS	4
T_REC_TTP	77
T_REC_THO	0
T_REC_SLD	88
T_REC_BSL	45
T_REC_ALL	1064
T_NUM_TAP	785
T_NUM_BRK	140
T_NUM_HLD	51
T_NUM_SLD	88
T_NUM_ALL	1064
T_JUDGE_TAP	875
T_JUDGE_HLD	149
T_JUDGE_SLD	133
T_JUDGE_ALL	1157
TTM_EACHPAIRS	203
TTM_SCR_TAP	392500
TTM_SCR_BRK	364000
TTM_SCR_HLD	51000
TTM_SCR_SLD	132000
TTM_SCR_ALL	939500
TTM_SCR_S	897750
TTM_SCR_SS	925500
TTM_RAT_ACV	10151

