VERSION	0.00.00	1.04.00
FES_MODE	0
BPM_DEF	200.000	200.000	200.000	200.000
MET_DEF	4	4
RESOLUTION	384
CLK_DEF	384
COMPATIBLE_CODE	MA2

BPM	0	0	200.000
MET	0	0	4	4

EXHLD	2	0	2	192
EXHLD	2	0	3	192
NMHLD	2	288	5	288
NMHLD	3	96	4	96
NMTAP	3	240	3
NMTAP	3	240	6
EXHLD	4	0	4	192
EXHLD	4	0	5	192
NMHLD	4	288	2	288
NMHLD	5	96	3	96
NMTAP	5	240	1
NMTAP	5	240	4
EXHLD	6	0	2	192
EXHLD	6	0	3	192
NMTAP	6	288	5
NMTAP	6	336	5
NMTAP	7	48	4
NMTAP	7	96	4
NMTAP	7	192	3
NMTAP	7	288	2
NMTAP	7	288	4
NMTAP	8	0	1
NMTAP	8	0	3
NMTAP	8	96	2
NMTAP	8	192	4
BRSTR	8	288	6
NMSUL	8	288	6	96	288	4
EXTAP	10	0	3
NMTAP	10	96	3
NMTAP	10	192	3
NMHLD	10	288	3	48
NMTAP	11	0	2
NMTAP	11	0	4
NMTAP	11	96	2
NMTAP	11	96	4
NMHLD	11	192	1	48
NMHLD	11	192	3	48
NMTAP	11	288	2
NMTAP	11	288	4
EXTAP	12	0	3
EXTAP	12	0	5
NMTAP	12	96	3
NMTAP	12	96	5
NMTAP	12	192	3
NMTAP	12	192	5
NMHLD	12	288	4	48
NMHLD	12	288	6	48
EXTAP	13	0	3
EXTAP	13	0	7
NMTAP	13	96	2
NMTAP	13	96	6
NMTAP	13	192	1
NMSTR	13	192	5
NMSI_	13	192	5	96	48	2
NMTAP	13	288	0
BXTAP	14	0	1
NMTAP	14	48	1
NMTAP	14	96	1
BRTAP	14	192	3
NMTAP	14	240	3
NMTAP	14	288	3
BRTAP	15	0	4
NMTAP	15	48	4
NMTAP	15	96	4
BRTAP	15	192	6
NMTAP	15	240	6
NMTAP	15	288	6
BRTAP	16	0	0
NMTAP	16	48	0
BRTAP	16	96	7
NMTAP	16	144	7
BRTAP	16	192	0
NMTAP	16	240	0
BRTAP	16	288	7
NMTAP	16	336	7
NMSTR	17	0	1
NMSI_	17	0	1	96	48	5
NMSTR	17	96	6
NMSI_	17	96	6	96	48	2
NMTAP	17	192	0
EXTAP	17	288	1
EXTAP	17	288	7
EXTAP	17	336	1
EXTAP	17	336	7
BRTAP	18	0	2
BRTAP	18	0	6
NMTAP	18	96	4
NMTAP	18	96	5
NMHLD	18	192	1	96
NMTAP	18	288	0
NMSTR	19	0	3
NMSI_	19	0	3	96	48	0
NMTAP	19	0	7
NMTAP	19	96	5
NMTAP	19	192	7
NMTAP	19	240	7
EXTAP	19	288	0
NMTAP	20	0	2
NMTAP	20	0	4
NMTAP	20	96	6
NMTAP	20	96	7
NMTAP	20	192	0
NMTAP	20	192	5
NMTAP	20	288	2
NMTAP	20	336	2
NMTAP	21	0	3
NMTAP	21	96	4
NMTAP	21	96	6
NMTAP	21	144	4
NMTAP	21	144	6
NMTAP	21	240	0
NMTAP	21	240	7
BRTAP	21	288	0
BRTAP	21	288	7
EXTAP	22	0	1
EXTAP	22	0	5
NMTAP	22	96	2
NMTAP	22	96	3
NMHLD	22	192	6	96
NMTAP	22	288	7
NMTAP	23	0	0
NMSTR	23	0	4
NMSI_	23	0	4	96	48	7
NMTAP	23	96	2
NMTAP	23	192	0
NMTAP	23	240	0
EXSTR	23	288	7
NMSCL	23	288	7	96	96	4
NMHLD	24	96	1	96
NMHLD	24	192	2	96
NMHLD	24	288	3	96
NMHLD	25	0	4	96
NMTAP	25	96	5
EXSTR	25	192	6
NMSI_	25	192	6	96	48	3
EXSTR	25	192	7
NMSI_	25	192	7	96	48	3
EXTAP	26	0	0
EXTAP	26	0	1
BRTAP	26	96	2
BRTAP	26	96	6
NMTAP	26	192	4
NMTAP	26	240	4
NMTAP	26	336	1
NMTAP	26	336	3
NMTAP	27	48	3
NMTAP	27	48	5
NMTAP	27	96	3
NMTAP	27	96	5
NMTAP	27	192	0
NMTAP	27	288	1
NMTAP	27	288	7
NMTAP	28	0	4
NMTAP	28	0	6
NMTAP	28	96	2
NMTAP	28	96	4
NMTAP	28	192	3
NMTAP	28	240	3
NMTAP	28	336	4
NMTAP	28	336	6
NMTAP	29	48	5
NMSTR	29	96	5
NMSI_	29	96	5	96	48	3
NMSTR	29	192	1
NMSI_	29	192	1	96	48	5
EXTAP	29	288	7
NMTAP	30	0	6
NMTAP	30	96	1
NMTAP	30	96	5
NMTAP	30	192	3
NMTAP	30	240	3
NMTAP	30	336	4
NMTAP	30	336	6
NMTAP	31	48	2
NMTAP	31	48	4
NMTAP	31	96	2
NMTAP	31	96	4
NMTAP	31	192	7
NMTAP	31	288	0
NMTAP	31	288	6
EXSTR	32	0	1
NMSI_	32	0	1	96	48	4
EXTAP	32	0	3
NMTAP	32	192	5
NMTAP	32	240	4
NMTAP	32	240	5
NMTAP	32	336	6
NMTAP	32	336	7
NMTAP	33	48	0
NMTAP	33	48	1
NMTAP	33	96	0
NMTAP	33	96	1
NMTAP	33	192	2
NMTAP	33	192	3
NMSTR	33	288	4
NMSCL	33	288	4	96	288	6
NMTAP	33	288	5
EXTAP	34	0	6
EXTAP	35	0	4
EXSTR	35	0	5
NMSCR	35	0	5	96	288	3
EXTAP	36	0	4
EXTAP	36	96	3
EXTAP	36	96	5
EXTAP	36	192	2
EXTAP	36	240	2
EXTAP	36	288	6
EXTAP	36	336	6
NMHLD	37	0	0	288
NMSTR	37	288	7
BRSI_	37	288	7	96	48	3
BRTAP	38	0	2
NMHLD	38	96	1	96
NMTAP	38	192	3
NMHLD	38	288	4	96
NMTAP	39	0	3
NMHLD	39	96	2	96
NMTAP	39	192	3
NMSTR	39	288	5
NMSI_	39	288	5	96	48	3
NMTAP	40	0	2
NMHLD	40	96	1	96
NMTAP	40	192	3
NMHLD	40	288	4	96
NMTAP	41	0	3
NMHLD	41	96	2	96
NMSTR	41	192	3
NMSI_	41	192	3	96	48	5
EXTAP	42	0	3
NMHLD	42	96	6	96
NMTAP	42	192	4
NMHLD	42	288	3	96
NMTAP	43	0	4
NMHLD	43	96	5	96
NMTAP	43	192	4
NMHLD	43	288	2	96
NMTAP	44	0	3
NMHLD	44	96	4	96
NMTAP	44	192	3
NMTAP	44	288	1
NMSTR	45	0	2
NMSI_	45	0	2	96	48	4
NMTAP	45	96	5
NMSTR	45	192	6
NMSI_	45	192	6	96	48	0
NMTAP	45	288	1
NMTAP	46	0	2
NMTAP	46	96	2
NMTAP	46	96	3
NMTAP	46	192	1
NMTAP	46	240	3
NMTAP	46	288	2
NMTAP	47	0	3
NMTAP	47	0	4
NMTAP	47	96	4
NMTAP	47	96	5
NMTAP	47	192	6
NMTAP	47	240	4
NMTAP	47	288	5
NMSTR	48	0	3
NMSCL	48	0	3	96	48	0
NMTAP	48	0	4
NMTAP	48	96	7
NMSTR	48	192	6
NMSCL	48	192	6	96	48	3
NMTAP	48	288	2
NMTAP	49	0	0
NMTAP	49	0	1
NMTAP	49	96	2
NMTAP	49	96	3
NMTAP	49	192	4
NMTAP	49	192	5
EXTAP	49	288	2
EXTAP	49	288	6
NMTAP	50	0	0
NMTAP	50	48	0
NMTAP	50	96	7
NMTAP	50	192	2
NMTAP	50	192	3
NMTAP	50	288	4
NMTAP	50	288	5
NMHLD	51	0	1	48
NMHLD	51	0	3	48
NMHLD	51	96	4	48
NMHLD	51	96	6	48
NMTAP	51	192	2
NMTAP	51	240	2
NMTAP	51	288	4
NMTAP	51	336	4
NMTAP	52	0	1
NMTAP	52	48	1
NMTAP	52	96	5
NMTAP	52	144	5
EXTAP	52	192	0
EXTAP	52	216	6
EXTAP	52	240	0
EXTAP	52	264	6
EXTAP	52	288	0
EXTAP	52	312	6
EXTAP	52	336	0
EXTAP	52	360	6
BXSTR	53	0	7
NMSI_	53	0	7	96	48	3
BRSTR	53	96	5
NMSI_	53	96	5	96	48	0
BRSTR	53	192	1
NMSI_	53	192	1	96	48	4
BRTAP	53	288	7
NMTTP	54	0	5	B	0	M1
NMTTP	54	0	5	A	0	M1
NMTTP	54	0	6	B	1	M1
NMTTP	54	0	6	E	0	M1
NMTTP	54	0	6	A	0	M1
NMTTP	54	0	6	D	0	M1
NMTTP	58	0	1	E	0	M1
EXHLD	58	0	4	1440
NMTTP	58	96	2	E	0	M1
NMTTP	58	192	3	E	0	M1
NMTTP	58	288	4	E	0	M1
NMTTP	59	0	5	E	0	M1
NMTTP	59	96	6	E	0	M1
NMTTP	59	192	7	E	0	M1
NMTTP	59	288	0	E	0	M1
NMTTP	60	0	1	D	0	M1
NMTTP	60	96	2	D	0	M1
NMTTP	60	192	3	D	0	M1
NMTTP	60	288	4	D	0	M1
NMTTP	61	0	5	D	0	M1
NMTTP	61	96	6	D	0	M1
NMTTP	61	192	7	D	0	M1
NMTTP	61	288	0	D	1	M1
NMHLD	62	0	2	96
NMHLD	62	0	3	96
NMHLD	62	144	4	96
NMHLD	62	144	6	96
EXTAP	62	288	0
EXTAP	62	288	1
NMHLD	63	0	3	96
NMHLD	63	0	4	96
NMHLD	63	144	5	96
NMHLD	63	144	7	96
EXTAP	63	288	2
EXTAP	63	288	6
NMHLD	64	0	4	96
NMHLD	64	0	5	96
NMHLD	64	144	0	96
NMHLD	64	144	6	96
EXTAP	64	288	2
EXTAP	64	288	3
NMSTR	65	0	5
NMSI_	65	0	5	96	48	2
NMTAP	65	96	0
NMSTR	65	192	1
NMSI_	65	192	1	96	48	4
NMTAP	65	288	7
NMTAP	66	0	5
NMTAP	66	96	4
NMTAP	66	96	6
NMTAP	66	192	3
NMTAP	66	240	3
NMTAP	66	288	4
NMTAP	67	0	2
NMTAP	67	96	1
NMTAP	67	96	3
NMTAP	67	192	4
NMTAP	67	240	4
NMTAP	67	288	3
NMHLD	68	0	4	96
NMHLD	68	0	6	96
NMTAP	68	144	2
NMTAP	68	144	3
NMTAP	68	240	1
NMTAP	68	240	7
NMTAP	68	288	1
NMSTR	68	288	7
NMSCL	68	288	7	96	288	1
EXTAP	69	0	0
NMTAP	70	0	0
NMTAP	70	0	1
NMTAP	70	96	2
NMTAP	70	96	3
NMTAP	70	192	4
NMTAP	70	240	4
NMTAP	70	288	3
NMTAP	71	0	5
NMTAP	71	48	4
NMTAP	71	96	6
NMTAP	71	144	2
NMTAP	71	192	3
NMTAP	71	240	1
EXTAP	71	288	0
EXTAP	71	288	4
NMTAP	72	0	6
NMTAP	72	0	7
NMTAP	72	96	4
NMTAP	72	96	5
NMTAP	72	192	3
NMTAP	72	240	3
NMTAP	72	288	4
NMTAP	73	0	2
NMTAP	73	48	1
NMTAP	73	96	0
NMTAP	73	144	7
NMTAP	73	192	6
NMTAP	73	240	5
EXTAP	73	288	3
EXTAP	73	288	4
EXSTR	74	0	1
NMSI_	74	0	1	96	48	4
NMTAP	74	96	5
EXSTR	74	192	6
NMSI_	74	192	6	96	48	3
NMTAP	74	288	2
EXSTR	75	0	1
NMSI_	75	0	1	96	48	5
NMTAP	75	96	7
EXSTR	75	192	6
NMSI_	75	192	6	96	48	2
NMTAP	75	288	0
NMTAP	76	0	0
NMTAP	76	48	0
NMTAP	76	96	1
NMTAP	76	96	7
NMTAP	76	144	1
NMTAP	76	144	7
NMTAP	76	192	2
NMTAP	76	216	6
NMTAP	76	240	2
NMTAP	76	264	6
NMTAP	76	288	2
NMTAP	76	312	6
NMTAP	76	336	2
NMTAP	76	360	6
BXTAP	77	0	2
BXTAP	77	96	1
BXSTR	77	192	0
BRSI_	77	192	0	96	48	4
BRTAP	77	288	7
EXTAP	78	0	6
NMTAP	78	96	3
NMTAP	78	96	4
NMTAP	78	192	0
NMTAP	78	192	1
NMTAP	78	240	0
NMSTR	78	240	1
NMSCR	78	240	1	96	48	4
NMTAP	78	336	7
NMTAP	79	48	5
NMTAP	79	96	4
NMTAP	79	96	5
NMTAP	79	192	2
NMTAP	79	192	7
EXTAP	79	240	1
EXTAP	79	264	0
BXTAP	79	288	1
NMTAP	80	0	6
NMTAP	80	48	6
NMTAP	80	96	4
NMTAP	80	144	4
NMTAP	80	192	3
NMTAP	80	240	3
NMTAP	80	288	1
NMHLD	80	336	1	96
NMTAP	81	48	0
NMTAP	81	96	2
NMTAP	81	96	7
NMSTR	81	192	4
NMSI_	81	192	4	96	48	0
NMSTR	81	192	6
NMSI_	81	192	6	96	48	4
EXTAP	82	0	1
NMTAP	82	96	3
NMTAP	82	96	4
NMTAP	82	192	6
NMTAP	82	192	7
NMSTR	82	240	6
NMSCL	82	240	6	96	48	3
NMTAP	82	240	7
NMTAP	82	336	0
NMTAP	83	48	2
NMTAP	83	96	2
NMTAP	83	96	3
NMTAP	83	192	0
NMTAP	83	192	5
EXTAP	83	240	6
EXTAP	83	264	7
BXTAP	83	288	6
NMTAP	84	0	1
NMTAP	84	48	1
NMTAP	84	96	3
NMTAP	84	144	3
NMTAP	84	192	4
NMTAP	84	240	4
NMTAP	84	288	6
NMTAP	84	336	6
NMTAP	85	48	0
NMTAP	85	48	7
NMSTR	85	96	0
NMSCR	85	96	0	96	48	3
NMTAP	85	96	7
NMSTR	85	192	7
NMSCL	85	192	7	96	48	4
NMTAP	85	288	0
EXTAP	86	0	0
EXTAP	86	0	7
EXTAP	86	48	0
EXTAP	86	48	7
BRTAP	86	96	1
BRTAP	86	96	6
NMTAP	86	192	3
NMTAP	86	192	4
NMTAP	86	288	6
NMTAP	86	288	7
NMTAP	86	336	6
NMTAP	86	336	7
NMTAP	87	48	0
NMTAP	87	48	1
NMTAP	87	96	0
NMTAP	87	96	1
NMSTR	87	192	2
NMSI_	87	192	2	96	48	7
NMTAP	87	192	3
EXTAP	87	288	4
NMTAP	88	0	6
NMTAP	88	48	6
NMTAP	88	96	3
NMTAP	88	144	3
NMTAP	88	192	4
NMTAP	88	240	4
NMTAP	88	288	1
NMTAP	88	336	1
NMTAP	89	48	6
NMTAP	89	48	7
NMTAP	89	96	6
NMTAP	89	96	7
NMTAP	89	192	4
NMSTR	89	192	5
NMSI_	89	192	5	96	48	0
EXTAP	89	288	3
NMTAP	90	0	2
NMTAP	90	48	2
NMTAP	90	96	0
NMTAP	90	96	1
NMTAP	90	144	0
NMTAP	90	144	1
NMTAP	90	192	0
NMTAP	90	192	1
NMTAP	90	240	2
NMTAP	90	240	7
NMTAP	90	288	3
NMTAP	90	288	6
EXTAP	90	336	5
EXTAP	90	360	4
EXTAP	91	0	5
NMTAP	91	96	6
NMTAP	91	96	7
NMTAP	91	144	6
NMTAP	91	144	7
NMTAP	91	192	6
NMTAP	91	192	7
NMTAP	91	240	0
NMTAP	91	240	5
NMTAP	91	288	1
NMTAP	91	288	4
EXTAP	91	336	2
EXTAP	91	360	3
EXTAP	92	0	2
NMTAP	92	96	7
NMTAP	92	144	7
EXTAP	92	192	0
EXTAP	92	192	6
EXTAP	92	264	3
EXTAP	92	264	4
EXTAP	92	336	1
EXTAP	92	336	7
BXTAP	93	96	2
BXSTR	93	96	6
NMSI_	93	96	6	96	48	2
BRSTR	93	192	0
NMSI_	93	192	0	96	48	4
BRTAP	93	288	7
EXTAP	94	0	2
EXTAP	94	0	6
NMTAP	94	96	0
NMTAP	94	96	1
NMHLD	94	192	6	96
NMTAP	94	288	7
NMTAP	95	0	0
NMSTR	95	0	4
NMSI_	95	0	4	96	48	7
NMTAP	95	96	2
NMTAP	95	192	0
NMTAP	95	240	0
EXTAP	95	288	1
EXTAP	95	288	7
NMTAP	96	0	3
NMTAP	96	0	5
NMTAP	96	96	0
NMTAP	96	96	1
NMTAP	96	192	2
NMTAP	96	192	7
NMTAP	96	288	5
NMTAP	96	336	5
NMTAP	97	0	4
NMTAP	97	0	6
NMTAP	97	96	1
NMTAP	97	96	3
NMTAP	97	144	1
NMTAP	97	144	3
NMTAP	97	240	0
NMTAP	97	240	7
BRTAP	97	288	0
BRTAP	97	288	7
EXTAP	98	0	1
EXTAP	98	0	5
NMTAP	98	96	6
NMTAP	98	96	7
NMHLD	98	192	1	96
NMTAP	98	288	0
NMSTR	99	0	3
NMSI_	99	0	3	96	48	0
NMTAP	99	0	7
NMTAP	99	96	5
NMTAP	99	192	7
NMTAP	99	240	7
EXTAP	99	288	0
EXSTR	99	288	6
NMSCL	99	288	6	96	96	3
NMHLD	100	96	1	96
NMHLD	100	192	2	96
NMTAP	100	288	3
EXTAP	100	336	3
NMTAP	101	48	4
NMTAP	101	48	6
EXTAP	101	96	4
EXTAP	101	96	6
EXSTR	101	192	0
NMSI_	101	192	0	96	48	4
EXSTR	101	192	1
NMSI_	101	192	1	96	48	4
EXTAP	102	0	6
EXTAP	102	0	7
BRTAP	102	96	1
BRTAP	102	96	5
NMTAP	102	192	3
NMTAP	102	240	3
NMTAP	102	288	4
NMHLD	102	336	2	96
NMTAP	103	48	3
NMTAP	103	96	1
NMTAP	103	96	4
NMTAP	103	192	6
NMTAP	103	192	7
NMTAP	103	240	6
NMTAP	103	240	7
NMTAP	103	288	0
NMTAP	103	288	5
NMTAP	104	0	1
NMTAP	104	0	3
NMTAP	104	96	3
NMTAP	104	96	5
NMTAP	104	192	4
NMTAP	104	240	4
NMTAP	104	288	3
NMHLD	104	336	5	96
NMTAP	105	48	2
NMSTR	105	96	2
NMSI_	105	96	2	96	48	4
NMSTR	105	192	6
NMSI_	105	192	6	96	48	2
BRTAP	105	288	0
NMTAP	106	0	1
NMTAP	106	48	1
NMTAP	106	96	0
NMTAP	106	144	0
NMTAP	106	192	2
NMTAP	106	192	7
EXTAP	106	240	1
EXTAP	106	264	0
BXTAP	106	288	1
NMTAP	107	0	6
NMTAP	107	48	6
NMTAP	107	96	7
NMTAP	107	144	7
NMTAP	107	192	0
NMTAP	107	192	5
EXTAP	107	240	6
EXTAP	107	264	7
BXTAP	107	288	6
NMTAP	108	0	3
NMTAP	108	0	4
NMTAP	108	48	3
NMTAP	108	48	4
NMTAP	108	96	2
NMTAP	108	96	5
NMTAP	108	144	2
NMTAP	108	144	5
NMTAP	108	192	1
NMTAP	108	192	6
NMTAP	108	240	1
NMTAP	108	240	6
NMTAP	108	288	0
NMTAP	108	288	7
BRTAP	108	336	0
BRTAP	108	336	7
NMTAP	109	48	6
NMTAP	109	96	5
NMTAP	109	144	4
EXTAP	109	192	0
EXTAP	109	216	1
EXTAP	109	240	2
EXTAP	109	264	3
EXTAP	109	288	4
EXTAP	109	312	5
EXTAP	109	336	6
EXTAP	109	360	7
NMTTP	110	0	0	C	1	M1

T_REC_TAP	408
T_REC_BRK	26
T_REC_XTP	95
T_REC_BXX	8
T_REC_HLD	52
T_REC_XHO	7
T_REC_BHO	0
T_REC_BXH	0
T_REC_STR	30
T_REC_BST	4
T_REC_XST	12
T_REC_XBS	3
T_REC_TTP	23
T_REC_THO	0
T_REC_SLD	47
T_REC_BSL	2
T_REC_ALL	717
T_NUM_TAP	568
T_NUM_BRK	43
T_NUM_HLD	59
T_NUM_SLD	47
T_NUM_ALL	717
T_JUDGE_TAP	609
T_JUDGE_HLD	161
T_JUDGE_SLD	49
T_JUDGE_ALL	819
TTM_EACHPAIRS	169
TTM_SCR_TAP	284000
TTM_SCR_BRK	111800
TTM_SCR_HLD	59000
TTM_SCR_SLD	70500
TTM_SCR_ALL	525300
TTM_SCR_S	505400
TTM_SCR_SS	521000
TTM_RAT_ACV	10082

