VERSION	0.00.00	1.04.00
FES_MODE	0
BPM_DEF	136.000	136.000	136.000	136.000
MET_DEF	4	4
RESOLUTION	384
CLK_DEF	384
COMPATIBLE_CODE	MA2

BPM	0	0	136.000
MET	0	0	4	4

NMTAP	1	336	3
NMTAP	1	360	4
NMTAP	2	0	3
NMTAP	2	72	2
NMTAP	2	72	5
NMSTR	2	144	1
NMSI_	2	144	1	96	48	4
NMTAP	2	144	6
NMTAP	2	240	1
NMSTR	2	240	6
NMSI_	2	240	6	96	48	3
NMSTR	2	336	0
BRSCR	2	336	0	96	240	7
NMTAP	2	336	6
NMTAP	4	0	1
NMTAP	4	0	3
NMTAP	4	24	1
NMTAP	4	24	3
NMTAP	4	144	4
NMTAP	4	144	6
NMTAP	4	168	4
NMTAP	4	168	6
NMTTP	4	288	3	B	0	M1
NMTTP	4	288	4	B	0	M1
NMSTR	5	0	6
NMSI_	5	0	6	96	48	3
NMTAP	5	48	5
NMTAP	5	48	7
NMTAP	5	96	6
NMTAP	5	168	2
NMTAP	5	216	2
NMTAP	5	240	3
NMTAP	5	288	2
NMTAP	5	336	1
NMTAP	5	336	3
NMSTR	6	0	0
NMSCR	6	0	0	96	48	3
NMTAP	6	48	1
NMTAP	6	48	7
NMTAP	6	96	0
NMTAP	6	168	5
NMTAP	6	216	5
NMTAP	6	240	4
NMTAP	6	288	5
NMTAP	6	336	4
NMTAP	6	336	6
NMSTR	7	0	7
NMSI_	7	0	7	96	48	3
NMTAP	7	48	0
NMTAP	7	48	6
NMTAP	7	96	7
NMTAP	7	168	1
NMTAP	7	216	1
NMTAP	7	240	3
NMTAP	7	288	2
NMTAP	7	336	0
NMTAP	7	336	4
BRHLD	8	0	5	96
BRHLD	8	0	7	96
NMTAP	8	144	4
NMTAP	8	144	6
NMHLD	8	168	4	48
NMHLD	8	168	6	48
NMHLD	8	240	3	48
NMHLD	8	240	5	48
NMHLD	8	312	2	48
NMHLD	8	312	4	48
NMSTR	9	0	1
NMSCR	9	0	1	96	48	4
NMTAP	9	0	3
NMTAP	9	48	0
NMTAP	9	48	2
NMTAP	9	96	1
NMTAP	9	168	5
NMTAP	9	216	5
NMTAP	9	240	4
NMTAP	9	288	5
NMTAP	9	336	4
NMTAP	9	336	6
NMSTR	10	0	7
NMSCL	10	0	7	96	48	4
NMTAP	10	48	0
NMTAP	10	48	6
NMTAP	10	96	7
NMTAP	10	168	2
NMTAP	10	216	2
NMTAP	10	240	3
NMTAP	10	288	2
NMTAP	10	336	1
NMTAP	10	336	3
NMSTR	11	0	0
NMSUR	11	0	0	96	48	4
NMTAP	11	48	1
NMTAP	11	48	7
NMTAP	11	96	0
NMTAP	11	168	6
NMTAP	11	216	6
NMTAP	11	240	4
NMTAP	11	288	5
NMTAP	11	336	3
NMTAP	11	336	7
NMTAP	12	0	2
NMTAP	12	0	6
NMTAP	12	48	1
NMTAP	12	48	5
NMTAP	12	96	0
NMTAP	12	96	4
NMSTR	12	144	3
NMSCR	12	144	3	96	48	6
NMSTR	12	144	7
NMSCR	12	144	7	96	48	2
BRTAP	12	240	3
BRTAP	12	240	7
EXTAP	13	0	2
EXTAP	13	0	4
EXSTR	13	72	1
NMSCR	13	72	1	96	48	4
EXTAP	13	72	3
NMTAP	13	192	5
NMTAP	13	240	5
NMTAP	13	288	5
NMTAP	13	312	4
NMTAP	14	0	3
NMTAP	14	0	5
NMTAP	14	72	4
NMSTR	14	72	6
NMSCL	14	72	6	96	48	3
NMTAP	14	192	2
NMTAP	14	240	2
NMTAP	14	288	2
NMTAP	14	312	3
NMTAP	15	0	1
NMTAP	15	0	4
NMSTR	15	72	0
NMSCR	15	72	0	96	48	3
NMTAP	15	72	3
NMTAP	15	192	5
NMTAP	15	240	5
NMTAP	15	288	5
NMTAP	15	312	4
NMTAP	16	0	3
NMTAP	16	0	6
NMTAP	16	72	4
NMSTR	16	72	7
NMSCL	16	72	7	96	48	4
NMTAP	16	192	2
NMTAP	16	240	2
NMTAP	16	288	1
NMTAP	16	288	3
NMTAP	17	0	0
NMSTR	17	72	1
NMSV_	17	72	1	96	48	4
NMTAP	17	72	7
NMTAP	17	192	5
NMTAP	17	240	6
NMTAP	17	288	6
NMTAP	17	312	7
NMTAP	18	0	0
NMTAP	18	0	5
NMTAP	18	72	1
NMSTR	18	72	4
NMSCR	18	72	4	96	72	0
NMTAP	18	192	1
NMTAP	18	240	2
NMTAP	18	288	2
NMTAP	18	312	3
NMTAP	19	0	1
NMTAP	19	0	4
NMSTR	19	72	2
NMSLL	19	72	2	96	72	3
NMTAP	19	72	5
NMTAP	19	192	5
NMTAP	19	240	6
NMTAP	19	288	6
NMTAP	19	312	4
NMTAP	20	0	3
NMTAP	20	0	7
NMTAP	20	72	1
NMSTR	20	72	5
NMSLR	20	72	5	96	72	3
NMTAP	20	192	1
NMTAP	20	240	2
NMTAP	20	288	2
NMTAP	20	312	3
NMTAP	20	336	2
NMTAP	21	0	0
NMTAP	21	0	1
NMTAP	21	48	1
NMTAP	21	72	0
NMTAP	21	120	0
NMSTR	21	144	1
NMSXL	21	144	1	96	144	4
NMTAP	21	240	0
NMTAP	21	288	7
NMTAP	21	336	6
NMTAP	22	0	5
NMSTR	22	72	5
NMSLL	22	72	5	96	72	7
NMTAP	22	336	0
NMTAP	22	336	6
NMTAP	23	0	0
NMTAP	23	0	6
NMSTR	23	72	1
NMSLR	23	72	1	96	96	0
NMSTR	23	72	5
NMSLR	23	72	5	96	96	4
NMTAP	23	336	0
NMTAP	23	336	6
NMTAP	24	0	0
NMTAP	24	0	6
NMSTR	24	72	1
NMSLL	24	72	1	96	96	3
NMSTR	24	72	5
NMSLR	24	72	5	96	96	3
NMTAP	24	336	1
NMTAP	24	336	4
NMTAP	25	0	1
NMTAP	25	0	4
NMTAP	25	48	2
NMTAP	25	72	3
NMTAP	25	120	5
NMSTR	25	144	4
NMSI_	25	144	4	96	48	0
NMTAP	25	240	5
NMTAP	25	312	6
NMTAP	25	360	6
NMSTR	26	0	7
NMSCR	26	0	7	96	96	2
NMSTR	26	96	2
NMSCR	26	96	2	96	96	5
NMSTR	26	192	5
NMSXR	26	192	5	96	168	0
NMTAP	26	264	0
NMTAP	26	336	7
NMTAP	27	0	7
NMSTR	27	72	6
NMSI_	27	72	6	96	48	3
CNSI_	27	216	3	0	72	7
NMTAP	27	336	1
NMTAP	28	0	1
NMTAP	28	0	3
NMTAP	28	72	5
NMTAP	28	72	7
NMTAP	28	144	2
NMTAP	28	144	6
NMSTR	28	192	2
NMSI_	28	192	2	96	48	7
NMSTR	28	192	6
NMSI_	28	192	6	96	48	3
BRTAP	28	288	2
BRTAP	28	288	6
NMTAP	29	0	4
NMTAP	29	48	3
NMTAP	29	48	5
NMTAP	29	96	6
NMHLD	29	120	6	48
NMSTR	29	168	4
NMSXR	29	168	4	96	48	2
NMTAP	29	240	7
NMTAP	29	264	7
NMTAP	29	312	5
NMTAP	29	336	5
NMTAP	30	0	3
NMTAP	30	48	2
NMTAP	30	48	4
NMTAP	30	96	1
NMHLD	30	120	1	48
NMSTR	30	168	3
NMSCR	30	168	3	96	48	6
NMTAP	30	240	2
NMTAP	30	264	2
NMTAP	30	312	0
NMTAP	30	336	0
NMTAP	31	0	7
NMTAP	31	48	0
NMTAP	31	48	6
NMTAP	31	96	2
NMTAP	31	96	4
NMTAP	31	144	5
NMTAP	31	168	4
NMTAP	31	216	2
NMTAP	31	240	3
NMSTR	31	288	0
NMSI_	31	288	0	96	48	3
NMTAP	31	288	6
EXTAP	32	0	0
NMSTR	32	0	5
NMSI_	32	0	5	96	48	2
NMSTR	32	96	1
NMSI_	32	96	1	96	48	6
EXTAP	32	96	5
EXTAP	32	192	1
NMSTR	32	192	4
NMSI_	32	192	4	96	48	7
NMTAP	32	288	0
EXTAP	32	288	4
NMTAP	33	0	0
NMTAP	33	48	1
NMTAP	33	48	7
NMTAP	33	96	2
NMHLD	33	120	2	48
NMSTR	33	168	6
NMSLR	33	168	6	96	72	4
NMTAP	33	240	3
NMTAP	33	264	3
NMTAP	33	312	2
NMTAP	33	336	2
NMTAP	34	0	3
NMTAP	34	48	0
NMTAP	34	48	6
NMTAP	34	96	7
NMHLD	34	120	7	48
NMSTR	34	168	1
NMSI_	34	168	1	96	48	5
NMTAP	34	240	0
NMTAP	34	264	0
NMTAP	34	312	7
NMSTR	35	0	4
NMSCL	35	0	4	96	48	1
NMTAP	35	0	6
NMTAP	35	48	4
NMTAP	35	96	5
NMSTR	35	144	6
NMSCL	35	144	6	96	48	3
NMTAP	35	240	2
NMTAP	35	288	1
NMSTR	35	336	0
NMSCR	35	336	0	96	48	4
NMTAP	36	48	5
NMTAP	36	96	6
NMSTR	36	144	7
NMSI_	36	144	7	96	48	2
NMSI_	36	144	7	96	48	4
NMTAP	36	240	7
NMTAP	37	0	1
NMTAP	37	0	3
NMTAP	37	48	2
NMTAP	37	96	4
NMTAP	37	96	6
NMTAP	37	144	5
NMTAP	37	192	0
NMTAP	37	192	3
NMTAP	37	240	1
NMTAP	37	288	4
NMTAP	37	288	7
NMTAP	37	336	6
NMTAP	38	0	3
NMTAP	38	0	5
NMTAP	38	24	3
NMTAP	38	24	5
NMTAP	38	72	2
NMTAP	38	72	4
NMTAP	38	120	0
NMTAP	38	120	6
NMHLD	38	168	1	72
NMHLD	38	168	5	72
BRTAP	38	288	0
BRSTR	38	288	6
NMSI_	38	288	6	96	48	0
NMSTR	39	0	2
NMSI_	39	0	2	96	48	4
NMTAP	39	48	1
NMSTR	39	96	5
NMSI_	39	96	5	96	48	1
NMTAP	39	144	6
NMTAP	39	192	3
NMSTR	39	240	2
NMSXR	39	240	2	96	144	7
NMTAP	39	288	3
NMTAP	39	336	2
NMTAP	39	336	4
NMTAP	40	48	6
NMTAP	40	96	5
NMTAP	40	144	4
NMSTR	40	192	3
NMSI_	40	192	3	96	48	0
NMSI_	40	192	3	96	48	6
BRTAP	40	288	3
NMSTR	41	0	1
NMSCR	41	0	1	96	48	4
NMTAP	41	0	3
NMTAP	41	48	0
NMTAP	41	96	1
NMTAP	41	96	7
NMTAP	41	144	6
NMTAP	41	192	3
NMSTR	41	192	6
NMSCL	41	192	6	96	48	3
NMTAP	41	240	7
NMTAP	41	288	0
NMTAP	41	288	6
NMTAP	41	336	1
NMSTR	42	0	0
NMSCR	42	0	0	96	48	3
NMSTR	42	0	7
NMSCL	42	0	7	96	48	4
NMSTR	42	96	0
BRSI_	42	96	0	96	48	4
NMSTR	42	96	7
BRSI_	42	96	7	96	48	3
NMTAP	42	192	0
NMTAP	42	192	7
BRSTR	42	288	1
NMSI_	42	288	1	96	48	7
BRTAP	42	288	5
NMSTR	43	0	5
NMSI_	43	0	5	96	48	3
NMTAP	43	48	6
NMSTR	43	96	2
NMSI_	43	96	2	96	48	6
NMTAP	43	144	1
NMTAP	43	192	4
NMSTR	43	240	5
NMSXL	43	240	5	96	144	0
NMTAP	43	288	4
NMTAP	43	336	3
NMTAP	43	336	5
NMTAP	44	48	1
NMTAP	44	96	2
NMTAP	44	144	3
NMSTR	44	192	4
NMSF_	44	192	4	96	48	0
BRTAP	44	288	4
NMTAP	45	0	2
NMSTR	45	0	4
NMSCL	45	0	4	96	48	1
NMTAP	45	48	6
NMTAP	45	96	4
NMTAP	45	96	5
NMTAP	45	144	7
NMSTR	45	192	3
NMSCR	45	192	3	96	48	6
NMTAP	45	192	5
NMTAP	45	240	1
NMTAP	45	288	2
NMTAP	45	288	3
NMTAP	45	336	0
NMHLD	46	0	6	48
NMHLD	46	0	7	48
NMSTR	46	96	0
NMSI_	46	96	0	96	48	4
NMTAP	46	96	5
NMTAP	46	192	0
NMSTR	46	192	5
NMSI_	46	192	5	96	48	0
NMTAP	46	240	6
NMSTR	46	288	1
NMSCL	46	288	1	96	96	5
NMTAP	46	288	5
NMTAP	46	336	3
NMTAP	47	0	1
NMHLD	47	0	5	288
CNSUL	47	96	5	0	192	3
NMHLD	48	0	2	48
NMHLD	48	0	4	48
NMHLD	48	72	3	48
NMHLD	48	72	6	48
NMSTR	48	144	0
NMSXR	48	144	0	96	96	1
NMSTR	48	144	4
NMSXR	48	144	4	96	96	5
NMTAP	49	0	2
NMTAP	49	48	1
NMTAP	49	48	3
NMTAP	49	96	0
NMTAP	49	120	7
NMTAP	49	144	0
NMTAP	49	168	7
NMTAP	49	216	4
NMTAP	49	216	5
NMTAP	49	240	4
NMTAP	49	240	5
NMTAP	49	288	3
NMSTR	49	288	6
NMSI_	49	288	6	96	48	3
NMSTR	50	0	4
NMSI_	50	0	4	96	48	1
NMSTR	50	96	2
NMSI_	50	96	2	96	48	7
NMSTR	50	192	0
NMSI_	50	192	0	96	48	5
NMTAP	50	288	6
NMTAP	51	0	7
NMTAP	51	48	0
NMTAP	51	48	6
NMTAP	51	96	5
NMTAP	51	120	4
NMTAP	51	168	3
NMSTR	51	168	6
NMSCL	51	168	6	96	48	3
NMTAP	51	240	2
NMTAP	51	288	2
NMTAP	51	336	1
NMTAP	52	0	1
NMTAP	52	24	0
NMTAP	52	48	2
NMHLD	52	72	7	48
NMTAP	52	120	3
NMTAP	52	144	4
NMHLD	52	168	2	48
NMTAP	52	216	5
NMTAP	52	240	4
NMHLD	52	264	6	72
NMTAP	52	336	0
NMTAP	53	0	1
NMTAP	53	24	7
NMTAP	53	48	1
NMTAP	53	72	7
NMTAP	53	96	2
NMTAP	53	120	6
NMTAP	53	144	2
NMTAP	53	168	6
NMTAP	53	192	3
NMTAP	53	216	5
NMTAP	53	240	3
NMTAP	53	264	5
NMTAP	53	288	2
NMTAP	53	312	4
NMTAP	53	336	2
NMTAP	54	0	1
NMTAP	54	0	5
NMTAP	54	24	1
NMTAP	54	24	5
NMSTR	54	72	2
NMSLL	54	72	2	96	72	5
NMSTR	54	72	6
NMSLL	54	72	6	96	72	1
NMTAP	54	120	0
NMTAP	54	120	4
BRTAP	54	288	3
BRTAP	54	288	7
NMTTP	55	0	2	E	0	M1
NMTTP	55	192	2	B	0	M1
NMTTP	56	0	3	B	0	M1
NMTTP	56	192	4	E	0	M1
NMTTP	57	0	4	B	0	M1
NMTTP	57	192	5	B	0	M1
NMTAP	58	0	3
NMTAP	58	0	6
NMTAP	58	48	5
NMTAP	58	72	4
NMTAP	58	120	2
NMTAP	58	144	3
NMSTR	58	192	3
NMSI_	58	192	3	96	48	0
NMSTR	58	192	4
NMSI_	58	192	4	96	48	7
NMTAP	58	288	3
NMTAP	58	288	4
NMSTR	59	0	1
NMSCR	59	0	1	96	48	4
NMSTR	59	96	6
NMSCR	59	96	6	96	48	1
NMSTR	59	192	3
NMSCR	59	192	3	96	48	6
NMSTR	59	288	0
NMSCR	59	288	0	96	48	3
NMSTR	60	0	5
NMSCR	60	0	5	96	48	0
NMSTR	60	96	2
NMSCR	60	96	2	96	48	5
NMTAP	60	192	5
NMTAP	60	288	6
NMTAP	60	288	7
NMTAP	61	0	0
NMTAP	61	0	4
NMTAP	61	48	0
NMTAP	61	48	4
NMTAP	61	96	1
NMTAP	61	96	5
NMTAP	61	144	1
NMTAP	61	144	5
NMTAP	61	192	2
NMTAP	61	192	6
NMTAP	61	240	2
NMTAP	61	240	6
NMTAP	61	288	3
NMTAP	61	288	7
NMTAP	61	336	3
NMTAP	61	336	7
NMTAP	62	0	0
NMTAP	62	0	4
NMTAP	62	72	1
NMTAP	62	72	3
NMTAP	62	144	4
NMTAP	62	144	6
NMSTR	62	192	0
BRSI_	62	192	0	96	48	4
NMTAP	62	192	7
BRTAP	62	288	0
BRSTR	62	288	6
NMSV_	62	288	6	96	48	3
NMSTR	63	0	1
NMSLR	63	0	1	96	48	5
NMTAP	63	0	6
NMTAP	63	48	0
NMSTR	63	96	6
NMSI_	63	96	6	96	48	3
NMTAP	63	144	7
NMTAP	63	192	2
NMSTR	63	240	1
NMSI_	63	240	1	96	48	4
NMTAP	63	288	0
NMTAP	63	288	4
NMTAP	63	336	1
NMTAP	63	336	5
CNSLL	64	0	4	0	48	7
NMTAP	64	48	6
NMTAP	64	96	5
NMTAP	64	144	4
NMSTR	64	192	3
NMSF_	64	192	3	96	48	7
BRTAP	64	288	3
NMSTR	65	0	3
NMSI_	65	0	3	96	48	7
NMTAP	65	0	5
NMTAP	65	48	2
NMTAP	65	96	1
NMTAP	65	96	3
NMTAP	65	144	0
NMTAP	65	192	2
NMSTR	65	192	4
NMSI_	65	192	4	96	48	0
NMTAP	65	240	5
NMTAP	65	288	4
NMTAP	65	288	6
NMTAP	65	336	7
NMTAP	66	0	1
NMSTR	66	0	5
NMSI_	66	0	5	96	48	0
NMTAP	66	48	6
NMSTR	66	96	3
NMSI_	66	96	3	96	48	7
NMTAP	66	96	5
NMTAP	66	144	2
NMTAP	66	192	3
NMSTR	66	192	5
BRSCL	66	192	5	96	48	2
NMSTR	66	288	0
NMSI_	66	288	0	96	48	4
NMTAP	66	288	5
BRSTR	67	0	0
NMSCR	67	0	0	96	288	7
BRHLD	67	0	7	576
NMTTP	67	24	0	C	1	M1
CNSUR	68	0	7	0	192	0
NMTTP	68	288	0	B	0	M1
NMTTP	68	288	7	B	0	M1
NMTAP	69	0	2
NMTAP	69	0	3
NMTAP	69	48	1
NMTAP	69	96	4
NMTAP	69	96	5
NMTAP	69	144	6
NMTAP	69	192	1
NMTAP	69	192	3
NMTAP	69	240	0
NMTAP	69	288	4
NMTAP	69	288	6
NMTAP	69	336	7
NMTAP	70	0	3
NMTAP	70	0	5
NMTAP	70	24	3
NMTAP	70	24	5
NMTAP	70	72	2
NMTAP	70	72	4
NMTAP	70	120	3
NMTAP	70	120	6
NMTAP	70	168	1
NMTAP	70	168	4
NMSTR	70	192	1
NMSI_	70	192	1	96	48	5
NMTAP	70	192	4
NMTAP	70	288	1
NMSTR	70	288	4
NMSI_	70	288	4	96	48	0
BRHLD	71	0	2	96
BRTAP	71	0	4
NMTAP	71	96	7
NMTAP	71	168	4
NMTAP	71	168	5
NMTAP	71	216	6
NMTAP	71	240	7
NMTAP	71	288	0
NMTAP	71	288	5
NMTAP	71	336	1
NMTAP	71	336	4
NMSTR	72	0	2
NMSI_	72	0	2	96	48	7
NMTAP	72	0	3
NMTAP	72	48	1
NMTAP	72	48	5
NMTAP	72	96	2
NMTAP	72	96	3
NMTAP	72	168	6
NMTAP	72	216	6
NMTAP	72	240	4
NMTAP	72	288	3
NMTAP	72	288	5
NMTAP	72	336	2
NMTAP	72	336	4
NMSTR	73	0	1
NMSI_	73	0	1	96	48	4
NMTAP	73	0	3
NMTAP	73	48	0
NMTAP	73	96	1
NMTAP	73	96	7
NMTAP	73	168	5
NMTAP	73	216	5
NMTAP	73	240	4
NMTAP	73	288	3
NMTAP	73	288	5
NMTAP	73	336	2
NMTAP	73	336	6
NMTAP	74	0	1
NMTAP	74	0	7
NMTAP	74	24	1
NMTAP	74	24	7
NMTAP	74	72	4
NMTAP	74	72	6
NMTAP	74	120	1
NMTAP	74	120	3
NMHLD	74	144	1	48
NMHLD	74	144	3	48
NMTAP	74	240	1
NMTAP	74	240	3
NMTAP	74	288	0
NMTAP	74	288	7
NMTAP	74	336	4
NMTAP	74	336	6
NMSTR	75	0	3
NMSLL	75	0	3	96	840	7
NMSTR	75	0	7
BRSLL	75	0	7	96	840	3
NMTAP	75	96	3
NMTAP	75	96	7
CNSV_	77	168	3	0	216	6
CNSV_	77	168	7	0	216	2

T_REC_TAP	469
T_REC_BRK	13
T_REC_XTP	7
T_REC_BXX	0
T_REC_HLD	24
T_REC_XHO	0
T_REC_BHO	4
T_REC_BXH	0
T_REC_STR	96
T_REC_BST	4
T_REC_XST	1
T_REC_XBS	0
T_REC_TTP	11
T_REC_THO	0
T_REC_SLD	97
T_REC_BSL	6
T_REC_ALL	732
T_NUM_TAP	584
T_NUM_BRK	27
T_NUM_HLD	24
T_NUM_SLD	97
T_NUM_ALL	732
T_JUDGE_TAP	601
T_JUDGE_HLD	50
T_JUDGE_SLD	103
T_JUDGE_ALL	754
TTM_EACHPAIRS	179
TTM_SCR_TAP	292000
TTM_SCR_BRK	70200
TTM_SCR_HLD	24000
TTM_SCR_SLD	145500
TTM_SCR_ALL	531700
TTM_SCR_S	513150
TTM_SCR_SS	529000
TTM_RAT_ACV	10051

